osu file format v14

[General]
AudioFilename: audio.mp3
AudioLeadIn: 0
PreviewTime: 66554
Countdown: 0
SampleSet: None
StackLeniency: 0.7
Mode: 3
LetterboxInBreaks: 0
SpecialStyle: 0
WidescreenStoryboard: 1

[Editor]
Bookmarks: 32998,105887
DistanceSpacing: 0.8
BeatDivisor: 4
GridSize: 8
TimelineZoom: 0.1

[Metadata]
Title:A Lasting Promise
TitleUnicode:A Lasting Promise
Artist:Laur
ArtistUnicode:Laur
Creator:Fresh Chicken
Version:HS
Source:SOUND VOLTEX IV HEAVENLY HAVEN
Tags:sdvx 4 the 7th konami arcade championship kac オリジナル楽曲コンテスト 最優秀賞品 蒼弐 Ωdimension phase 3 Hot-Blooded Tsumabuki Raito Right Speedcore
BeatmapID:1565608
BeatmapSetID:740015

[Difficulty]
HPDrainRate:10
CircleSize:4
OverallDifficulty:10
ApproachRate:5
SliderMultiplier:1.4
SliderTickRate:1

[Events]
//Background and Video events
0,0,"AlbumArtSmall.jpg",0,0
//Break Periods
2,1199,6910
2,17198,21132
2,59865,65576
//Storyboard Layer 0 (Background)
//Storyboard Layer 1 (Fail)
//Storyboard Layer 2 (Pass)
//Storyboard Layer 3 (Foreground)
//Storyboard Sound Samples

[TimingPoints]
999,222.222222222222,4,2,0,0,1,0

[HitObjects]
448,192,999,5,0,0:0:0:55:CrashL.wav
64,192,999,1,0,0:0:0:55:D BaSS.wav
64,192,8110,5,0,0:0:0:55:D BaSS.wav
320,192,8110,1,0,0:0:0:55:CrashS.wav
192,192,8332,1,0,0:0:0:55:LR4_SnareKKF.wav
320,192,8443,1,0,0:0:0:55:CrashS.wav
192,192,8665,1,0,0:0:0:55:LR4_SnareKKF.wav
320,192,8776,1,0,0:0:0:55:CrashS.wav
64,192,8998,1,0,0:0:0:55:D BaSS.wav
320,192,9110,1,0,0:0:0:55:CrashS.wav
64,192,9221,1,0,0:0:0:55:D BaSS.wav
192,192,9332,1,0,0:0:0:55:LR4_SnareKKF.wav
320,192,9443,1,0,0:0:0:55:CrashS.wav
320,192,9665,1,0,0:0:0:55:CrashS.wav
64,192,9887,5,0,0:0:0:55:D BaSS.wav
320,192,9887,1,0,0:0:0:55:CrashS.wav
192,192,10110,1,0,0:0:0:55:LR4_SnareKKF.wav
320,192,10221,1,0,0:0:0:55:CrashS.wav
192,192,10443,1,0,0:0:0:55:LR4_SnareKKF.wav
320,192,10554,1,0,0:0:0:55:CrashS.wav
64,192,10776,1,0,0:0:0:55:D BaSS.wav
320,192,10887,1,0,0:0:0:55:CrashS.wav
192,192,10998,1,0,0:0:0:55:LR4_SnareKKF.wav
64,192,11110,1,0,0:0:0:55:D BaSS.wav
64,192,11165,1,0,0:0:0:55:D BaSS.wav
320,192,11221,1,0,0:0:0:55:CrashS.wav
320,192,11443,1,0,0:0:0:55:CrashS.wav
64,192,11665,5,0,0:0:0:55:D BaSS.wav
320,192,11665,1,0,0:0:0:55:CrashS.wav
192,192,11887,1,0,0:0:0:55:LR4_SnareKKF.wav
320,192,11998,1,0,0:0:0:55:CrashS.wav
192,192,12221,1,0,0:0:0:55:LR4_SnareKKF.wav
320,192,12332,1,0,0:0:0:55:CrashS.wav
64,192,12554,1,0,0:0:0:55:D BaSS.wav
320,192,12665,1,0,0:0:0:55:CrashS.wav
64,192,12776,1,0,0:0:0:55:D BaSS.wav
192,192,12887,1,0,0:0:0:55:LR4_SnareKKF.wav
320,192,12998,1,0,0:0:0:55:CrashS.wav
320,192,13221,1,0,0:0:0:55:CrashS.wav
64,192,13443,1,0,0:0:0:55:D BaSS.wav
64,192,13665,1,0,0:0:0:55:D BaSS.wav
64,192,13887,1,0,0:0:0:55:D BaSS.wav
64,192,14110,1,0,0:0:0:55:D BaSS.wav
64,192,14332,1,0,0:0:0:55:D BaSS.wav
64,192,14554,1,0,0:0:0:55:D BaSS.wav
64,192,14610,1,0,0:0:0:55:D BaSS.wav
64,192,14665,1,0,0:0:0:55:D BaSS.wav
64,192,14721,1,0,0:0:0:55:D BaSS.wav
64,192,14776,1,0,0:0:0:55:D BaSS.wav
64,192,15221,1,0,0:0:0:55:D BaSS.wav
448,192,16998,1,0,0:0:0:55:CrashL.wav
64,192,16998,1,0,0:0:0:55:D BaSS.wav
64,192,22332,5,0,0:0:0:55:D BaSS.wav
64,192,22443,1,0,0:0:0:55:D BaSS.wav
64,192,22498,1,0,0:0:0:55:D BaSS.wav
192,192,22554,1,0,0:0:0:55:LR4_SnareKKF.wav
64,192,22665,1,0,0:0:0:55:D BaSS.wav
64,192,22776,1,0,0:0:0:55:D BaSS.wav
192,192,22887,1,0,0:0:0:55:LR4_SnareKKF.wav
64,192,23221,1,0,0:0:0:55:D BaSS.wav
64,192,23332,1,0,0:0:0:55:D BaSS.wav
64,192,23387,1,0,0:0:0:55:D BaSS.wav
64,192,23443,1,0,0:0:0:55:D BaSS.wav
192,192,23554,1,0,0:0:0:55:LR4_SnareKKF.wav
64,192,23665,1,0,0:0:0:55:D BaSS.wav
448,192,24110,1,0,0:0:0:55:CrashL.wav
64,192,24110,1,0,0:0:0:55:D BaSS.wav
64,192,25665,1,0,0:0:0:55:D BaSS.wav
64,192,25721,1,0,0:0:0:55:D BaSS.wav
64,192,25776,1,0,0:0:0:55:D BaSS.wav
64,192,25832,1,0,0:0:0:55:D BaSS.wav
64,192,25887,1,0,0:0:0:55:D BaSS.wav
448,192,25887,1,0,0:0:0:55:CrashL.wav
64,192,27443,1,0,0:0:0:55:D BaSS.wav
64,192,27665,1,0,0:0:0:55:D BaSS.wav
64,192,27887,1,0,0:0:0:55:D BaSS.wav
64,192,28110,1,0,0:0:0:55:D BaSS.wav
64,192,28332,1,0,0:0:0:55:D BaSS.wav
64,192,28554,1,0,0:0:0:55:D BaSS.wav
64,192,28610,1,0,0:0:0:55:D BaSS.wav
64,192,28665,1,0,0:0:0:55:D BaSS.wav
64,192,28721,1,0,0:0:0:55:D BaSS.wav
64,192,28776,1,0,0:0:0:55:D BaSS.wav
64,192,28832,1,0,0:0:0:55:D BaSS.wav
64,192,28887,1,0,0:0:0:55:D BaSS.wav
64,192,28943,1,0,0:0:0:55:D BaSS.wav
64,192,28998,1,0,0:0:0:55:D BaSS.wav
64,192,29054,1,0,0:0:0:55:D BaSS.wav
64,192,29110,1,0,0:0:0:55:D BaSS.wav
64,192,29165,1,0,0:0:0:55:D BaSS.wav
64,192,29221,1,0,0:0:0:55:D BaSS.wav
64,192,29276,1,0,0:0:0:55:D BaSS.wav
64,192,29332,1,0,0:0:0:55:D BaSS.wav
64,192,29387,1,0,0:0:0:55:D BaSS.wav
64,192,29443,1,0,0:0:0:55:D BaSS.wav
192,192,30776,1,0,0:0:0:55:LR4_SnareKKF.wav
192,192,30998,1,0,0:0:0:55:LR4_SnareKKF.wav
64,192,31221,1,0,0:0:0:55:D BaSS.wav
448,192,31221,1,0,0:0:0:55:CrashL.wav
64,192,31276,1,0,0:0:0:55:D BaSS.wav
64,192,31332,1,0,0:0:0:55:D BaSS.wav
64,192,31387,1,0,0:0:0:55:D BaSS.wav
64,192,31443,1,0,0:0:0:55:D BaSS.wav
64,192,31498,1,0,0:0:0:55:D BaSS.wav
64,192,31554,1,0,0:0:0:55:D BaSS.wav
64,192,31610,1,0,0:0:0:55:D BaSS.wav
64,192,31665,1,0,0:0:0:55:D BaSS.wav
64,192,31721,1,0,0:0:0:55:D BaSS.wav
64,192,31776,1,0,0:0:0:55:D BaSS.wav
64,192,31832,1,0,0:0:0:55:D BaSS.wav
64,192,31887,1,0,0:0:0:55:D BaSS.wav
64,192,31943,1,0,0:0:0:55:D BaSS.wav
64,192,31998,1,0,0:0:0:55:D BaSS.wav
64,192,32054,1,0,0:0:0:55:D BaSS.wav
64,192,32110,1,0,0:0:0:55:D BaSS.wav
64,192,32332,1,0,0:0:0:55:D BaSS.wav
64,192,32387,1,0,0:0:0:55:D BaSS.wav
64,192,32443,1,0,0:0:0:55:D BaSS.wav
64,192,32554,1,0,0:0:0:55:D BaSS.wav
64,192,32665,1,0,0:0:0:55:D BaSS.wav
64,192,32693,1,0,0:0:0:55:D BaSS.wav
64,192,32721,1,0,0:0:0:55:D BaSS.wav
64,192,32748,1,0,0:0:0:55:D BaSS.wav
64,192,32776,1,0,0:0:0:55:D BaSS.wav
64,192,32998,1,0,0:0:0:55:D BaSS.wav
64,192,33054,1,0,0:0:0:55:D BaSS.wav
64,192,33110,1,0,0:0:0:55:D BaSS.wav
64,192,33165,1,0,0:0:0:55:D BaSS.wav
64,192,33221,1,0,0:0:0:55:D BaSS.wav
64,192,33276,1,0,0:0:0:55:D BaSS.wav
64,192,33332,1,0,0:0:0:55:D BaSS.wav
64,192,33387,1,0,0:0:0:55:D BaSS.wav
64,192,33443,1,0,0:0:0:55:D BaSS.wav
64,192,33498,1,0,0:0:0:55:D BaSS.wav
64,192,33554,1,0,0:0:0:55:D BaSS.wav
64,192,33610,1,0,0:0:0:55:D BaSS.wav
64,192,33665,1,0,0:0:0:55:D BaSS.wav
64,192,33721,1,0,0:0:0:55:D BaSS.wav
64,192,33776,1,0,0:0:0:55:D BaSS.wav
64,192,33832,1,0,0:0:0:55:D BaSS.wav
64,192,33887,1,0,0:0:0:55:D BaSS.wav
64,192,34110,1,0,0:0:0:55:D BaSS.wav
64,192,34332,1,0,0:0:0:55:D BaSS.wav
64,192,34360,1,0,0:0:0:55:D BaSS.wav
64,192,34387,1,0,0:0:0:55:D BaSS.wav
64,192,34415,1,0,0:0:0:55:D BaSS.wav
64,192,34443,1,0,0:0:0:55:D BaSS.wav
64,192,34498,1,0,0:0:0:55:D BaSS.wav
64,192,34554,1,0,0:0:0:55:D BaSS.wav
64,192,34582,1,0,0:0:0:55:D BaSS.wav
64,192,34610,1,0,0:0:0:55:D BaSS.wav
64,192,34637,1,0,0:0:0:55:D BaSS.wav
64,192,34665,1,0,0:0:0:55:D BaSS.wav
64,192,34721,1,0,0:0:0:55:D BaSS.wav
64,192,34776,1,0,0:0:0:55:D BaSS.wav
64,192,34832,1,0,0:0:0:55:D BaSS.wav
64,192,34887,1,0,0:0:0:55:D BaSS.wav
64,192,34943,1,0,0:0:0:55:D BaSS.wav
64,192,34998,1,0,0:0:0:55:D BaSS.wav
64,192,35054,1,0,0:0:0:55:D BaSS.wav
64,192,35110,1,0,0:0:0:55:D BaSS.wav
64,192,35165,1,0,0:0:0:55:D BaSS.wav
64,192,35221,1,0,0:0:0:55:D BaSS.wav
64,192,35276,1,0,0:0:0:55:D BaSS.wav
64,192,35332,1,0,0:0:0:55:D BaSS.wav
64,192,35387,1,0,0:0:0:55:D BaSS.wav
64,192,35443,1,0,0:0:0:55:D BaSS.wav
64,192,35498,1,0,0:0:0:55:D BaSS.wav
64,192,35554,1,0,0:0:0:55:D BaSS.wav
64,192,35610,1,0,0:0:0:55:D BaSS.wav
64,192,35665,1,0,0:0:0:55:D BaSS.wav
64,192,35887,1,0,0:0:0:55:D BaSS.wav
64,192,35943,1,0,0:0:0:55:D BaSS.wav
64,192,35998,1,0,0:0:0:55:D BaSS.wav
64,192,36110,1,0,0:0:0:55:D BaSS.wav
64,192,36221,1,0,0:0:0:55:D BaSS.wav
64,192,36248,1,0,0:0:0:55:D BaSS.wav
64,192,36276,1,0,0:0:0:55:D BaSS.wav
64,192,36304,1,0,0:0:0:55:D BaSS.wav
64,192,36332,1,0,0:0:0:55:D BaSS.wav
64,192,36554,1,0,0:0:0:55:D BaSS.wav
64,192,36776,1,0,0:0:0:55:D BaSS.wav
64,192,36998,1,0,0:0:0:55:D BaSS.wav
64,192,37221,1,0,0:0:0:55:D BaSS.wav
64,192,37332,1,0,0:0:0:55:D BaSS.wav
64,192,37387,1,0,0:0:0:55:D BaSS.wav
64,192,37443,1,0,0:0:0:55:D BaSS.wav
64,192,37554,1,0,0:0:0:55:D BaSS.wav
64,192,37776,1,0,0:0:0:55:D BaSS.wav
64,192,37887,1,0,0:0:0:55:D BaSS.wav
64,192,38110,1,0,0:0:0:55:D BaSS.wav
64,192,38221,1,0,0:0:0:55:D BaSS.wav
64,192,38332,1,0,0:0:0:55:D BaSS.wav
448,192,38332,1,0,0:0:0:55:CrashL.wav
64,192,38387,1,0,0:0:0:55:D BaSS.wav
64,192,38443,1,0,0:0:0:55:D BaSS.wav
64,192,38498,1,0,0:0:0:55:D BaSS.wav
64,192,38554,1,0,0:0:0:55:D BaSS.wav
64,192,38610,1,0,0:0:0:55:D BaSS.wav
64,192,38665,1,0,0:0:0:55:D BaSS.wav
64,192,38721,1,0,0:0:0:55:D BaSS.wav
64,192,38776,1,0,0:0:0:55:D BaSS.wav
64,192,38832,1,0,0:0:0:55:D BaSS.wav
64,192,38887,1,0,0:0:0:55:D BaSS.wav
64,192,38943,1,0,0:0:0:55:D BaSS.wav
64,192,38998,1,0,0:0:0:55:D BaSS.wav
64,192,39054,1,0,0:0:0:55:D BaSS.wav
64,192,39110,1,0,0:0:0:55:D BaSS.wav
64,192,39165,1,0,0:0:0:55:D BaSS.wav
64,192,39221,1,0,0:0:0:55:D BaSS.wav
64,192,39443,1,0,0:0:0:55:D BaSS.wav
64,192,39498,1,0,0:0:0:55:D BaSS.wav
64,192,39554,1,0,0:0:0:55:D BaSS.wav
64,192,39665,1,0,0:0:0:55:D BaSS.wav
64,192,39776,1,0,0:0:0:55:D BaSS.wav
64,192,39804,1,0,0:0:0:55:D BaSS.wav
64,192,39832,1,0,0:0:0:55:D BaSS.wav
64,192,39860,1,0,0:0:0:55:D BaSS.wav
64,192,39887,1,0,0:0:0:55:D BaSS.wav
64,192,40110,1,0,0:0:0:55:D BaSS.wav
64,192,40165,1,0,0:0:0:55:D BaSS.wav
64,192,40221,1,0,0:0:0:55:D BaSS.wav
64,192,40276,1,0,0:0:0:55:D BaSS.wav
64,192,40332,1,0,0:0:0:55:D BaSS.wav
64,192,40387,1,0,0:0:0:55:D BaSS.wav
64,192,40443,1,0,0:0:0:55:D BaSS.wav
64,192,40498,1,0,0:0:0:55:D BaSS.wav
64,192,40554,1,0,0:0:0:55:D BaSS.wav
64,192,40610,1,0,0:0:0:55:D BaSS.wav
64,192,40665,1,0,0:0:0:55:D BaSS.wav
64,192,40721,1,0,0:0:0:55:D BaSS.wav
64,192,40776,1,0,0:0:0:55:D BaSS.wav
64,192,40832,1,0,0:0:0:55:D BaSS.wav
64,192,40887,1,0,0:0:0:55:D BaSS.wav
64,192,40943,1,0,0:0:0:55:D BaSS.wav
64,192,40998,1,0,0:0:0:55:D BaSS.wav
64,192,41221,1,0,0:0:0:55:D BaSS.wav
64,192,41443,1,0,0:0:0:55:D BaSS.wav
64,192,41471,1,0,0:0:0:55:D BaSS.wav
64,192,41498,1,0,0:0:0:55:D BaSS.wav
64,192,41526,1,0,0:0:0:55:D BaSS.wav
64,192,41554,1,0,0:0:0:55:D BaSS.wav
64,192,41610,1,0,0:0:0:55:D BaSS.wav
64,192,41665,1,0,0:0:0:55:D BaSS.wav
64,192,41693,1,0,0:0:0:55:D BaSS.wav
64,192,41721,1,0,0:0:0:55:D BaSS.wav
64,192,41748,1,0,0:0:0:55:D BaSS.wav
64,192,41776,1,0,0:0:0:55:D BaSS.wav
64,192,41832,1,0,0:0:0:55:D BaSS.wav
64,192,41887,1,0,0:0:0:55:D BaSS.wav
64,192,41943,1,0,0:0:0:55:D BaSS.wav
64,192,41998,1,0,0:0:0:55:D BaSS.wav
64,192,42054,1,0,0:0:0:55:D BaSS.wav
64,192,42110,1,0,0:0:0:55:D BaSS.wav
64,192,42165,1,0,0:0:0:55:D BaSS.wav
64,192,42221,1,0,0:0:0:55:D BaSS.wav
64,192,42276,1,0,0:0:0:55:D BaSS.wav
64,192,42332,1,0,0:0:0:55:D BaSS.wav
64,192,42387,1,0,0:0:0:55:D BaSS.wav
64,192,42443,1,0,0:0:0:55:D BaSS.wav
64,192,42498,1,0,0:0:0:55:D BaSS.wav
64,192,42554,1,0,0:0:0:55:D BaSS.wav
64,192,42610,1,0,0:0:0:55:D BaSS.wav
64,192,42665,1,0,0:0:0:55:D BaSS.wav
64,192,42721,1,0,0:0:0:55:D BaSS.wav
64,192,42776,1,0,0:0:0:55:D BaSS.wav
64,192,42998,1,0,0:0:0:55:D BaSS.wav
64,192,43054,1,0,0:0:0:55:D BaSS.wav
64,192,43110,1,0,0:0:0:55:D BaSS.wav
64,192,43221,1,0,0:0:0:55:D BaSS.wav
64,192,43332,1,0,0:0:0:55:D BaSS.wav
64,192,43360,1,0,0:0:0:55:D BaSS.wav
64,192,43387,1,0,0:0:0:55:D BaSS.wav
64,192,43415,1,0,0:0:0:55:D BaSS.wav
64,192,43443,1,0,0:0:0:55:D BaSS.wav
64,192,43665,1,0,0:0:0:55:D BaSS.wav
320,192,43665,1,0,0:0:0:55:CrashS.wav
192,192,44998,1,0,0:0:0:55:LR4_SnareKKF.wav
192,192,45221,1,0,0:0:0:55:LR4_SnareKKF.wav
64,192,45443,1,0,0:0:0:55:D BaSS.wav
64,192,45554,1,0,0:0:0:55:D BaSS.wav
64,192,45665,1,0,0:0:0:55:D BaSS.wav
64,192,45887,1,0,0:0:0:55:D BaSS.wav
64,192,46110,1,0,0:0:0:55:D BaSS.wav
64,192,46165,1,0,0:0:0:55:D BaSS.wav
64,192,46221,1,0,0:0:0:55:D BaSS.wav
64,192,46332,1,0,0:0:0:55:D BaSS.wav
64,192,46387,1,0,0:0:0:55:D BaSS.wav
64,192,46443,1,0,0:0:0:55:D BaSS.wav
64,192,46498,1,0,0:0:0:55:D BaSS.wav
64,192,46554,1,0,0:0:0:55:D BaSS.wav
64,192,46776,1,0,0:0:0:55:D BaSS.wav
64,192,46998,1,0,0:0:0:55:D BaSS.wav
64,192,47110,1,0,0:0:0:55:D BaSS.wav
64,192,47221,1,0,0:0:0:55:D BaSS.wav
64,192,47443,1,0,0:0:0:55:D BaSS.wav
64,192,47498,1,0,0:0:0:55:D BaSS.wav
64,192,47554,1,0,0:0:0:55:D BaSS.wav
64,192,47776,1,0,0:0:0:55:D BaSS.wav
64,192,47804,1,0,0:0:0:55:D BaSS.wav
64,192,47832,1,0,0:0:0:55:D BaSS.wav
64,192,47860,1,0,0:0:0:55:D BaSS.wav
64,192,47887,1,0,0:0:0:55:D BaSS.wav
64,192,47998,1,0,0:0:0:55:D BaSS.wav
64,192,48110,1,0,0:0:0:55:D BaSS.wav
64,192,48554,1,0,0:0:0:55:D BaSS.wav
64,192,48776,1,0,0:0:0:55:D BaSS.wav
64,192,48998,1,0,0:0:0:55:D BaSS.wav
64,192,49221,1,0,0:0:0:55:D BaSS.wav
64,192,49443,1,0,0:0:0:55:D BaSS.wav
64,192,49665,1,0,0:0:0:55:D BaSS.wav
64,192,49776,1,0,0:0:0:55:D BaSS.wav
64,192,49887,1,0,0:0:0:55:D BaSS.wav
64,192,49943,1,0,0:0:0:55:D BaSS.wav
64,192,49998,1,0,0:0:0:55:D BaSS.wav
64,192,50054,1,0,0:0:0:55:D BaSS.wav
64,192,50110,1,0,0:0:0:55:D BaSS.wav
64,192,50332,1,0,0:0:0:55:D BaSS.wav
64,192,50554,1,0,0:0:0:55:D BaSS.wav
64,192,50665,1,0,0:0:0:55:D BaSS.wav
64,192,50776,1,0,0:0:0:55:D BaSS.wav
64,192,51665,1,0,0:0:0:55:D BaSS.wav
64,192,51693,1,0,0:0:0:55:D BaSS.wav
64,192,51721,1,0,0:0:0:55:D BaSS.wav
64,192,51748,1,0,0:0:0:55:D BaSS.wav
64,192,51776,1,0,0:0:0:55:D BaSS.wav
64,192,51804,1,0,0:0:0:55:D BaSS.wav
64,192,51832,1,0,0:0:0:55:D BaSS.wav
64,192,51860,1,0,0:0:0:55:D BaSS.wav
64,192,51887,1,0,0:0:0:55:D BaSS.wav
64,192,51915,1,0,0:0:0:55:D BaSS.wav
64,192,51943,1,0,0:0:0:55:D BaSS.wav
64,192,51971,1,0,0:0:0:55:D BaSS.wav
64,192,51998,1,0,0:0:0:55:D BaSS.wav
64,192,52026,1,0,0:0:0:55:D BaSS.wav
64,192,52054,1,0,0:0:0:55:D BaSS.wav
64,192,52082,1,0,0:0:0:55:D BaSS.wav
64,192,52110,1,0,0:0:0:55:D BaSS.wav
64,192,52332,1,0,0:0:0:55:D BaSS.wav
64,192,52443,1,0,0:0:0:55:D BaSS.wav
448,192,52554,1,0,0:0:0:55:CrashL.wav
64,192,52554,1,0,0:0:0:55:D BaSS.wav
64,192,52665,1,0,0:0:0:55:D BaSS.wav
64,192,52776,1,0,0:0:0:55:D BaSS.wav
64,192,52998,1,0,0:0:0:55:D BaSS.wav
64,192,53221,1,0,0:0:0:55:D BaSS.wav
64,192,53276,1,0,0:0:0:55:D BaSS.wav
64,192,53332,1,0,0:0:0:55:D BaSS.wav
64,192,53443,1,0,0:0:0:55:D BaSS.wav
64,192,53498,1,0,0:0:0:55:D BaSS.wav
64,192,53554,1,0,0:0:0:55:D BaSS.wav
64,192,53610,1,0,0:0:0:55:D BaSS.wav
64,192,53665,1,0,0:0:0:55:D BaSS.wav
64,192,53887,1,0,0:0:0:55:D BaSS.wav
64,192,54110,1,0,0:0:0:55:D BaSS.wav
64,192,54221,1,0,0:0:0:55:D BaSS.wav
64,192,54332,1,0,0:0:0:55:D BaSS.wav
64,192,54554,1,0,0:0:0:55:D BaSS.wav
64,192,54665,1,0,0:0:0:55:D BaSS.wav
64,192,54887,1,0,0:0:0:55:D BaSS.wav
64,192,55110,1,0,0:0:0:55:D BaSS.wav
64,192,55137,1,0,0:0:0:55:D BaSS.wav
64,192,55165,1,0,0:0:0:55:D BaSS.wav
64,192,55193,1,0,0:0:0:55:D BaSS.wav
64,192,55221,1,0,0:0:0:55:D BaSS.wav
64,192,55665,1,0,0:0:0:55:D BaSS.wav
192,192,55887,1,0,0:0:0:55:LR4_SnareKKF.wav
64,192,56110,1,0,0:0:0:55:D BaSS.wav
64,192,56221,1,0,0:0:0:55:D BaSS.wav
64,192,56332,1,0,0:0:0:55:D BaSS.wav
64,192,56554,1,0,0:0:0:55:D BaSS.wav
64,192,56776,1,0,0:0:0:55:D BaSS.wav
64,192,56832,1,0,0:0:0:55:D BaSS.wav
64,192,56887,1,0,0:0:0:55:D BaSS.wav
64,192,56998,1,0,0:0:0:55:D BaSS.wav
64,192,57054,1,0,0:0:0:55:D BaSS.wav
64,192,57110,1,0,0:0:0:55:D BaSS.wav
64,192,57165,1,0,0:0:0:55:D BaSS.wav
64,192,57221,1,0,0:0:0:55:D BaSS.wav
64,192,57443,1,0,0:0:0:55:D BaSS.wav
64,192,57665,1,0,0:0:0:55:D BaSS.wav
64,192,57776,1,0,0:0:0:55:D BaSS.wav
64,192,57804,1,0,0:0:0:55:D BaSS.wav
64,192,57832,1,0,0:0:0:55:D BaSS.wav
64,192,57860,1,0,0:0:0:55:D BaSS.wav
64,192,57887,1,0,0:0:0:55:D BaSS.wav
320,192,57887,1,0,0:0:0:55:CrashS.wav
320,192,58776,1,0,0:0:0:55:CrashS.wav
64,192,58776,1,0,0:0:0:55:D BaSS.wav
448,192,59665,1,0,0:0:0:55:CrashL.wav
64,192,59665,1,0,0:0:0:55:D BaSS.wav
448,192,66776,5,0,0:0:0:55:CrashL.wav
192,192,66776,1,0,0:0:0:55:LR4_SnareKKF.wav
448,192,67665,1,0,0:0:0:55:CrashL.wav
192,192,67665,1,0,0:0:0:55:LR4_SnareKKF.wav
448,192,68554,1,0,0:0:0:55:CrashL.wav
192,192,68554,1,0,0:0:0:55:LR4_SnareKKF.wav
192,192,69443,1,0,0:0:0:55:LR4_SnareKKF.wav
448,192,69443,1,0,0:0:0:55:CrashL.wav
64,192,69887,1,0,0:0:0:55:D BaSS.wav
64,192,69943,1,0,0:0:0:55:D BaSS.wav
64,192,69998,1,0,0:0:0:55:D BaSS.wav
64,192,70054,1,0,0:0:0:55:D BaSS.wav
192,192,70110,1,0,0:0:0:55:LR4_SnareKKF.wav
64,192,70332,1,0,0:0:0:55:D BaSS.wav
64,192,70443,1,0,0:0:0:55:D BaSS.wav
64,192,70554,1,0,0:0:0:55:D BaSS.wav
64,192,70776,1,0,0:0:0:55:D BaSS.wav
64,192,70998,1,0,0:0:0:55:D BaSS.wav
64,192,71110,1,0,0:0:0:55:D BaSS.wav
64,192,71221,1,0,0:0:0:55:D BaSS.wav
64,192,71276,1,0,0:0:0:55:D BaSS.wav
64,192,71332,1,0,0:0:0:55:D BaSS.wav
64,192,71387,1,0,0:0:0:55:D BaSS.wav
64,192,71443,1,0,0:0:0:55:D BaSS.wav
64,192,71665,1,0,0:0:0:55:D BaSS.wav
64,192,71721,1,0,0:0:0:55:D BaSS.wav
64,192,71776,1,0,0:0:0:55:D BaSS.wav
64,192,71832,1,0,0:0:0:55:D BaSS.wav
64,192,71887,1,0,0:0:0:55:D BaSS.wav
64,192,71943,1,0,0:0:0:55:D BaSS.wav
64,192,71998,1,0,0:0:0:55:D BaSS.wav
64,192,72054,1,0,0:0:0:55:D BaSS.wav
64,192,72110,1,0,0:0:0:55:D BaSS.wav
448,192,72110,1,0,0:0:0:55:CrashL.wav
192,192,72998,1,0,0:0:0:55:LR4_SnareKKF.wav
320,192,72998,1,0,0:0:0:55:CrashS.wav
448,192,73887,1,0,0:0:0:55:CrashL.wav
64,192,73887,1,0,0:0:0:55:D BaSS.wav
64,192,73998,1,0,0:0:0:55:D BaSS.wav
64,192,74110,1,0,0:0:0:55:D BaSS.wav
64,192,74332,1,0,0:0:0:55:D BaSS.wav
64,192,74554,1,0,0:0:0:55:D BaSS.wav
64,192,74665,1,0,0:0:0:55:D BaSS.wav
64,192,74721,1,0,0:0:0:55:D BaSS.wav
64,192,74776,1,0,0:0:0:55:D BaSS.wav
64,192,74887,1,0,0:0:0:55:D BaSS.wav
64,192,74998,1,0,0:0:0:55:D BaSS.wav
64,192,75221,1,0,0:0:0:55:D BaSS.wav
64,192,75443,1,0,0:0:0:55:D BaSS.wav
64,192,75554,1,0,0:0:0:55:D BaSS.wav
64,192,75665,1,0,0:0:0:55:D BaSS.wav
64,192,75887,1,0,0:0:0:55:D BaSS.wav
64,192,75943,1,0,0:0:0:55:D BaSS.wav
64,192,75998,1,0,0:0:0:55:D BaSS.wav
64,192,76221,1,0,0:0:0:55:D BaSS.wav
64,192,76276,1,0,0:0:0:55:D BaSS.wav
64,192,76332,1,0,0:0:0:55:D BaSS.wav
64,192,76443,1,0,0:0:0:55:D BaSS.wav
64,192,76554,1,0,0:0:0:55:D BaSS.wav
64,192,76776,1,0,0:0:0:55:D BaSS.wav
64,192,76804,1,0,0:0:0:55:D BaSS.wav
64,192,76832,1,0,0:0:0:55:D BaSS.wav
64,192,76860,1,0,0:0:0:55:D BaSS.wav
64,192,76887,1,0,0:0:0:55:D BaSS.wav
64,192,76943,1,0,0:0:0:55:D BaSS.wav
64,192,76998,1,0,0:0:0:55:D BaSS.wav
192,192,77221,1,0,0:0:0:55:LR4_SnareKKF.wav
192,192,77276,1,0,0:0:0:55:LR4_SnareKKF.wav
192,192,77332,1,0,0:0:0:55:LR4_SnareKKF.wav
64,192,77443,1,0,0:0:0:55:D BaSS.wav
64,192,77665,1,0,0:0:0:55:D BaSS.wav
64,192,77721,1,0,0:0:0:55:D BaSS.wav
64,192,77776,1,0,0:0:0:55:D BaSS.wav
64,192,77998,1,0,0:0:0:55:D BaSS.wav
64,192,78026,1,0,0:0:0:55:D BaSS.wav
64,192,78054,1,0,0:0:0:55:D BaSS.wav
64,192,78082,1,0,0:0:0:55:D BaSS.wav
64,192,78110,1,0,0:0:0:55:D BaSS.wav
64,192,78332,1,0,0:0:0:55:D BaSS.wav
64,192,78554,1,0,0:0:0:55:D BaSS.wav
64,192,78776,1,0,0:0:0:55:D BaSS.wav
64,192,79221,1,0,0:0:0:55:D BaSS.wav
64,192,79443,1,0,0:0:0:55:D BaSS.wav
64,192,79498,1,0,0:0:0:55:D BaSS.wav
64,192,79554,1,0,0:0:0:55:D BaSS.wav
64,192,79776,1,0,0:0:0:55:D BaSS.wav
64,192,79887,1,0,0:0:0:55:D BaSS.wav
64,192,79943,1,0,0:0:0:55:D BaSS.wav
64,192,79998,1,0,0:0:0:55:D BaSS.wav
64,192,80054,1,0,0:0:0:55:D BaSS.wav
64,192,80110,1,0,0:0:0:55:D BaSS.wav
192,192,80776,1,0,0:0:0:55:LR4_SnareKKF.wav
448,192,80998,1,0,0:0:0:55:CrashL.wav
64,192,80998,1,0,0:0:0:55:D BaSS.wav
64,192,81110,1,0,0:0:0:55:D BaSS.wav
64,192,81221,1,0,0:0:0:55:D BaSS.wav
64,192,81443,1,0,0:0:0:55:D BaSS.wav
64,192,81665,1,0,0:0:0:55:D BaSS.wav
64,192,81776,1,0,0:0:0:55:D BaSS.wav
64,192,81832,1,0,0:0:0:55:D BaSS.wav
64,192,81887,1,0,0:0:0:55:D BaSS.wav
64,192,81998,1,0,0:0:0:55:D BaSS.wav
64,192,82110,1,0,0:0:0:55:D BaSS.wav
64,192,82332,1,0,0:0:0:55:D BaSS.wav
64,192,82554,1,0,0:0:0:55:D BaSS.wav
64,192,82665,1,0,0:0:0:55:D BaSS.wav
64,192,82776,1,0,0:0:0:55:D BaSS.wav
64,192,82998,1,0,0:0:0:55:D BaSS.wav
64,192,83054,1,0,0:0:0:55:D BaSS.wav
64,192,83110,1,0,0:0:0:55:D BaSS.wav
64,192,83332,1,0,0:0:0:55:D BaSS.wav
64,192,83387,1,0,0:0:0:55:D BaSS.wav
64,192,83443,1,0,0:0:0:55:D BaSS.wav
64,192,83554,1,0,0:0:0:55:D BaSS.wav
64,192,83665,1,0,0:0:0:55:D BaSS.wav
64,192,83887,1,0,0:0:0:55:D BaSS.wav
64,192,83915,1,0,0:0:0:55:D BaSS.wav
64,192,83943,1,0,0:0:0:55:D BaSS.wav
64,192,83971,1,0,0:0:0:55:D BaSS.wav
64,192,83998,1,0,0:0:0:55:D BaSS.wav
64,192,84054,1,0,0:0:0:55:D BaSS.wav
64,192,84110,1,0,0:0:0:55:D BaSS.wav
192,192,84332,1,0,0:0:0:55:LR4_SnareKKF.wav
192,192,84387,1,0,0:0:0:55:LR4_SnareKKF.wav
192,192,84443,1,0,0:0:0:55:LR4_SnareKKF.wav
64,192,84554,1,0,0:0:0:55:D BaSS.wav
64,192,84776,1,0,0:0:0:55:D BaSS.wav
64,192,84832,1,0,0:0:0:55:D BaSS.wav
64,192,84887,1,0,0:0:0:55:D BaSS.wav
64,192,85110,1,0,0:0:0:55:D BaSS.wav
64,192,85137,1,0,0:0:0:55:D BaSS.wav
64,192,85165,1,0,0:0:0:55:D BaSS.wav
64,192,85193,1,0,0:0:0:55:D BaSS.wav
64,192,85221,1,0,0:0:0:55:D BaSS.wav
64,192,85443,1,0,0:0:0:55:D BaSS.wav
64,192,85665,1,0,0:0:0:55:D BaSS.wav
192,192,86110,1,0,0:0:0:55:LR4_SnareKKF.wav
64,192,86332,1,0,0:0:0:55:D BaSS.wav
64,192,86387,1,0,0:0:0:55:D BaSS.wav
64,192,86443,1,0,0:0:0:55:D BaSS.wav
64,192,86498,1,0,0:0:0:55:D BaSS.wav
64,192,86554,1,0,0:0:0:55:D BaSS.wav
64,192,86610,1,0,0:0:0:55:D BaSS.wav
64,192,86665,1,0,0:0:0:55:D BaSS.wav
64,192,86721,1,0,0:0:0:55:D BaSS.wav
64,192,86776,1,0,0:0:0:55:D BaSS.wav
64,192,86832,1,0,0:0:0:55:D BaSS.wav
64,192,86887,1,0,0:0:0:55:D BaSS.wav
64,192,86943,1,0,0:0:0:55:D BaSS.wav
64,192,86998,1,0,0:0:0:55:D BaSS.wav
64,192,87054,1,0,0:0:0:55:D BaSS.wav
64,192,87110,1,0,0:0:0:55:D BaSS.wav
64,192,87165,1,0,0:0:0:55:D BaSS.wav
64,192,87221,1,0,0:0:0:55:D BaSS.wav
448,192,87221,1,0,0:0:0:55:CrashL.wav
64,192,88110,1,0,0:0:0:55:D BaSS.wav
64,192,88221,1,0,0:0:0:55:D BaSS.wav
64,192,88332,1,0,0:0:0:55:D BaSS.wav
192,192,88554,1,0,0:0:0:55:LR4_SnareKKF.wav
64,192,88776,1,0,0:0:0:55:D BaSS.wav
64,192,88832,1,0,0:0:0:55:D BaSS.wav
64,192,88887,1,0,0:0:0:55:D BaSS.wav
64,192,88943,1,0,0:0:0:55:D BaSS.wav
64,192,88998,1,0,0:0:0:55:D BaSS.wav
192,192,89221,1,0,0:0:0:55:LR4_SnareKKF.wav
64,192,89443,1,0,0:0:0:55:D BaSS.wav
192,192,89665,1,0,0:0:0:55:LR4_SnareKKF.wav
64,192,89721,1,0,0:0:0:55:D BaSS.wav
64,192,89776,1,0,0:0:0:55:D BaSS.wav
64,192,89832,1,0,0:0:0:55:D BaSS.wav
64,192,89887,1,0,0:0:0:55:D BaSS.wav
64,192,90110,1,0,0:0:0:55:D BaSS.wav
64,192,90165,1,0,0:0:0:55:D BaSS.wav
192,192,90221,1,0,0:0:0:55:LR4_SnareKKF.wav
64,192,90443,1,0,0:0:0:55:D BaSS.wav
64,192,90471,1,0,0:0:0:55:D BaSS.wav
64,192,90498,1,0,0:0:0:55:D BaSS.wav
64,192,90526,1,0,0:0:0:55:D BaSS.wav
64,192,90554,1,0,0:0:0:55:D BaSS.wav
192,192,90776,1,0,0:0:0:55:LR4_SnareKKF.wav
192,192,91443,1,0,0:0:0:55:LR4_SnareKKF.wav
192,192,91498,1,0,0:0:0:55:LR4_SnareKKF.wav
192,192,91554,1,0,0:0:0:55:LR4_SnareKKF.wav
64,192,91665,1,0,0:0:0:55:D BaSS.wav
192,192,91887,1,0,0:0:0:55:LR4_SnareKKF.wav
64,192,92110,1,0,0:0:0:55:D BaSS.wav
192,192,92332,1,0,0:0:0:55:LR4_SnareKKF.wav
64,192,92443,1,0,0:0:0:55:D BaSS.wav
64,192,92554,1,0,0:0:0:55:D BaSS.wav
64,192,92665,1,0,0:0:0:55:D BaSS.wav
64,192,92721,1,0,0:0:0:55:D BaSS.wav
64,192,92776,1,0,0:0:0:55:D BaSS.wav
64,192,92998,1,0,0:0:0:55:D BaSS.wav
64,192,93054,1,0,0:0:0:55:D BaSS.wav
64,192,93110,1,0,0:0:0:55:D BaSS.wav
64,192,93165,1,0,0:0:0:55:D BaSS.wav
64,192,93221,1,0,0:0:0:55:D BaSS.wav
64,192,93276,1,0,0:0:0:55:D BaSS.wav
64,192,93332,1,0,0:0:0:55:D BaSS.wav
64,192,93387,1,0,0:0:0:55:D BaSS.wav
64,192,93443,1,0,0:0:0:55:D BaSS.wav
448,192,93443,1,0,0:0:0:55:CrashL.wav
448,192,95221,1,0,0:0:0:55:CrashL.wav
64,192,95221,1,0,0:0:0:55:D BaSS.wav
448,192,96110,1,0,0:0:0:55:CrashL.wav
64,192,96110,1,0,0:0:0:55:D BaSS.wav
448,192,96998,1,0,0:0:0:55:CrashL.wav
64,192,96998,1,0,0:0:0:55:D BaSS.wav
64,192,100110,1,0,0:0:0:55:D BaSS.wav
64,192,100221,1,0,0:0:0:55:D BaSS.wav
64,192,100332,1,0,0:0:0:55:D BaSS.wav
64,192,100554,1,0,0:0:0:55:D BaSS.wav
448,192,100554,1,0,0:0:0:55:CrashL.wav
64,192,102332,1,0,0:0:0:55:D BaSS.wav
64,192,102443,1,0,0:0:0:55:D BaSS.wav
64,192,102498,1,0,0:0:0:55:D BaSS.wav
192,192,102554,1,0,0:0:0:55:LR4_SnareKKF.wav
64,192,102665,1,0,0:0:0:55:D BaSS.wav
64,192,102776,1,0,0:0:0:55:D BaSS.wav
192,192,102887,1,0,0:0:0:55:LR4_SnareKKF.wav
64,192,103221,1,0,0:0:0:55:D BaSS.wav
64,192,103332,1,0,0:0:0:55:D BaSS.wav
64,192,103387,1,0,0:0:0:55:D BaSS.wav
64,192,103443,1,0,0:0:0:55:D BaSS.wav
192,192,103554,1,0,0:0:0:55:LR4_SnareKKF.wav
64,192,103665,1,0,0:0:0:55:D BaSS.wav
64,192,104110,1,0,0:0:0:55:D BaSS.wav
64,192,104165,1,0,0:0:0:55:D BaSS.wav
64,192,104221,1,0,0:0:0:55:D BaSS.wav
64,192,104276,1,0,0:0:0:55:D BaSS.wav
64,192,104332,1,0,0:0:0:55:D BaSS.wav
64,192,104387,1,0,0:0:0:55:D BaSS.wav
64,192,104443,1,0,0:0:0:55:D BaSS.wav
64,192,104498,1,0,0:0:0:55:D BaSS.wav
64,192,104554,1,0,0:0:0:55:D BaSS.wav
64,192,104610,1,0,0:0:0:55:D BaSS.wav
64,192,104665,1,0,0:0:0:55:D BaSS.wav
64,192,104721,1,0,0:0:0:55:D BaSS.wav
64,192,104776,1,0,0:0:0:55:D BaSS.wav
64,192,104832,1,0,0:0:0:55:D BaSS.wav
64,192,104887,1,0,0:0:0:55:D BaSS.wav
64,192,104943,1,0,0:0:0:55:D BaSS.wav
64,192,104998,1,0,0:0:0:55:D BaSS.wav
64,192,105054,1,0,0:0:0:55:D BaSS.wav
64,192,105110,1,0,0:0:0:55:D BaSS.wav
64,192,105165,1,0,0:0:0:55:D BaSS.wav
64,192,105221,1,0,0:0:0:55:D BaSS.wav
64,192,105276,1,0,0:0:0:55:D BaSS.wav
64,192,105332,1,0,0:0:0:55:D BaSS.wav
64,192,105387,1,0,0:0:0:55:D BaSS.wav
64,192,105443,1,0,0:0:0:55:D BaSS.wav
64,192,105498,1,0,0:0:0:55:D BaSS.wav
64,192,105554,1,0,0:0:0:55:D BaSS.wav
64,192,105610,1,0,0:0:0:55:D BaSS.wav
64,192,105665,1,0,0:0:0:55:D BaSS.wav
64,192,105721,1,0,0:0:0:55:D BaSS.wav
64,192,105776,1,0,0:0:0:55:D BaSS.wav
64,192,105832,1,0,0:0:0:55:D BaSS.wav
64,192,105887,1,0,0:0:0:55:D BaSS.wav
64,192,105943,1,0,0:0:0:55:D BaSS.wav
64,192,105998,1,0,0:0:0:55:D BaSS.wav
64,192,106054,1,0,0:0:0:55:D BaSS.wav
64,192,106110,1,0,0:0:0:55:D BaSS.wav
64,192,106165,1,0,0:0:0:55:D BaSS.wav
64,192,106221,1,0,0:0:0:55:D BaSS.wav
64,192,106276,1,0,0:0:0:55:D BaSS.wav
64,192,106332,1,0,0:0:0:55:D BaSS.wav
64,192,106387,1,0,0:0:0:55:D BaSS.wav
64,192,106443,1,0,0:0:0:55:D BaSS.wav
64,192,106498,1,0,0:0:0:55:D BaSS.wav
64,192,106554,1,0,0:0:0:55:D BaSS.wav
64,192,106610,1,0,0:0:0:55:D BaSS.wav
64,192,106665,1,0,0:0:0:55:D BaSS.wav
64,192,106721,1,0,0:0:0:55:D BaSS.wav
64,192,106776,1,0,0:0:0:55:D BaSS.wav
320,192,106776,1,0,0:0:0:55:CrashS.wav
320,192,106998,1,0,0:0:0:55:CrashS.wav
64,192,106998,1,0,0:0:0:55:D BaSS.wav
192,192,107221,1,0,0:0:0:55:LR4_SnareKKF.wav
192,192,107276,1,0,0:0:0:55:LR4_SnareKKF.wav
64,192,107665,1,0,0:0:0:55:D BaSS.wav
64,192,107721,1,0,0:0:0:55:D BaSS.wav
64,192,107776,1,0,0:0:0:55:D BaSS.wav
64,192,107832,1,0,0:0:0:55:D BaSS.wav
64,192,107887,1,0,0:0:0:55:D BaSS.wav
64,192,107943,1,0,0:0:0:55:D BaSS.wav
64,192,107998,1,0,0:0:0:55:D BaSS.wav
64,192,108054,1,0,0:0:0:55:D BaSS.wav
64,192,108110,1,0,0:0:0:55:D BaSS.wav
64,192,108165,1,0,0:0:0:55:D BaSS.wav
64,192,108221,1,0,0:0:0:55:D BaSS.wav
64,192,108276,1,0,0:0:0:55:D BaSS.wav
64,192,108332,1,0,0:0:0:55:D BaSS.wav
64,192,108387,1,0,0:0:0:55:D BaSS.wav
64,192,108443,1,0,0:0:0:55:D BaSS.wav
64,192,108498,1,0,0:0:0:55:D BaSS.wav
64,192,108554,1,0,0:0:0:55:D BaSS.wav
64,192,108610,1,0,0:0:0:55:D BaSS.wav
64,192,108665,1,0,0:0:0:55:D BaSS.wav
64,192,108721,1,0,0:0:0:55:D BaSS.wav
64,192,108776,1,0,0:0:0:55:D BaSS.wav
64,192,108832,1,0,0:0:0:55:D BaSS.wav
64,192,108887,1,0,0:0:0:55:D BaSS.wav
64,192,108943,1,0,0:0:0:55:D BaSS.wav
64,192,108998,1,0,0:0:0:55:D BaSS.wav
64,192,109054,1,0,0:0:0:55:D BaSS.wav
64,192,109110,1,0,0:0:0:55:D BaSS.wav
64,192,109165,1,0,0:0:0:55:D BaSS.wav
64,192,109221,1,0,0:0:0:55:D BaSS.wav
64,192,109276,1,0,0:0:0:55:D BaSS.wav
64,192,109332,1,0,0:0:0:55:D BaSS.wav
64,192,109387,1,0,0:0:0:55:D BaSS.wav
64,192,109443,1,0,0:0:0:55:D BaSS.wav
64,192,109498,1,0,0:0:0:55:D BaSS.wav
64,192,109554,1,0,0:0:0:55:D BaSS.wav
64,192,109610,1,0,0:0:0:55:D BaSS.wav
64,192,109665,1,0,0:0:0:55:D BaSS.wav
64,192,109721,1,0,0:0:0:55:D BaSS.wav
64,192,109776,1,0,0:0:0:55:D BaSS.wav
64,192,109832,1,0,0:0:0:55:D BaSS.wav
64,192,109887,1,0,0:0:0:55:D BaSS.wav
64,192,109943,1,0,0:0:0:55:D BaSS.wav
64,192,109998,1,0,0:0:0:55:D BaSS.wav
64,192,110054,1,0,0:0:0:55:D BaSS.wav
64,192,110110,1,0,0:0:0:55:D BaSS.wav
64,192,110165,1,0,0:0:0:55:D BaSS.wav
64,192,110221,1,0,0:0:0:55:D BaSS.wav
64,192,110276,1,0,0:0:0:55:D BaSS.wav
64,192,110332,1,0,0:0:0:55:D BaSS.wav
64,192,110443,1,0,0:0:0:55:D BaSS.wav
64,192,110554,1,0,0:0:0:55:D BaSS.wav
192,192,110998,1,0,0:0:0:55:LR4_SnareKKF.wav
448,192,111221,1,0,0:0:0:55:CrashL.wav
64,192,111221,1,0,0:0:0:55:D BaSS.wav
320,192,111443,1,0,0:0:0:55:CrashS.wav
64,192,111443,1,0,0:0:0:55:D BaSS.wav
448,192,111554,1,0,0:0:0:55:CrashL.wav
64,192,111554,1,0,0:0:0:55:D BaSS.wav
320,192,111776,1,0,0:0:0:55:CrashS.wav
64,192,111776,1,0,0:0:0:55:D BaSS.wav
448,192,111887,1,0,0:0:0:55:CrashL.wav
64,192,111887,1,0,0:0:0:55:D BaSS.wav
64,192,112110,1,0,0:0:0:55:D BaSS.wav
192,192,112332,1,0,0:0:0:55:LR4_SnareKKF.wav
64,192,112554,1,0,0:0:0:55:D BaSS.wav
64,192,112665,1,0,0:0:0:55:D BaSS.wav
192,192,112776,1,0,0:0:0:55:LR4_SnareKKF.wav
448,192,112998,1,0,0:0:0:55:CrashL.wav
64,192,112998,1,0,0:0:0:55:D BaSS.wav
64,192,113221,1,0,0:0:0:55:D BaSS.wav
320,192,113221,1,0,0:0:0:55:CrashS.wav
64,192,113276,1,0,0:0:0:55:D BaSS.wav
64,192,113332,1,0,0:0:0:55:D BaSS.wav
448,192,113332,1,0,0:0:0:55:CrashL.wav
64,192,113554,1,0,0:0:0:55:D BaSS.wav
320,192,113554,1,0,0:0:0:55:CrashS.wav
64,192,113610,1,0,0:0:0:55:D BaSS.wav
448,192,113665,1,0,0:0:0:55:CrashL.wav
64,192,113665,1,0,0:0:0:55:D BaSS.wav
64,192,113887,1,0,0:0:0:55:D BaSS.wav
64,192,114110,1,0,0:0:0:55:D BaSS.wav
192,192,114221,1,0,0:0:0:55:LR4_SnareKKF.wav
64,192,114332,1,0,0:0:0:55:D BaSS.wav
64,192,114554,1,0,0:0:0:55:D BaSS.wav
448,192,114776,1,0,0:0:0:55:CrashL.wav
64,192,114776,1,0,0:0:0:55:D BaSS.wav
320,192,114998,1,0,0:0:0:55:CrashS.wav
64,192,114998,1,0,0:0:0:55:D BaSS.wav
64,192,115036,1,0,0:0:0:55:D BaSS.wav
64,192,115073,1,0,0:0:0:55:D BaSS.wav
64,192,115110,1,0,0:0:0:55:D BaSS.wav
448,192,115110,1,0,0:0:0:55:CrashL.wav
320,192,115332,1,0,0:0:0:55:CrashS.wav
64,192,115332,1,0,0:0:0:55:D BaSS.wav
64,192,115369,1,0,0:0:0:55:D BaSS.wav
64,192,115406,1,0,0:0:0:55:D BaSS.wav
64,192,115443,1,0,0:0:0:55:D BaSS.wav
448,192,115443,1,0,0:0:0:55:CrashL.wav
64,192,115665,1,0,0:0:0:55:D BaSS.wav
64,192,115776,1,0,0:0:0:55:D BaSS.wav
192,192,115887,1,0,0:0:0:55:LR4_SnareKKF.wav
64,192,115998,1,0,0:0:0:55:D BaSS.wav
64,192,116110,1,0,0:0:0:55:D BaSS.wav
64,192,116221,1,0,0:0:0:55:D BaSS.wav
192,192,116332,1,0,0:0:0:55:LR4_SnareKKF.wav
448,192,116554,1,0,0:0:0:55:CrashL.wav
64,192,116554,1,0,0:0:0:55:D BaSS.wav
64,192,116776,1,0,0:0:0:55:D BaSS.wav
64,192,116804,1,0,0:0:0:55:D BaSS.wav
64,192,116832,1,0,0:0:0:55:D BaSS.wav
64,192,116860,1,0,0:0:0:55:D BaSS.wav
64,192,116887,1,0,0:0:0:55:D BaSS.wav
64,192,116915,1,0,0:0:0:55:D BaSS.wav
64,192,116943,1,0,0:0:0:55:D BaSS.wav
64,192,116971,1,0,0:0:0:55:D BaSS.wav
64,192,116998,1,0,0:0:0:55:D BaSS.wav
64,192,117026,1,0,0:0:0:55:D BaSS.wav
64,192,117054,1,0,0:0:0:55:D BaSS.wav
64,192,117082,1,0,0:0:0:55:D BaSS.wav
64,192,117110,1,0,0:0:0:55:D BaSS.wav
64,192,117137,1,0,0:0:0:55:D BaSS.wav
64,192,117165,1,0,0:0:0:55:D BaSS.wav
64,192,117193,1,0,0:0:0:55:D BaSS.wav
64,192,117221,1,0,0:0:0:55:D BaSS.wav
64,192,117248,1,0,0:0:0:55:D BaSS.wav
64,192,117276,1,0,0:0:0:55:D BaSS.wav
64,192,117304,1,0,0:0:0:55:D BaSS.wav
64,192,117332,1,0,0:0:0:55:D BaSS.wav
64,192,117360,1,0,0:0:0:55:D BaSS.wav
64,192,117387,1,0,0:0:0:55:D BaSS.wav
64,192,117415,1,0,0:0:0:55:D BaSS.wav
64,192,117443,1,0,0:0:0:55:D BaSS.wav
