osu file format v14

[General]
AudioFilename: audio.mp3
AudioLeadIn: 0
PreviewTime:4821
Countdown: 0
SampleSet: Soft
StackLeniency: 0.7
Mode: 0
LetterboxInBreaks: 0
WidescreenStoryboard: 1

[Editor]
Bookmarks:52747,76162,122991,167003
DistanceSpacing: 2.1
BeatDivisor: 4
GridSize: 32
TimelineZoom: 0.7999998

[Metadata]
Title:From The Start
TitleUnicode:From The Start
Artist:Laufey
ArtistUnicode:Laufey
Creator:IOException
Version:Hard
Source:
Tags:gorou wanpachi cryceptio english jazz pop bewitched bossa nova
BeatmapID:4409337
BeatmapSetID:2079819

[Difficulty]
HPDrainRate:4
CircleSize:4
OverallDifficulty:6
ApproachRate:7.7
SliderMultiplier:2.19999990463257
SliderTickRate:1

[Events]
//Background and Video events
0,0,"background'.jpg",0,0
//Break Periods
2,76162,77745
//Storyboard Layer 0 (Background)
//Storyboard Layer 1 (Fail)
//Storyboard Layer 2 (Pass)
//Storyboard Layer 3 (Foreground)
//Storyboard Layer 4 (Overlay)
//Storyboard Sound Samples

[TimingPoints]
65,731.707317073171,4,2,0,60,1,0
8845,-100,4,2,1,80,0,0
29333,-100,4,2,0,80,0,0
32260,-100,4,2,1,80,0,0
51833,-100,4,2,0,60,0,0
52199,-100,4,2,1,60,0,0
52747,-100,4,2,1,100,0,0
73327,-100,4,2,1,80,0,0
76162,-100,4,2,1,60,0,0
99577,-100,4,2,0,60,0,0
102504,-100,4,2,1,60,0,0
122077,-100,4,2,0,60,0,0
122443,-100,4,2,1,60,0,0
122991,-100,4,2,1,100,0,0
143571,-100,4,2,1,80,0,0
149333,-100,4,2,1,60,0,0
149882,-200,4,2,1,60,0,0
150796,731.707317073171,4,2,1,60,1,8
153311,1200,4,2,0,60,1,8
154511,1200,4,2,0,60,1,0
155635,1263.15789473684,4,2,0,60,1,8

[Colours]
Combo1 : 206,208,172
Combo2 : 137,191,64
Combo3 : 158,199,214

[HitObjects]
276,132,5186,5,0,0:0:0:0:
276,132,5552,1,0,0:0:0:0:
276,132,5918,2,0,B|208:161|197:86|101:129,1,164.999992847443,2|2,0:0|0:0,0:0:0:0:
116,122,6833,1,0,0:0:0:0:
188,0,7199,6,0,B|203:121|203:121|196:145|196:145|214:286,1,274.999988079071,2|0,0:0|0:0,0:0:0:0:
212,272,8662,6,0,P|245:286|281:271,1,54.9999976158142,2|0,0:0|3:2,0:0:0:0:
325,233,9028,1,0,0:0:0:0:
325,233,9211,1,8,0:0:0:0:
406,222,9394,2,0,P|425:202|426:159,2,54.9999976158142,2|0|8,0:0|3:0|0:0,0:0:0:0:
386,85,10125,6,0,P|386:64|361:38,1,54.9999976158142,8|0,0:0|3:0,0:0:0:0:
294,19,10491,1,2,0:3:0:0:
294,19,10674,1,8,0:0:0:0:
218,42,10857,2,0,P|203:64|206:102,1,54.9999976158142,2|0,0:0|3:0,0:0:0:0:
134,125,11223,2,0,B|155:182|200:152|221:218,1,109.999995231628,2|8,0:3|0:0,0:0:0:0:
224,277,11772,6,0,P|276:250|288:184,1,109.999995231628,0|8,3:0|0:0,0:0:0:0:
361,159,12321,1,2,0:0:0:0:
419,218,12504,2,0,P|421:242|444:271,1,54.9999976158142,0|8,3:0|0:0,0:0:0:0:
394,365,13052,6,0,P|362:371|339:392,1,54.9999976158142,8|0,0:0|3:0,0:0:0:0:
275,371,13418,1,2,0:3:0:0:
275,371,13601,1,8,0:0:0:0:
214,323,13784,2,0,P|216:294|205:261,1,54.9999976158142,2|0,0:0|3:0,0:0:0:0:
77,224,14333,1,0,0:0:0:0:
77,224,14516,6,0,B|93:175|51:171|90:95,1,109.999995231628,8|0,0:0|0:0,0:0:0:0:
150,152,15065,1,8,0:0:0:0:
223,177,15247,2,0,B|239:128|197:124|236:48,1,109.999995231628,2|8,0:0|0:0,0:0:0:0:
299,170,15796,1,0,0:0:0:0:
371,246,15979,2,0,B|387:197|345:193|384:117,1,109.999995231628,8|2,0:0|0:3,0:0:0:0:
442,174,16528,1,8,0:0:0:0:
503,130,16711,2,0,L|507:101,2,27.4999988079071,2|0|0,0:0|0:0|3:0,0:0:0:0:
463,36,17077,2,0,P|406:65|318:1,1,164.999992847443,2|0,0:3|3:0,0:0:0:0:
191,107,17991,5,8,0:0:0:0:
191,107,18174,2,0,P|152:95|137:71,1,54.9999976158142,2|0,0:0|3:0,0:0:0:0:
76,119,18540,2,0,L|14:105,1,54.9999976158142,8|0,0:0|0:0,0:0:0:0:
69,196,18906,2,0,B|99:188|99:188|151:198|191:241,1,109.999995231628,8|2,0:0|0:3,0:0:0:0:
224,293,19455,1,8,0:0:0:0:
224,293,19638,1,2,0:0:0:0:
300,268,19821,2,0,P|347:221|335:160,1,109.999995231628,0|0,3:0|0:0,0:0:0:0:
265,49,20552,6,0,B|206:73|234:104|165:127,1,109.999995231628,0|8,3:0|0:0,0:0:0:0:
112,125,21101,1,2,0:0:0:0:
57,175,21284,2,0,P|49:205|44:244,1,54.9999976158142,0|8,3:0|0:0,0:0:0:0:
103,282,21650,1,0,0:0:0:0:
54,375,21833,2,0,P|46:358|34:311,1,54.9999976158142,8|0,0:0|3:0,0:0:0:0:
103,274,22199,2,0,P|159:261|224:250,1,109.999995231628,2|2,0:3|0:0,0:0:0:0:
287,260,22747,2,0,P|261:194|208:168,1,109.999995231628,0|0,3:0|0:0,0:0:0:0:
276,117,23296,6,0,P|278:93|297:61,1,54.9999976158142,8|0,0:0|3:0,0:0:0:0:
354,111,23662,2,0,P|367:91|400:73,1,54.9999976158142,0|8,0:0|0:0,0:0:0:0:
327,263,24028,6,0,P|305:273|268:272,1,54.9999976158142,2|0,0:0|3:0,0:0:0:0:
282,198,24394,2,0,P|258:196|225:176,1,54.9999976158142,8|0,0:0|0:0,0:0:0:0:
429,148,24760,6,0,P|448:161|466:194,1,54.9999976158142,8|0,0:0|3:0,0:0:0:0:
395,219,25126,2,0,P|405:240|404:277,1,54.9999976158142,2|8,0:3|0:0,0:0:0:0:
512,280,25491,6,0,P|507:316|484:348,1,54.9999976158142,2|0,0:0|3:0,0:0:0:0:
417,358,25857,2,0,B|358:361|373:323|293:336,2,109.999995231628,2|8|0,0:3|0:0|0:0,0:0:0:0:
489,312,26772,1,8,0:0:0:0:
489,312,26955,1,2,0:0:0:0:
512,236,27138,2,0,P|518:200|505:171,1,54.9999976158142,0|8,3:0|0:0,0:0:0:0:
450,135,27504,2,0,P|432:108|400:98,1,54.9999976158142,0|8,0:0|0:0,0:0:0:0:
332,118,27869,1,0,3:0:0:0:
332,118,28601,6,0,B|331:145|300:145|267:112|258:75|257:20|321:-16|352:29|330:58,1,219.999990463257,0|2,0:0|0:0,0:0:0:0:
331,56,32077,6,0,P|315:80|314:129,1,54.9999976158142,2|0,0:0|3:2,0:0:0:0:
334,175,32443,1,0,0:0:0:0:
275,214,32625,1,8,0:0:0:0:
310,279,32808,1,2,0:0:0:0:
309,350,32991,2,0,P|289:349|248:310,1,54.9999976158142,0|8,3:0|0:0,0:0:0:0:
98,276,33540,6,0,P|74:276|43:293,1,54.9999976158142,8|0,0:0|3:0,0:0:0:0:
92,347,33906,1,2,0:3:0:0:
172,278,34089,1,8,0:0:0:0:
84,257,34272,2,0,P|70:239|73:193,1,54.9999976158142,2|0,0:0|3:0,0:0:0:0:
209,122,34638,2,0,P|155:162|143:216,1,109.999995231628,2|8,0:3|0:0,0:0:0:0:
151,204,35186,6,0,B|145:157|145:157|137:151|137:151|128:90,1,109.999995231628,0|8,3:0|0:0,0:0:0:0:
184,39,35735,1,2,0:0:0:0:
114,17,35918,1,0,3:0:0:0:
60,73,36101,2,0,P|38:58|31:21,1,54.9999976158142,8|0,0:0|0:0,0:0:0:0:
60,87,36467,6,0,P|37:122|36:148,1,54.9999976158142,8|0,0:0|3:0,0:0:0:0:
83,192,36833,1,2,0:3:0:0:
83,192,37016,1,8,0:0:0:0:
46,263,37199,2,0,P|58:289|101:308,1,54.9999976158142,2|0,0:0|3:0,0:0:0:0:
278,251,37747,1,0,0:0:0:0:
278,251,37930,6,0,L|203:241,1,54.9999976158142,8|0,0:0|3:0,0:0:0:0:
253,175,38296,2,0,L|178:165,1,54.9999976158142,0|8,0:0|0:0,0:0:0:0:
382,196,38662,2,0,L|307:186,1,54.9999976158142,2|0,0:0|3:0,0:0:0:0:
357,120,39028,2,0,L|282:110,1,54.9999976158142,8|0,0:0|0:0,0:0:0:0:
228,96,39394,5,8,0:0:0:0:
101,227,39760,5,2,0:3:0:0:
245,354,40125,5,2,0:0:0:0:
376,202,40491,6,0,P|440:188|486:142,1,109.999995231628,2|8,0:3|0:0,0:0:0:0:
498,220,41040,6,0,B|416:195|420:246|315:217,1,164.999992847443,0|2,3:0|0:0,0:0:0:0:
280,144,41772,1,0,3:0:0:0:
280,144,41955,1,8,0:0:0:0:
194,137,42138,2,0,P|215:195|266:225,1,109.999995231628,0|0,0:0|3:0,0:0:0:0:
253,221,42686,2,0,L|244:289,1,54.9999976158142,2|8,0:3|0:0,0:0:0:0:
175,303,43052,1,2,0:0:0:0:
299,325,43235,2,0,P|233:316|168:334,1,109.999995231628,0|0,3:0|0:0,0:0:0:0:
21,377,43967,6,0,P|-9:320|16:267,1,109.999995231628,0|8,3:0|0:0,0:0:0:0:
130,185,44516,2,0,P|138:159|119:116,1,54.9999976158142,2|0,0:0|3:0,0:0:0:0:
58,105,44882,1,8,0:0:0:0:
55,180,45065,2,0,B|50:240|92:223|79:294,1,109.999995231628,0|0,0:0|3:0,0:0:0:0:
165,349,45613,2,0,P|152:290|169:262,1,54.9999976158142,2|8,0:3|0:0,0:0:0:0:
292,209,45979,2,0,P|235:268|233:315,1,109.999995231628,2|2,0:0|0:3,0:0:0:0:
230,292,46528,1,0,0:0:0:0:
316,285,46711,6,0,P|344:293|396:298,1,54.9999976158142,8|0,0:0|3:0,0:0:0:0:
316,297,47077,2,0,P|308:325|303:377,1,54.9999976158142,0|8,0:0|0:0,0:0:0:0:
380,209,47443,6,0,P|388:181|393:129,1,54.9999976158142,2|0,0:0|3:0,0:0:0:0:
392,209,47808,2,0,P|420:217|472:222,1,54.9999976158142,8|0,0:0|0:0,0:0:0:0:
300,150,48174,6,0,P|272:142|220:137,1,54.9999976158142,8|0,0:0|3:0,0:0:0:0:
300,138,48540,2,0,P|308:110|313:58,1,54.9999976158142,2|8,0:3|0:0,0:0:0:0:
242,225,48906,6,0,P|234:253|229:305,1,54.9999976158142,2|0,0:0|3:0,0:0:0:0:
230,225,49272,2,0,P|202:217|150:212,2,54.9999976158142,2|0|8,0:3|0:0|0:0,0:0:0:0:
300,137,49821,6,0,P|308:111|312:84,1,54.9999976158142,0|0,3:0|0:0,0:0:0:0:
393,209,50186,2,0,P|419:217|446:221,1,54.9999976158142,8|2,0:0|0:0,0:0:0:0:
316,298,50552,2,0,P|308:324|304:351,2,54.9999976158142,0|8|0,3:0|0:0|0:0,0:0:0:0:
309,218,51101,1,8,0:0:0:0:
309,218,51284,2,0,P|223:226|80:244,1,219.999990463257,0|2,3:0|0:0,0:0:0:0:
100,248,52747,6,0,P|129:181|86:130,1,109.999995231628,4|8,3:2|0:2,0:0:0:0:
44,105,53296,1,2,0:0:0:0:
108,15,53479,2,0,P|116:49|107:88,1,54.9999976158142,0|8,3:0|0:0,0:0:0:0:
179,110,53845,1,2,0:2:0:0:
257,191,54028,2,0,P|255:156|240:121,1,54.9999976158142,8|0,0:0|3:1,0:0:0:0:
314,106,54394,1,2,0:3:0:0:
394,11,54577,2,0,P|390:45|374:82,1,54.9999976158142,8|2,0:2|0:0,0:0:0:0:
493,182,54943,2,0,P|481:119|455:71,1,109.999995231628,2|2,3:3|0:0,0:0:0:0:
390,147,55491,1,8,0:0:0:0:
290,183,55674,6,0,P|299:129|332:59,1,109.999995231628,0|8,3:1|0:2,0:0:0:0:
217,12,56223,2,0,P|234:42|235:79,1,54.9999976158142,2|0,0:0|3:0,0:0:0:0:
215,134,56589,1,8,0:0:0:0:
108,71,56772,2,0,P|148:70|179:87,1,54.9999976158142,2|8,0:0|0:0,0:0:0:0:
206,143,57138,1,0,3:1:0:0:
88,183,57321,2,0,P|118:151|159:147,1,54.9999976158142,2|8,0:3|0:2,0:0:0:0:
207,155,57686,1,2,0:0:0:0:
213,311,57869,2,0,P|170:276|166:212,1,109.999995231628,2|2,3:0|0:0,0:0:0:0:
285,190,58418,1,8,0:0:0:0:
260,62,58601,6,0,P|219:129|221:196,1,109.999995231628,0|8,3:1|0:2,0:0:0:0:
329,241,59150,2,0,P|314:220|288:198,1,54.9999976158142,2|0,0:0|3:0,0:0:0:0:
222,237,59516,1,8,0:0:0:0:
95,235,59699,2,0,P|131:250|175:247,1,54.9999976158142,2|8,0:0|0:0,0:0:0:0:
221,228,60065,1,0,3:1:0:0:
267,97,60247,2,0,P|238:132|232:169,1,54.9999976158142,2|8,0:3|0:2,0:0:0:0:
219,221,60613,1,2,0:0:0:0:
209,316,60796,2,0,P|226:264|207:197,1,109.999995231628,2|2,3:0|0:0,0:0:0:0:
135,174,61345,1,8,0:0:0:0:
66,123,61528,6,0,P|23:79|41:22,1,109.999995231628,0|8,3:1|0:2,0:0:0:0:
104,5,62077,2,0,P|147:49|129:106,1,109.999995231628,2|8,0:0|0:0,0:0:0:0:
66,123,62625,6,0,P|45:73|73:28,1,109.999995231628,2|0,0:0|3:1,0:0:0:0:
152,34,63174,2,0,P|172:83|144:128,1,109.999995231628,2|2,0:3|0:0,0:0:0:0:
94,203,63723,1,2,3:0:0:0:
55,270,63906,1,0,0:0:0:0:
105,323,64089,2,0,L|175:310,1,54.9999976158142,2|8,0:0|0:0,0:0:0:0:
239,343,64455,6,0,B|245:298|245:298|221:277|221:236,1,109.999995231628,4|8,3:2|0:2,0:0:0:0:
270,170,65004,2,0,P|277:141|269:107,1,54.9999976158142,2|0,0:0|3:0,0:0:0:0:
199,144,65369,1,8,0:0:0:0:
108,144,65552,2,0,P|114:179|137:209,1,54.9999976158142,2|8,0:0|0:0,0:0:0:0:
188,141,65918,1,0,3:1:0:0:
263,167,66101,2,0,P|270:138|262:104,1,54.9999976158142,2|8,0:3|0:2,0:0:0:0:
182,141,66467,1,2,0:0:0:0:
96,144,66650,2,0,P|116:206|165:246,1,109.999995231628,2|2,3:0|0:0,0:0:0:0:
273,257,67199,1,8,0:0:0:0:
285,343,67382,6,0,B|217:348|240:309|155:317,1,109.999995231628,0|8,3:1|0:2,0:0:0:0:
91,311,67930,2,0,P|62:318|27:329,1,54.9999976158142,2|0,0:0|3:0,0:0:0:0:
68,234,68296,1,8,0:0:0:0:
156,202,68479,2,0,P|124:183|105:167,1,54.9999976158142,2|8,0:0|0:0,0:0:0:0:
283,79,68845,1,0,3:1:0:0:
235,164,69028,2,0,P|199:112|183:50,1,109.999995231628,2|2,0:3|0:0,0:0:0:0:
121,7,69577,2,0,P|117:31|112:70,2,54.9999976158142,2|0|2,3:0|0:0|0:0,0:0:0:0:
312,95,70308,6,0,P|372:48|367:1,1,109.999995231628,0|8,3:1|0:2,0:0:0:0:
457,40,70857,2,0,P|456:68|474:105,1,54.9999976158142,2|0,0:0|3:0,0:0:0:0:
399,133,71223,1,8,0:0:0:0:
488,167,71406,2,0,P|457:179|438:205,1,54.9999976158142,2|8,0:0|0:0,0:0:0:0:
428,277,71772,1,0,3:1:0:0:
364,227,71955,2,0,P|343:206|294:198,1,54.9999976158142,2|8,0:3|0:2,0:0:0:0:
242,194,72321,1,2,0:0:0:0:
193,312,72504,2,0,P|247:277|304:282,1,109.999995231628,2|2,3:0|0:0,0:0:0:0:
364,325,73052,2,0,L|357:399,1,54.9999976158142,8|0,0:0|3:1,0:0:0:0:
375,218,73601,5,8,0:2:0:0:
375,218,73784,2,0,L|386:89,2,109.999995231628,2|8|8,0:0|0:0|0:0,0:0:0:0:
452,206,74699,1,4,3:2:0:0:
214,16,78540,5,0,0:0:0:0:
228,85,78723,1,0,0:0:0:0:
242,154,78906,1,0,0:0:0:0:
252,231,79089,6,0,P|194:223|123:213,1,109.999995231628,4|8,3:2|0:0,0:0:0:0:
77,170,79638,1,2,0:0:0:0:
111,291,79821,1,0,3:0:0:0:
111,291,80004,2,0,P|48:279|-8:267,1,109.999995231628,8|8,0:0|0:0,0:0:0:0:
0,278,80552,6,0,L|69:260,1,54.9999976158142,0|0,3:0|0:0,0:0:0:0:
101,200,80918,1,8,0:0:0:0:
55,137,81101,2,0,B|50:80|10:94|14:16,1,109.999995231628,2|0,0:0|0:0,0:0:0:0:
90,24,81650,1,2,0:3:0:0:
90,24,81833,1,8,0:0:0:0:
136,88,82016,6,0,P|209:55|248:60,1,109.999995231628,0|8,3:0|0:0,0:0:0:0:
311,80,82565,1,2,0:0:0:0:
295,152,82747,1,0,3:0:0:0:
382,119,82930,2,0,B|406:74|371:63|398:12,1,109.999995231628,8|8,0:0|0:0,0:0:0:0:
469,49,83479,5,0,3:0:0:0:
402,119,83662,2,0,P|456:128|511:138,1,109.999995231628,0|2,0:0|0:0,0:0:0:0:
493,23,84211,2,0,P|438:13|384:4,1,109.999995231628,0|0,3:0|0:0,0:0:0:0:
331,72,84760,1,8,0:0:0:0:
252,108,84943,6,0,P|197:91|177:18,1,109.999995231628,0|8,3:0|0:0,0:0:0:0:
100,41,85491,2,0,P|77:62|46:68,1,54.9999976158142,2|0,0:0|3:0,0:0:0:0:
124,138,85857,2,0,L|106:272,1,109.999995231628,8|8,0:0|0:0,0:0:0:0:
0,311,86406,1,0,3:0:0:0:
30,234,86589,2,0,B|26:278|26:278|69:359,1,109.999995231628,0|2,0:0|0:0,0:0:0:0:
81,365,87138,2,0,P|92:335|77:301,1,54.9999976158142,0|0,3:0|0:0,0:0:0:0:
165,285,87504,1,2,0:3:0:0:
232,326,87686,1,8,0:0:0:0:
314,332,87869,2,0,P|362:323|420:255,1,109.999995231628,0|8,3:0|0:0,0:0:0:0:
465,222,88418,1,2,0:0:0:0:
478,334,88601,5,0,3:0:0:0:
478,334,88784,2,0,P|496:283|466:213,1,109.999995231628,8|8,0:0|0:0,0:0:0:0:
512,156,89333,2,0,P|483:138|449:141,1,54.9999976158142,0|0,3:0|0:0,0:0:0:0:
402,184,89699,1,8,0:0:0:0:
402,184,89882,2,0,P|366:182|338:194,1,54.9999976158142,2|0,0:0|3:0,0:0:0:0:
290,248,90247,1,2,0:3:0:0:
95,137,90613,6,0,P|149:146|264:172,1,164.999992847443,8|8,0:0|0:0,0:0:0:0:
324,109,91345,1,2,0:0:0:0:
280,32,91528,1,0,3:0:0:0:
280,32,91711,1,8,0:0:0:0:
205,88,91894,1,2,0:3:0:0:
205,88,92077,1,8,0:0:0:0:
266,154,92260,5,0,3:0:0:0:
324,226,92443,1,2,0:3:0:0:
249,281,92625,1,8,0:0:0:0:
191,208,92808,1,2,0:0:0:0:
123,137,92991,6,0,L|93:118,2,27.4999988079071,0|0|0,3:0|0:0|0:0,0:0:0:0:
67,207,93357,2,0,P|32:199|-1:192,1,54.9999976158142,2|8,0:3|0:0,0:0:0:0:
124,288,93723,6,0,P|56:315|40:365,1,109.999995231628,0|8,3:0|0:0,0:0:0:0:
0,259,94272,1,2,0:0:0:0:
31,178,94455,1,0,3:0:0:0:
31,178,94638,2,0,P|58:129|34:64,1,109.999995231628,8|8,0:0|0:0,0:0:0:0:
126,65,95186,1,0,3:0:0:0:
126,65,95369,2,0,L|130:9,1,54.9999976158142,0|8,0:0|0:0,0:0:0:0:
192,113,95735,1,2,0:0:0:0:
192,113,95918,2,0,P|258:114|320:14,1,164.999992847443,0|8,3:0|0:0,0:0:0:0:
399,44,96650,6,0,L|453:57,2,54.9999976158142,0|0|8,3:0|0:0|0:0,0:0:0:0:
411,143,97199,2,0,L|461:186,1,54.9999976158142,2|0,0:0|3:0,0:0:0:0:
385,236,97565,2,0,L|407:314,1,54.9999976158142,8|0,0:0|0:0,0:0:0:0:
284,292,97930,1,8,0:0:0:0:
300,210,98113,1,0,3:0:0:0:
300,210,98845,6,0,B|299:183|268:183|235:216|226:253|225:308|289:344|320:299|298:270,1,219.999990463257,0|2,0:0|0:0,0:0:0:0:
300,272,102321,6,0,P|267:286|231:271,1,54.9999976158142,2|0,0:0|3:2,0:0:0:0:
187,233,102687,1,0,0:0:0:0:
187,233,102870,1,8,0:0:0:0:
106,222,103053,2,0,P|87:202|86:159,2,54.9999976158142,2|0|8,0:0|3:0|0:0,0:0:0:0:
126,85,103784,6,0,P|126:64|151:38,1,54.9999976158142,8|0,0:0|3:0,0:0:0:0:
218,19,104150,1,2,0:3:0:0:
218,19,104333,1,8,0:0:0:0:
294,42,104516,2,0,P|309:64|306:102,1,54.9999976158142,2|0,0:0|3:0,0:0:0:0:
378,125,104882,2,0,B|357:182|312:152|291:218,1,109.999995231628,2|8,0:3|0:0,0:0:0:0:
288,277,105431,6,0,P|236:250|224:184,1,109.999995231628,0|8,3:0|0:0,0:0:0:0:
162,167,105980,1,2,0:0:0:0:
104,208,106163,2,0,P|102:232|79:261,1,54.9999976158142,0|8,3:0|0:0,0:0:0:0:
118,365,106711,6,0,P|150:371|173:392,1,54.9999976158142,8|0,0:0|3:0,0:0:0:0:
251,384,107077,1,2,0:3:0:0:
251,384,107260,1,8,0:0:0:0:
298,323,107443,2,0,P|296:294|307:261,1,54.9999976158142,2|0,0:0|3:0,0:0:0:0:
435,224,107992,1,0,0:0:0:0:
435,224,108175,6,0,B|419:175|461:171|422:95,1,109.999995231628,8|0,0:0|0:0,0:0:0:0:
362,152,108724,1,8,0:0:0:0:
289,177,108906,2,0,B|273:128|315:124|276:48,1,109.999995231628,2|8,0:0|0:0,0:0:0:0:
213,170,109455,1,0,0:0:0:0:
141,246,109638,2,0,B|125:197|167:193|128:117,1,109.999995231628,8|2,0:0|0:3,0:0:0:0:
70,174,110187,1,8,0:0:0:0:
9,130,110370,2,0,L|5:101,2,27.4999988079071,2|0|0,0:0|0:0|3:0,0:0:0:0:
49,36,110736,2,0,P|106:65|194:1,1,164.999992847443,2|0,0:3|3:0,0:0:0:0:
321,107,111650,5,8,0:0:0:0:
321,107,111833,2,0,P|360:95|375:71,1,54.9999976158142,2|0,0:0|3:0,0:0:0:0:
436,119,112199,2,0,L|498:105,1,54.9999976158142,8|0,0:0|0:0,0:0:0:0:
443,196,112565,2,0,B|413:188|413:188|361:198|321:241,1,109.999995231628,8|2,0:0|0:3,0:0:0:0:
288,293,113114,1,8,0:0:0:0:
288,293,113297,1,2,0:0:0:0:
212,268,113480,2,0,P|165:221|177:160,1,109.999995231628,0|0,3:0|0:0,0:0:0:0:
247,49,114211,6,0,B|306:73|278:104|347:127,1,109.999995231628,0|8,3:0|0:0,0:0:0:0:
400,125,114760,1,2,0:0:0:0:
455,175,114943,2,0,P|463:205|468:244,1,54.9999976158142,0|8,3:0|0:0,0:0:0:0:
409,282,115309,1,0,0:0:0:0:
458,375,115492,2,0,P|466:358|478:311,1,54.9999976158142,8|0,0:0|3:0,0:0:0:0:
409,274,115858,2,0,P|353:261|288:250,1,109.999995231628,2|2,0:3|0:0,0:0:0:0:
225,260,116406,2,0,P|251:194|304:168,1,109.999995231628,0|0,3:0|0:0,0:0:0:0:
236,117,116955,6,0,P|234:93|215:61,1,54.9999976158142,8|0,0:0|3:0,0:0:0:0:
158,111,117321,2,0,P|145:91|112:73,1,54.9999976158142,0|8,0:0|0:0,0:0:0:0:
185,263,117687,6,0,P|207:273|244:272,1,54.9999976158142,2|0,0:0|3:0,0:0:0:0:
230,198,118053,2,0,P|254:196|287:176,1,54.9999976158142,8|0,0:0|0:0,0:0:0:0:
83,148,118419,6,0,P|64:161|46:194,1,54.9999976158142,8|0,0:0|3:0,0:0:0:0:
117,219,118785,2,0,P|107:240|108:277,1,54.9999976158142,2|8,0:3|0:0,0:0:0:0:
0,280,119150,6,0,P|5:316|28:348,1,54.9999976158142,2|0,0:0|3:0,0:0:0:0:
95,358,119516,2,0,B|154:361|139:323|219:336,2,109.999995231628,2|8|0,0:3|0:0|0:0,0:0:0:0:
23,312,120431,1,8,0:0:0:0:
23,312,120614,1,2,0:0:0:0:
0,236,120797,2,0,P|-6:200|7:171,1,54.9999976158142,0|8,3:0|0:0,0:0:0:0:
62,135,121163,2,0,P|80:108|112:98,1,54.9999976158142,0|8,0:0|0:0,0:0:0:0:
180,118,121528,1,0,3:0:0:0:
180,118,122260,6,0,B|181:145|212:145|245:112|254:75|255:20|191:-16|160:29|182:58,1,219.999990463257,2|4,0:0|3:1,0:0:0:0:
109,89,123174,1,0,0:0:0:0:
78,22,123357,2,0,P|54:18|14:11,1,54.9999976158142,8|2,0:2|0:0,0:0:0:0:
36,86,123723,1,0,3:0:0:0:
72,152,123906,2,0,P|43:153|5:160,1,54.9999976158142,8|2,0:0|0:2,0:0:0:0:
122,215,124272,1,8,0:0:0:0:
78,274,124455,1,0,3:1:0:0:
0,249,124638,2,0,P|3:274|18:327,1,54.9999976158142,2|8,0:3|0:2,0:0:0:0:
51,368,125004,1,2,0:0:0:0:
127,291,125186,2,0,P|123:330|117:363,1,54.9999976158142,2|0,3:3|0:0,0:0:0:0:
194,369,125552,2,0,P|198:342|200:314,1,54.9999976158142,2|8,0:0|0:0,0:0:0:0:
198,226,125918,6,0,L|263:242,1,54.9999976158142,0|0,3:1|0:0,0:0:0:0:
126,208,126284,1,8,0:2:0:0:
53,191,126467,2,0,L|0:178,2,54.9999976158142,2|0|8,0:0|3:0|0:0,0:0:0:0:
193,153,127016,2,0,L|253:133,1,54.9999976158142,2|8,0:0|0:0,0:0:0:0:
126,216,127382,1,0,3:1:0:0:
66,285,127565,2,0,L|6:305,2,54.9999976158142,2|8|2,0:3|0:2|0:0,0:0:0:0:
107,170,128113,2,0,P|110:146|109:110,1,54.9999976158142,2|0,3:0|0:0,0:0:0:0:
159,264,128479,2,0,P|152:289|154:319,1,54.9999976158142,2|8,0:0|0:0,0:0:0:0:
231,300,128845,5,0,3:1:0:0:
231,300,129028,2,0,P|263:281|310:275,1,54.9999976158142,0|8,0:0|0:2,0:0:0:0:
340,234,129394,1,2,0:0:0:0:
448,264,129577,1,0,3:0:0:0:
448,264,129760,2,0,P|405:279|389:302,1,54.9999976158142,8|2,0:0|0:0,0:0:0:0:
350,368,130125,2,0,L|326:304,1,54.9999976158142,8|0,0:0|3:1,0:0:0:0:
253,332,130491,2,0,B|256:305|256:305|233:263|264:202,1,109.999995231628,2|2,0:3|0:0,0:0:0:0:
287,157,131040,1,2,3:0:0:0:
287,157,131223,1,0,0:0:0:0:
237,100,131406,2,0,P|210:93|161:92,1,54.9999976158142,2|8,0:0|0:0,0:0:0:0:
113,54,131772,6,0,P|59:71|14:115,1,109.999995231628,0|8,3:1|0:2,0:0:0:0:
74,224,132321,2,0,P|128:207|173:163,1,109.999995231628,2|8,0:0|0:0,0:0:0:0:
74,53,132869,6,0,P|36:95|19:155,1,109.999995231628,2|0,0:0|3:1,0:0:0:0:
125,219,133418,2,0,P|163:177|180:117,1,109.999995231628,2|2,0:3|0:0,0:0:0:0:
167,46,133967,1,2,3:0:0:0:
234,12,134150,1,0,0:0:0:0:
300,54,134333,2,0,L|290:123,1,54.9999976158142,6|8,0:0|0:0,0:0:0:0:
356,152,134699,6,0,P|395:152|428:131,2,54.9999976158142,4|0|8,3:1|0:0|0:2,0:0:0:0:
289,189,135247,1,2,0:0:0:0:
262,259,135430,1,0,3:0:0:0:
311,319,135613,1,8,0:0:0:0:
381,345,135796,2,0,P|421:346|456:364,2,54.9999976158142,2|8|0,0:0|0:0|3:1,0:0:0:0:
480,296,136345,1,2,0:3:0:0:
512,226,136528,1,8,0:2:0:0:
471,161,136711,1,2,0:0:0:0:
406,120,136894,2,0,P|389:99|385:66,1,54.9999976158142,2|0,3:0|0:0,0:0:0:0:
442,7,137260,2,0,P|459:28|463:61,1,54.9999976158142,2|8,0:0|0:0,0:0:0:0:
329,142,137625,6,0,L|258:167,2,54.9999976158142,0|0|8,3:1|0:0|0:2,0:0:0:0:
233,222,138174,1,2,0:0:0:0:
233,222,138357,1,0,3:0:0:0:
233,222,138540,1,8,0:0:0:0:
298,272,138723,2,0,L|375:289,1,54.9999976158142,2|8,0:0|0:0,0:0:0:0:
451,210,139089,1,0,3:1:0:0:
381,168,139272,2,0,P|369:223|415:281,1,109.999995231628,2|2,0:3|0:0,0:0:0:0:
470,286,139821,1,2,3:0:0:0:
489,360,140004,1,0,0:0:0:0:
416,384,140186,2,0,L|346:377,1,54.9999976158142,2|8,0:0|0:0,0:0:0:0:
306,328,140552,6,0,B|310:300|292:308|301:269,2,54.9999976158142,0|0|8,3:1|0:0|0:2,0:0:0:0:
236,372,141101,1,2,0:0:0:0:
217,291,141284,1,0,3:0:0:0:
197,211,141467,1,8,0:0:0:0:
108,163,141650,6,0,B|104:135|122:143|113:104,2,54.9999976158142,2|8|0,0:0|0:0|3:1,0:0:0:0:
178,207,142199,1,2,0:3:0:0:
197,126,142382,1,8,0:2:0:0:
217,46,142565,1,2,0:0:0:0:
277,105,142747,6,0,P|312:118|348:114,1,54.9999976158142,2|0,3:0|0:0,0:0:0:0:
141,36,143113,2,0,P|106:23|70:27,1,54.9999976158142,2|8,0:0|0:0,0:0:0:0:
15,48,143479,1,4,3:2:0:0:
120,192,143845,6,0,L|197:178,1,54.9999976158142,8|2,0:2|0:0,0:0:0:0:
177,197,144211,1,0,3:0:0:0:
235,241,144394,6,0,L|312:227,1,54.9999976158142,8|2,0:0|0:0,0:0:0:0:
292,246,144760,1,8,0:0:0:0:
356,285,144943,6,0,L|433:271,1,54.9999976158142,0|2,3:1|0:3,0:0:0:0:
413,290,145309,1,8,0:2:0:0:
457,345,145491,6,0,L|534:331,1,54.9999976158142,2|2,0:0|3:0,0:0:0:0:
422,157,146040,1,2,0:0:0:0:
446,81,146223,1,8,0:0:0:0:
499,141,146406,6,0,P|491:205|431:238,1,109.999995231628,0|8,3:1|0:2,0:0:0:0:
381,229,146955,1,2,0:0:0:0:
340,295,147138,2,0,P|314:277|302:239,1,54.9999976158142,0|8,3:0|0:0,0:0:0:0:
255,201,147504,1,2,0:0:0:0:
376,149,147686,2,0,P|342:159|316:180,1,54.9999976158142,8|0,0:0|3:1,0:0:0:0:
302,255,148052,2,0,L|175:233,1,109.999995231628,2|2,0:3|0:0,0:0:0:0:
134,285,148601,2,0,P|71:277|1:294,1,109.999995231628,2|2,3:0|0:0,0:0:0:0:
257,137,149333,6,0,P|258:79|263:17,1,109.999995231628,0|8,3:1|0:2,0:0:0:0:
177,91,149882,2,0,P|176:149|171:211,1,109.999995231628,2|8,0:0|0:0,0:0:0:0:
258,214,150796,1,6,3:2:0:0:
256,192,150887,12,2,154511,0:0:0:0:
