osu file format v14

[General]
AudioFilename: audio.mp3
AudioLeadIn: 0
PreviewTime: 58156
Countdown: 0
SampleSet: Soft
StackLeniency: 0.7
Mode: 3
LetterboxInBreaks: 0
SpecialStyle: 0
WidescreenStoryboard: 1

[Editor]
DistanceSpacing: 0.7
BeatDivisor: 4
GridSize: 8
TimelineZoom: 1.7

[Metadata]
Title:I'm with you (TV Size)
TitleUnicode:I'm with you (TV Size)
Artist:Latina (CV: Takao Kanon)
ArtistUnicode:ラティナ (CV: 高尾奏音)
Creator:Yuiazu-
Version:Hard
Source:うちの娘の為ならば、俺はもしかしたら魔王も倒せるかもしれない。
Tags:Uchi no Ko no Tame naraba Ore wa Moshikashitara Maou mo Taoseru kamo Shirenai If It's for My Daughter I'd Even Defeat a Demon Lord UchiMusume musume Opening OP Anime Song Anisong Japanese Pop J-pop Jpop COCC-17647
BeatmapID:2511488
BeatmapSetID:1206143

[Difficulty]
HPDrainRate:7.5
CircleSize:4
OverallDifficulty:7.5
ApproachRate:5
SliderMultiplier:1.4
SliderTickRate:1

[Events]
//Background and Video events
Video,62,"uchi.mp4"
0,0,"Latina.jpg",0,0
//Break Periods
//Storyboard Layer 0 (Background)
//Storyboard Layer 1 (Fail)
//Storyboard Layer 2 (Pass)
//Storyboard Layer 3 (Foreground)
//Storyboard Layer 4 (Overlay)
//Storyboard Sound Samples
Sample,30973,0,"tom3.wav",55
Sample,47714,0,"tom3.wav",55
Sample,85006,0,"tom3.wav",55
Sample,85338,0,"tom3.wav",55
Sample,85504,0,"tom3.wav",55

[TimingPoints]
808,331.491712707182,4,2,1,45,1,0
5448,-100,4,2,1,55,0,0
6111,-100,4,2,1,60,0,0
11415,-100,4,2,1,55,0,0
22023,-100,4,2,1,60,0,0
32631,-100,4,2,1,50,0,0
43238,-100,4,2,1,55,0,0
47879,-100,4,2,1,50,0,0
48542,-100,4,2,1,55,0,0
59150,-100,4,2,1,60,0,1
69261,-100,4,2,1,55,0,1
69758,-100,4,2,1,60,0,1
80366,-100,4,2,1,55,0,0

[HitObjects]
192,192,697,5,0,0:0:0:0:
320,192,752,1,0,0:0:0:0:
64,192,808,1,0,0:0:0:0:
448,192,808,1,0,0:0:0:0:
192,192,973,1,0,0:0:0:0:
320,192,1139,1,0,0:0:0:0:
64,192,1305,1,0,0:0:0:0:
448,192,1470,1,0,0:0:0:0:
192,192,1636,1,0,0:0:0:0:
320,192,1802,1,0,0:0:0:0:
448,192,1968,1,0,0:0:0:0:
64,192,2133,1,0,0:0:0:0:
192,192,2299,1,0,0:0:0:0:
448,192,2465,1,0,0:0:0:0:
320,192,2631,1,0,0:0:0:0:
192,192,2796,1,0,0:0:0:0:
64,192,2962,1,0,0:0:0:0:
320,192,3128,1,0,0:0:0:0:
448,192,3294,1,0,0:0:0:0:
64,192,3459,1,0,0:0:0:0:
192,192,3459,1,0,0:0:0:0:
320,192,3625,1,0,0:0:0:0:
448,192,3791,1,0,0:0:0:0:
64,192,3957,1,0,0:0:0:0:
192,192,4122,1,0,0:0:0:0:
320,192,4288,1,0,0:0:0:0:
64,192,4454,1,0,0:0:0:0:
448,192,4620,1,0,0:0:0:0:
320,192,4785,1,0,0:0:0:0:
64,192,4951,1,0,0:0:0:0:
192,192,5117,1,0,0:0:0:0:
320,192,5283,1,0,0:0:0:0:
64,192,5448,1,2,0:0:0:0:
192,192,5448,1,0,0:0:0:55:tom3.wav
320,192,5614,1,2,0:0:0:0:
448,192,5614,1,0,0:0:0:55:tom3.wav
64,192,5780,1,0,0:0:0:0:
192,192,5863,1,0,0:0:0:0:
448,192,5946,1,0,0:0:0:0:
320,192,6028,1,0,0:0:0:0:
64,192,6111,1,2,0:0:0:0:
192,192,6111,1,4,0:0:0:0:
320,192,6277,1,0,0:0:0:0:
64,192,6443,1,2,0:0:0:0:
448,192,6443,1,0,0:0:0:0:
64,192,6609,1,8,0:0:0:0:
320,192,6609,1,4,0:0:0:0:
192,192,6774,1,2,0:0:0:0:
448,192,6774,1,0,0:0:0:0:
320,192,6940,1,0,0:0:0:0:
64,192,7106,1,4,0:0:0:0:
192,192,7106,1,2,0:0:0:0:
320,192,7272,1,0,0:0:0:0:
64,192,7437,1,2,0:0:0:0:
448,192,7437,1,0,0:0:0:0:
192,192,7603,1,8,0:0:0:0:
448,192,7603,1,4,0:0:0:0:
64,192,7769,1,2,0:0:0:0:
320,192,7769,1,0,0:0:0:0:
192,192,7935,1,0,0:0:0:0:
320,192,8100,1,8,0:0:0:0:
448,192,8100,128,0,8432:0:0:0:0:
192,192,8266,1,0,0:0:0:55:tom1.wav
64,192,8432,128,2,8598:0:0:0:0:
320,192,8432,1,0,0:0:0:0:
192,192,8598,128,0,8763:0:0:0:0:
320,192,8763,1,4,0:0:0:0:
448,192,8763,1,2,0:0:0:0:
64,192,8929,1,0,0:0:0:0:
192,192,9095,1,2,0:0:0:0:
448,192,9095,1,0,0:0:0:0:
192,192,9261,1,8,0:0:0:0:
320,192,9261,1,4,0:0:0:0:
64,192,9426,1,2,0:0:0:0:
448,192,9426,1,0,0:0:0:0:
320,192,9592,1,0,0:0:0:0:
64,192,9758,1,4,0:0:0:0:
192,192,9758,1,2,0:0:0:0:
448,192,9924,1,0,0:0:0:0:
64,192,10089,1,2,0:0:0:0:
320,192,10089,1,0,0:0:0:0:
192,192,10255,1,8,0:0:0:0:
320,192,10255,1,4,0:0:0:0:
64,192,10421,1,2,0:0:0:0:
448,192,10421,1,0,0:0:0:0:
192,192,10587,1,0,0:0:0:55:tom1.wav
320,192,10752,1,2,0:0:0:0:
448,192,10752,1,0,0:0:0:55:tom2.wav
192,192,10918,1,0,0:0:0:55:tom2.wav
64,192,11084,1,2,0:0:0:0:
448,192,11084,1,0,0:0:0:55:tom3.wav
320,192,11249,1,0,0:0:0:0:
64,192,11415,1,2,0:0:0:0:
192,192,11415,128,4,12741:0:0:0:0:
320,192,11747,1,2,0:0:0:0:
448,192,12078,1,2,0:0:0:0:
64,192,12410,1,2,0:0:0:0:
320,192,12741,1,2,0:0:0:0:
448,192,12741,128,0,14067:0:0:0:0:
192,192,13073,1,2,0:0:0:0:
64,192,13404,1,2,0:0:0:0:
320,192,13736,1,2,0:0:0:0:
64,192,14067,128,2,15393:0:0:0:0:
192,192,14067,1,0,0:0:0:0:
320,192,14399,1,2,0:0:0:0:
448,192,14730,1,2,0:0:0:0:
192,192,15062,1,2,0:0:0:0:
320,192,15393,128,2,16056:0:0:0:0:
448,192,15393,1,0,0:0:0:0:
192,192,15725,1,2,0:0:0:0:
64,192,16056,128,2,16719:0:0:0:0:
448,192,16056,1,0,0:0:0:0:
320,192,16388,1,2,0:0:0:0:
192,192,16719,128,2,18045:0:0:0:0:
448,192,16719,1,0,0:0:0:0:
64,192,17051,1,2,0:0:0:0:
320,192,17382,1,2,0:0:0:0:
64,192,17714,1,2,0:0:0:0:
320,192,18045,1,2,0:0:0:0:
448,192,18045,128,0,19371:0:0:0:0:
192,192,18377,1,2,0:0:0:0:
64,192,18708,1,2,0:0:0:0:
320,192,19040,1,2,0:0:0:0:
64,192,19371,128,2,20697:0:0:0:0:
192,192,19371,1,0,0:0:0:0:
320,192,19703,1,2,0:0:0:0:
448,192,20034,1,2,0:0:0:0:
192,192,20366,1,2,0:0:0:0:
320,192,20697,1,2,0:0:0:0:
448,192,20697,1,0,0:0:0:0:
192,192,20863,1,0,0:0:0:55:tom1.wav
64,192,21028,1,2,0:0:0:0:
448,192,21194,1,0,0:0:0:55:tom2.wav
64,192,21360,1,2,0:0:0:0:
192,192,21360,1,0,0:0:0:0:
320,192,21526,1,2,0:0:0:0:
192,192,21691,1,8,0:0:0:0:
448,192,21691,1,4,0:0:0:0:
448,192,21857,1,2,0:0:0:0:
64,192,22023,1,2,0:0:0:0:
192,192,22023,128,4,22354:0:0:0:0:
320,192,22354,1,8,0:0:0:0:
448,192,22354,1,0,0:0:0:0:
64,192,22520,1,0,0:0:0:0:
192,192,22603,1,8,0:0:0:0:
320,192,22686,1,2,0:0:0:0:
448,192,22686,1,0,0:0:0:0:
320,192,22852,1,2,0:0:0:0:
64,192,23017,1,8,0:0:0:0:
192,192,23017,1,0,0:0:0:0:
448,192,23183,1,0,0:0:0:0:
64,192,23349,1,2,0:0:0:0:
320,192,23349,1,0,0:0:0:0:
192,192,23515,1,0,0:0:0:0:
320,192,23680,1,8,0:0:0:0:
448,192,23680,1,0,0:0:0:0:
192,192,23846,1,0,0:0:0:0:
320,192,23929,1,8,0:0:0:0:
64,192,24012,1,2,0:0:0:0:
448,192,24012,1,0,0:0:0:0:
64,192,24178,1,2,0:0:0:0:
192,192,24343,1,8,0:0:0:0:
448,192,24343,1,0,0:0:0:0:
320,192,24509,1,0,0:0:0:0:
64,192,24675,1,2,0:0:0:0:
192,192,24675,1,0,0:0:0:0:
448,192,24841,1,0,0:0:0:0:
64,192,25006,1,8,0:0:0:0:
320,192,25006,1,0,0:0:0:0:
192,192,25172,1,0,0:0:0:0:
320,192,25255,1,8,0:0:0:0:
64,192,25338,1,2,0:0:0:0:
448,192,25338,1,0,0:0:0:0:
448,192,25504,1,2,0:0:0:0:
192,192,25669,1,8,0:0:0:0:
320,192,25669,1,0,0:0:0:0:
64,192,25835,1,0,0:0:0:0:
192,192,26001,1,2,0:0:0:0:
448,192,26001,1,0,0:0:0:0:
320,192,26167,1,0,0:0:0:0:
64,192,26332,1,8,0:0:0:0:
192,192,26332,1,0,0:0:0:0:
448,192,26498,1,0,0:0:0:0:
320,192,26581,1,8,0:0:0:0:
64,192,26664,1,2,0:0:0:0:
192,192,26664,1,0,0:0:0:0:
192,192,26830,1,2,0:0:0:0:
320,192,26995,128,8,27327:0:0:0:0:
448,192,26995,1,4,0:0:0:0:
64,192,27327,1,2,0:0:0:0:
192,192,27327,128,4,27658:0:0:0:0:
320,192,27658,1,8,0:0:0:0:
448,192,27658,1,0,0:0:0:0:
192,192,27824,1,0,0:0:0:0:
320,192,27907,1,8,0:0:0:0:
64,192,27990,1,2,0:0:0:0:
448,192,27990,1,0,0:0:0:0:
64,192,28156,1,2,0:0:0:0:
192,192,28321,1,8,0:0:0:0:
320,192,28321,1,0,0:0:0:0:
448,192,28487,1,0,0:0:0:0:
64,192,28653,1,2,0:0:0:0:
192,192,28653,1,0,0:0:0:0:
320,192,28819,1,0,0:0:0:0:
64,192,28984,1,8,0:0:0:0:
448,192,28984,1,0,0:0:0:0:
320,192,29150,1,0,0:0:0:0:
192,192,29233,1,8,0:0:0:0:
64,192,29316,1,2,0:0:0:0:
448,192,29316,1,0,0:0:0:0:
448,192,29482,1,2,0:0:0:0:
192,192,29647,1,8,0:0:0:0:
320,192,29647,1,0,0:0:0:0:
64,192,29813,1,0,0:0:0:0:
320,192,29979,1,2,0:0:0:0:
448,192,29979,128,4,30310:0:0:0:0:
64,192,30310,1,2,0:0:0:0:
192,192,30310,1,0,0:0:0:0:
320,192,30476,128,4,30807:0:0:0:0:
448,192,30476,1,0,0:0:0:0:
64,192,30642,1,2,0:0:0:0:
192,192,30807,128,0,31139:0:0:0:55:tom2.wav
448,192,30807,1,0,0:0:0:0:
320,192,30973,1,2,0:0:0:0:
64,192,31139,128,8,31470:0:0:0:0:
448,192,31139,1,4,0:0:0:0:
192,192,31305,1,2,0:0:0:0:
448,192,31470,1,0,0:0:0:55:tom1.wav
320,192,31553,1,0,0:0:0:55:tom2.wav
64,192,31636,1,2,0:0:0:0:
192,192,31636,1,0,0:0:0:55:tom3.wav
320,192,31802,1,0,0:0:0:55:tom2.wav
192,192,31885,1,0,0:0:0:55:tom2.wav
64,192,31968,1,2,0:0:0:0:
448,192,31968,1,0,0:0:0:55:tom3.wav
192,192,32133,1,0,0:0:0:55:tom1.wav
320,192,32299,1,2,0:0:0:0:
448,192,32299,1,0,0:0:0:55:tom3.wav
64,192,32465,1,0,0:0:0:0:
192,192,32631,1,2,0:0:0:0:
448,192,32631,1,4,0:0:0:0:
64,192,32962,1,0,0:0:0:0:
320,192,33128,1,2,0:0:0:0:
64,192,33294,1,8,0:0:0:0:
192,192,33294,1,0,0:0:0:0:
448,192,33625,1,0,0:0:0:0:
192,192,33791,1,8,0:0:0:0:
320,192,33791,1,0,0:0:0:0:
64,192,33957,1,0,0:0:0:0:
320,192,34122,1,8,0:0:0:0:
448,192,34122,1,0,0:0:0:0:
192,192,34288,1,2,0:0:0:0:
448,192,34454,1,2,0:0:0:0:
64,192,34620,1,8,0:0:0:0:
320,192,34620,1,0,0:0:0:0:
192,192,34951,1,0,0:0:0:0:
320,192,35117,1,8,0:0:0:0:
448,192,35117,1,0,0:0:0:0:
64,192,35283,1,2,0:0:0:0:
192,192,35283,1,0,0:0:0:0:
448,192,35614,1,0,0:0:0:0:
192,192,35780,1,2,0:0:0:0:
320,192,35946,1,8,0:0:0:0:
448,192,35946,1,0,0:0:0:0:
64,192,36277,1,0,0:0:0:0:
192,192,36443,1,8,0:0:0:0:
320,192,36443,1,0,0:0:0:0:
448,192,36609,1,0,0:0:0:0:
64,192,36774,1,8,0:0:0:0:
192,192,36774,1,0,0:0:0:0:
320,192,36940,1,2,0:0:0:0:
64,192,37106,1,2,0:0:0:0:
192,192,37272,1,8,0:0:0:0:
448,192,37272,1,0,0:0:0:0:
320,192,37603,1,0,0:0:0:0:
192,192,37769,1,2,0:0:0:0:
320,192,37935,1,2,0:0:0:0:
448,192,37935,1,4,0:0:0:0:
64,192,38266,1,0,0:0:0:0:
320,192,38432,1,2,0:0:0:0:
64,192,38598,1,8,0:0:0:0:
192,192,38598,1,0,0:0:0:0:
320,192,38929,1,0,0:0:0:0:
64,192,39095,1,8,0:0:0:0:
448,192,39095,1,0,0:0:0:0:
192,192,39261,1,0,0:0:0:0:
320,192,39426,1,8,0:0:0:0:
448,192,39426,1,0,0:0:0:0:
64,192,39592,1,2,0:0:0:0:
320,192,39758,1,2,0:0:0:0:
192,192,39924,1,8,0:0:0:0:
448,192,39924,1,0,0:0:0:0:
64,192,40255,1,0,0:0:0:0:
320,192,40421,1,8,0:0:0:0:
448,192,40421,1,0,0:0:0:0:
64,192,40587,1,2,0:0:0:0:
192,192,40587,1,0,0:0:0:0:
320,192,40918,1,0,0:0:0:0:
192,192,41084,1,2,0:0:0:0:
320,192,41249,1,8,0:0:0:0:
448,192,41249,1,0,0:0:0:0:
64,192,41581,1,0,0:0:0:0:
192,192,41747,1,8,0:0:0:0:
448,192,41747,1,0,0:0:0:0:
320,192,41912,1,0,0:0:0:0:
64,192,42078,1,8,0:0:0:0:
192,192,42078,1,0,0:0:0:0:
448,192,42244,1,2,0:0:0:0:
64,192,42410,1,2,0:0:0:0:
192,192,42575,1,8,0:0:0:0:
448,192,42575,1,0,0:0:0:0:
320,192,42741,1,0,0:0:0:55:tom1.wav
64,192,42907,1,0,0:0:0:55:tom2.wav
192,192,42907,1,0,0:0:0:0:
320,192,43073,1,2,0:0:0:0:
64,192,43238,1,2,0:0:0:0:
448,192,43238,1,4,0:0:0:0:
320,192,43570,1,2,0:0:0:0:
64,192,43901,1,8,0:0:0:0:
192,192,43901,1,0,0:0:0:0:
320,192,44233,1,0,0:0:0:0:
448,192,44399,1,2,0:0:0:0:
192,192,44564,1,0,0:0:0:0:
320,192,44730,1,8,0:0:0:0:
448,192,44730,1,0,0:0:0:0:
64,192,44896,1,2,0:0:0:0:
320,192,45062,1,2,0:0:0:0:
64,192,45227,1,8,0:0:0:0:
192,192,45227,1,0,0:0:0:0:
320,192,45559,1,0,0:0:0:0:
192,192,45725,1,2,0:0:0:0:
320,192,45890,1,2,0:0:0:0:
448,192,45890,1,4,0:0:0:0:
192,192,46222,1,0,0:0:0:0:
320,192,46388,1,2,0:0:0:0:
64,192,46553,1,8,0:0:0:0:
192,192,46553,1,4,0:0:0:0:
448,192,46885,1,0,0:0:0:0:
64,192,47051,1,8,0:0:0:0:
192,192,47051,1,0,0:0:0:0:
320,192,47216,1,2,0:0:0:0:
448,192,47216,1,4,0:0:0:0:
320,192,47382,1,8,0:0:0:0:
64,192,47548,1,2,0:0:0:0:
192,192,47548,1,0,0:0:0:55:tom3.wav
192,192,47714,1,8,0:0:0:0:
64,192,47879,1,8,0:0:0:0:
448,192,47879,1,2,0:0:0:0:
320,192,47962,1,8,0:0:0:0:
192,192,48045,1,8,0:0:0:0:
64,192,48128,1,8,0:0:0:0:
320,192,48211,1,8,0:0:0:0:
448,192,48211,1,2,0:0:0:0:
192,192,48294,1,8,0:0:0:0:
448,192,48377,1,8,0:0:0:0:
320,192,48459,1,8,0:0:0:0:
64,192,48542,128,2,48874:0:0:0:0:
192,192,48542,1,4,0:0:0:0:
320,192,48874,1,8,0:0:0:0:
448,192,48874,1,0,0:0:0:0:
192,192,49040,1,0,0:0:0:0:
320,192,49122,1,8,0:0:0:0:
64,192,49205,1,2,0:0:0:0:
448,192,49205,1,0,0:0:0:0:
64,192,49371,1,2,0:0:0:0:
192,192,49537,1,8,0:0:0:0:
320,192,49537,1,0,0:0:0:0:
448,192,49703,1,0,0:0:0:0:
64,192,49868,1,2,0:0:0:0:
192,192,49868,1,0,0:0:0:0:
320,192,50034,1,0,0:0:0:0:
64,192,50200,1,8,0:0:0:0:
448,192,50200,1,0,0:0:0:0:
192,192,50366,1,0,0:0:0:0:
64,192,50448,1,8,0:0:0:0:
320,192,50531,1,2,0:0:0:0:
448,192,50531,1,0,0:0:0:0:
320,192,50697,1,2,0:0:0:0:
64,192,50863,1,8,0:0:0:0:
192,192,50863,1,0,0:0:0:0:
320,192,51028,1,0,0:0:0:0:
192,192,51194,1,2,0:0:0:0:
448,192,51194,128,4,51526:0:0:0:0:
64,192,51526,1,8,0:0:0:0:
320,192,51526,1,0,0:0:0:0:
192,192,51691,1,0,0:0:0:0:
320,192,51774,1,8,0:0:0:0:
64,192,51857,1,2,0:0:0:0:
448,192,51857,1,0,0:0:0:0:
448,192,52023,1,2,0:0:0:0:
64,192,52189,1,8,0:0:0:0:
192,192,52189,1,0,0:0:0:0:
320,192,52354,1,0,0:0:0:0:
192,192,52520,128,2,52852:0:0:0:0:
448,192,52520,1,4,0:0:0:0:
64,192,52852,1,8,0:0:0:0:
320,192,52852,1,0,0:0:0:0:
448,192,53017,1,0,0:0:0:0:
320,192,53100,1,8,0:0:0:0:
64,192,53183,1,2,0:0:0:0:
192,192,53183,1,0,0:0:0:0:
192,192,53349,1,2,0:0:0:0:
320,192,53515,1,8,0:0:0:0:
448,192,53515,1,0,0:0:0:0:
64,192,53680,1,0,0:0:0:0:
192,192,53846,1,10,0:0:0:0:
448,192,53846,128,4,54178:0:0:0:0:
64,192,54178,1,2,0:0:0:0:
320,192,54178,1,0,0:0:0:0:
192,192,54343,128,8,54675:0:0:0:0:
448,192,54343,1,0,0:0:0:0:
64,192,54675,1,2,0:0:0:0:
448,192,54675,1,0,0:0:0:0:
192,192,54841,1,8,0:0:0:0:
320,192,54841,128,4,55172:0:0:0:0:
192,192,55172,1,2,0:0:0:0:
448,192,55172,1,0,0:0:0:0:
64,192,55338,128,8,55669:0:0:0:0:
320,192,55338,1,0,0:0:0:0:
192,192,55669,1,2,0:0:0:0:
320,192,55669,1,0,0:0:0:0:
64,192,55835,1,8,0:0:0:0:
448,192,55835,1,0,0:0:0:0:
320,192,56001,1,2,0:0:0:0:
192,192,56167,1,0,0:0:0:55:tom2.wav
448,192,56167,1,0,0:0:0:0:
64,192,56332,1,2,0:0:0:0:
64,192,56498,1,2,0:0:0:0:
448,192,56498,128,4,57824:0:0:0:0:
192,192,56995,128,0,57161:0:0:0:0:
320,192,57161,128,0,57327:0:0:0:0:
64,192,57327,128,0,57493:0:0:0:0:
192,192,57493,128,0,57658:0:0:0:0:
320,192,57658,128,0,57824:0:0:0:0:
64,192,57824,1,2,0:0:0:0:
192,192,57824,1,0,0:0:0:0:
320,192,58156,128,4,58487:0:0:0:0:
448,192,58156,1,2,0:0:0:0:
64,192,58487,128,4,58819:0:0:0:0:
192,192,58487,1,2,0:0:0:0:
320,192,58819,1,4,0:0:0:0:
448,192,58819,128,2,59150:0:0:0:0:
64,192,59150,1,4,0:0:0:0:
192,192,59150,1,2,0:0:0:0:
192,192,59316,1,0,0:0:0:0:
320,192,59482,1,8,0:0:0:0:
448,192,59482,1,0,0:0:0:0:
64,192,59647,1,0,0:0:0:0:
320,192,59730,1,8,0:0:0:0:
64,192,59813,1,2,0:0:0:0:
192,192,59813,1,0,0:0:0:0:
448,192,59979,1,2,0:0:0:0:
64,192,60145,1,8,0:0:0:0:
320,192,60145,1,0,0:0:0:0:
192,192,60310,1,0,0:0:0:0:
320,192,60476,1,2,0:0:0:0:
448,192,60476,1,0,0:0:0:0:
448,192,60642,1,0,0:0:0:0:
64,192,60807,1,8,0:0:0:0:
320,192,60807,1,0,0:0:0:0:
192,192,60973,1,0,0:0:0:0:
448,192,61056,1,8,0:0:0:0:
192,192,61139,1,2,0:0:0:0:
320,192,61139,1,0,0:0:0:0:
64,192,61305,1,2,0:0:0:0:
192,192,61470,1,8,0:0:0:0:
448,192,61470,1,0,0:0:0:0:
320,192,61636,1,0,0:0:0:0:
64,192,61802,1,2,0:0:0:0:
192,192,61802,1,0,0:0:0:0:
64,192,61968,1,0,0:0:0:0:
192,192,62133,1,8,0:0:0:0:
448,192,62133,1,0,0:0:0:0:
320,192,62299,1,0,0:0:0:0:
192,192,62382,1,8,0:0:0:0:
320,192,62465,1,2,0:0:0:0:
448,192,62465,1,0,0:0:0:0:
64,192,62631,1,2,0:0:0:0:
192,192,62796,1,8,0:0:0:0:
320,192,62796,1,0,0:0:0:0:
448,192,62962,1,0,0:0:0:0:
64,192,63128,128,2,63459:0:0:0:0:
192,192,63128,1,0,0:0:0:0:
192,192,63459,1,8,0:0:0:0:
320,192,63459,1,0,0:0:0:0:
448,192,63625,1,0,0:0:0:0:
320,192,63708,1,8,0:0:0:0:
64,192,63791,1,2,0:0:0:0:
192,192,63791,1,0,0:0:0:0:
448,192,63957,1,2,0:0:0:0:
64,192,64122,1,8,0:0:0:0:
320,192,64122,1,0,0:0:0:0:
192,192,64288,1,8,0:0:0:0:
320,192,64288,1,0,0:0:0:0:
64,192,64454,1,2,0:0:0:0:
448,192,64454,128,4,64785:0:0:0:0:
192,192,64785,1,8,0:0:0:0:
320,192,64785,1,0,0:0:0:0:
64,192,64951,1,0,0:0:0:0:
192,192,65034,1,8,0:0:0:0:
320,192,65117,1,2,0:0:0:0:
448,192,65117,1,0,0:0:0:0:
448,192,65283,1,2,0:0:0:0:
64,192,65448,1,8,0:0:0:0:
192,192,65448,1,0,0:0:0:0:
320,192,65614,1,0,0:0:0:0:
64,192,65780,128,2,66111:0:0:0:0:
448,192,65780,1,0,0:0:0:0:
192,192,66111,1,8,0:0:0:0:
448,192,66111,1,0,0:0:0:0:
320,192,66277,1,0,0:0:0:0:
192,192,66360,1,8,0:0:0:0:
64,192,66443,1,2,0:0:0:0:
448,192,66443,1,0,0:0:0:0:
64,192,66609,1,2,0:0:0:0:
192,192,66774,1,8,0:0:0:0:
320,192,66774,1,0,0:0:0:0:
448,192,66940,1,0,0:0:0:0:
64,192,67106,1,2,0:0:0:0:
192,192,67106,128,4,67437:0:0:0:0:
320,192,67437,1,8,0:0:0:0:
448,192,67437,1,0,0:0:0:0:
64,192,67603,1,0,0:0:0:0:
320,192,67686,1,8,0:0:0:0:
64,192,67769,1,2,0:0:0:0:
192,192,67769,1,0,0:0:0:0:
448,192,67935,1,2,0:0:0:0:
64,192,68100,1,8,0:0:0:0:
320,192,68100,1,0,0:0:0:0:
192,192,68266,1,2,0:0:0:0:
448,192,68266,1,0,0:0:0:55:tom3.wav
192,192,68432,1,2,0:0:0:0:
448,192,68432,1,0,0:0:0:55:tom3.wav
64,192,68763,1,2,0:0:0:0:
320,192,68763,128,4,69095:0:0:0:0:
64,192,69095,1,4,0:0:0:0:
448,192,69095,1,2,0:0:0:0:
192,192,69261,1,8,0:0:0:0:
320,192,69343,1,8,0:0:0:0:
64,192,69426,1,8,0:0:0:0:
448,192,69426,1,2,0:0:0:0:
192,192,69509,1,8,0:0:0:0:
320,192,69592,1,8,0:0:0:0:
448,192,69675,1,8,0:0:0:0:
64,192,69758,1,2,0:0:0:0:
192,192,69758,1,4,0:0:0:0:
64,192,69924,1,0,0:0:0:0:
192,192,70089,1,8,0:0:0:0:
320,192,70089,1,0,0:0:0:0:
448,192,70255,1,0,0:0:0:0:
192,192,70338,1,8,0:0:0:0:
320,192,70421,1,2,0:0:0:0:
448,192,70421,1,0,0:0:0:0:
64,192,70587,1,2,0:0:0:0:
192,192,70752,1,8,0:0:0:0:
448,192,70752,1,0,0:0:0:0:
320,192,70918,1,0,0:0:0:0:
64,192,71084,1,2,0:0:0:0:
192,192,71084,1,0,0:0:0:0:
192,192,71249,1,0,0:0:0:0:
320,192,71415,1,8,0:0:0:0:
448,192,71415,1,0,0:0:0:0:
64,192,71581,1,0,0:0:0:0:
320,192,71664,1,8,0:0:0:0:
64,192,71747,1,2,0:0:0:0:
192,192,71747,1,0,0:0:0:0:
448,192,71912,1,2,0:0:0:0:
192,192,72078,1,8,0:0:0:0:
320,192,72078,1,0,0:0:0:0:
64,192,72244,1,0,0:0:0:0:
320,192,72410,1,2,0:0:0:0:
448,192,72410,1,4,0:0:0:0:
448,192,72575,1,0,0:0:0:0:
64,192,72741,1,8,0:0:0:0:
192,192,72741,1,0,0:0:0:0:
320,192,72907,1,0,0:0:0:0:
192,192,72990,1,8,0:0:0:0:
320,192,73073,1,2,0:0:0:0:
448,192,73073,1,0,0:0:0:0:
64,192,73238,1,2,0:0:0:0:
192,192,73404,1,8,0:0:0:0:
448,192,73404,1,0,0:0:0:0:
320,192,73570,1,0,0:0:0:0:
64,192,73736,128,2,74067:0:0:0:0:
192,192,73736,1,4,0:0:0:0:
320,192,74067,1,8,0:0:0:0:
448,192,74067,1,0,0:0:0:0:
64,192,74233,1,2,0:0:0:0:
192,192,74233,1,0,0:0:0:0:
192,192,74399,1,2,0:0:0:0:
448,192,74399,128,4,74620:0:0:0:0:
64,192,74620,1,2,0:0:0:0:
320,192,74620,128,4,74841:0:0:0:0:
192,192,74841,128,2,75062:0:0:0:0:
448,192,74841,1,4,0:0:0:0:
64,192,75062,128,2,75890:0:0:0:0:
320,192,75062,1,4,0:0:0:0:
192,192,75227,1,0,0:0:0:0:
320,192,75393,1,8,0:0:0:0:
448,192,75393,1,0,0:0:0:0:
192,192,75559,1,0,0:0:0:0:
320,192,75642,1,8,0:0:0:0:
448,192,75725,1,2,0:0:0:0:
192,192,75890,1,2,0:0:0:0:
320,192,75890,1,0,0:0:0:0:
64,192,76056,1,8,0:0:0:0:
448,192,76056,1,0,0:0:0:0:
320,192,76222,1,0,0:0:0:0:
64,192,76388,1,2,0:0:0:0:
192,192,76388,128,0,76719:0:0:0:0:
320,192,76719,1,8,0:0:0:0:
448,192,76719,1,0,0:0:0:0:
192,192,76885,1,0,0:0:0:0:
320,192,76968,1,8,0:0:0:0:
64,192,77051,1,2,0:0:0:0:
448,192,77051,1,0,0:0:0:0:
64,192,77216,1,2,0:0:0:0:
192,192,77382,1,8,0:0:0:0:
448,192,77382,1,0,0:0:0:0:
320,192,77548,1,0,0:0:0:0:
64,192,77714,1,4,0:0:0:0:
192,192,77714,1,8,0:0:0:0:
64,192,77879,1,2,0:0:0:0:
320,192,77879,1,0,0:0:0:0:
64,192,78045,1,2,0:0:0:0:
320,192,78045,1,0,0:0:0:0:
192,192,78211,1,8,0:0:0:0:
448,192,78211,1,4,0:0:0:0:
320,192,78377,1,2,0:0:0:0:
448,192,78377,1,0,0:0:0:0:
320,192,78542,1,2,0:0:0:0:
448,192,78542,1,0,0:0:0:0:
64,192,78708,1,8,0:0:0:0:
192,192,78708,1,4,0:0:0:0:
192,192,78874,1,2,0:0:0:0:
448,192,78874,1,0,0:0:0:0:
192,192,79040,1,2,0:0:0:0:
448,192,79040,1,0,0:0:0:0:
64,192,79205,1,8,0:0:0:0:
320,192,79205,1,4,0:0:0:0:
192,192,79371,1,2,0:0:0:0:
320,192,79371,1,0,0:0:0:0:
192,192,79537,1,2,0:0:0:0:
320,192,79537,1,0,0:0:0:0:
64,192,79703,1,2,0:0:0:0:
448,192,79703,1,0,0:0:0:55:tom1.wav
192,192,79868,1,0,0:0:0:55:tom2.wav
320,192,79951,1,0,0:0:0:55:tom2.wav
64,192,80034,1,2,0:0:0:0:
448,192,80034,1,0,0:0:0:55:tom3.wav
192,192,80200,1,0,0:0:0:55:tom2.wav
320,192,80366,128,2,82354:0:0:0:0:
448,192,80366,1,4,0:0:0:0:
64,192,80697,1,2,0:0:0:0:
192,192,81028,1,2,0:0:0:0:
448,192,81360,1,2,0:0:0:0:
64,192,81691,1,2,0:0:0:0:
192,192,82023,1,2,0:0:0:0:
64,192,82354,128,2,82686:0:0:0:0:
448,192,82354,1,0,0:0:0:0:
320,192,82686,128,2,82852:0:0:0:0:
448,192,82686,1,0,0:0:0:0:
192,192,82852,128,0,83017:0:0:0:0:
64,192,83017,1,2,0:0:0:0:
448,192,83017,128,0,85669:0:0:0:0:
320,192,83349,1,2,0:0:0:0:
192,192,83680,1,2,0:0:0:0:
64,192,84012,1,2,0:0:0:0:
320,192,84343,1,2,0:0:0:0:
64,192,84675,1,2,0:0:0:0:
64,192,84841,1,0,0:0:0:55:tom1.wav
192,192,85006,1,2,0:0:0:0:
192,192,85172,1,0,0:0:0:55:tom1.wav
320,192,85338,1,2,0:0:0:0:
320,192,85504,1,2,0:0:0:0:
64,192,85669,128,2,87990:0:0:0:0:
192,192,85669,1,4,0:0:0:0:
320,192,86001,1,0,0:0:0:0:
192,192,86498,1,0,0:0:0:0:
448,192,86912,1,0,0:0:0:0:
320,192,87078,1,0,0:0:0:0:
192,192,87161,128,0,87990:0:0:0:0:
448,192,87327,1,0,0:0:0:0:
320,192,87990,1,10,0:0:0:0:
448,192,87990,1,4,0:0:0:0:
64,192,88156,1,4,0:0:0:0:
320,192,88156,128,8,88653:0:0:0:0:
448,192,88156,128,2,88653:0:0:0:0:
