osu file format v14

[General]
AudioFilename: audio.mp3
AudioLeadIn: 0
PreviewTime: 58020
Countdown: 0
SampleSet: Soft
StackLeniency: 0.3
Mode: 0
LetterboxInBreaks: 0
WidescreenStoryboard: 0

[Editor]
DistanceSpacing: 1.2
BeatDivisor: 4
GridSize: 8
TimelineZoom: 2

[Metadata]
Title:I'm with you (TV Size)
TitleUnicode:I'm with you (TV Size)
Artist:Latina (CV: Takao Kanon)
ArtistUnicode:ラティナ (CV: 高尾奏音)
Creator:Ujimatsu Chiya
Version:Mochi's Hard
Source:うちの娘の為ならば、俺はもしかしたら魔王も倒せるかもしれない。
Tags:UchiMusume Uchi no Ko no Tame naraba, Ore wa Moshikashitara Maou mo Taoseru kamo Shirenai If It's for My Daughter, I'd Even Defeat a Demon Lord anime japanese OP opening Momochikun eINess Ujimatsu_Chiya
BeatmapID:2097104
BeatmapSetID:998531

[Difficulty]
HPDrainRate:5
CircleSize:4
OverallDifficulty:7
ApproachRate:7.5
SliderMultiplier:1.43
SliderTickRate:1

[Events]
//Background and Video events
0,0,"1022.jpg",0,0
Video,0,"[video]op.mp4"
//Break Periods
//Storyboard Layer 0 (Background)
//Storyboard Layer 1 (Fail)
//Storyboard Layer 2 (Pass)
//Storyboard Layer 3 (Foreground)
//Storyboard Layer 4 (Overlay)
//Storyboard Sound Samples

[TimingPoints]
755,331.491712707182,4,2,2,40,1,0
5395,-100,4,2,1,60,0,0
6058,-100,4,2,1,75,0,0
11362,-105.263157894737,4,2,2,60,0,0
20644,-105.263157894737,4,2,1,50,0,0
21638,-105.263157894737,4,2,1,70,0,0
21804,-105.263157894737,4,2,1,40,0,0
21970,-100,4,2,1,60,0,0
32578,-111.111111111111,4,2,1,55,0,0
48489,-100,4,2,1,60,0,0
58103,-100,4,2,1,60,0,0
59097,-100,4,2,1,75,0,1
68710,-100,4,2,1,65,0,0
69705,-100,4,2,1,75,0,1
80313,-100,4,2,1,70,0,0
85616,-100,4,2,1,50,0,0

[Colours]
Combo1 : 255,255,128
Combo2 : 255,166,210
Combo3 : 177,101,101
Combo4 : 168,255,255

[HitObjects]
102,313,755,6,0,L|173:273,1,71.5,2|2,0:0|0:0,0:0:0:0:
228,118,1252,2,0,L|149:133,1,71.5,2|2,0:0|0:0,0:0:0:0:
348,246,1749,2,0,L|427:261,1,71.5,2|2,0:0|0:0,0:0:0:0:
428,36,2246,6,0,L|390:112,1,71.5,2|2,0:0|0:0,0:0:0:0:
189,216,2743,2,0,L|206:296,2,71.5,2|2|2,0:0|0:0|0:0,0:0:0:0:
119,165,3241,1,2,0:0:0:0:
136,65,3406,5,2,0:0:0:0:
136,65,3572,1,2,0:0:0:0:
388,87,3904,1,2,0:0:0:0:
388,87,4070,1,2,0:0:0:0:
361,324,4401,1,2,0:0:0:0:
361,324,4567,1,2,0:0:0:0:
124,297,4898,5,2,0:0:0:0:
124,297,5064,2,0,P|96:230|103:155,1,143,2|12,0:0|0:0,0:0:0:0:
163,65,5561,1,8,0:0:0:0:
262,126,5727,2,0,L|288:158,3,35.75,0|0|0|0,3:0|3:0|3:0|3:0,0:0:0:0:
314,184,6058,6,0,P|375:204|462:188,1,143,6|2,0:0|0:0,0:0:0:0:
451,192,6556,2,0,P|436:258|437:343,1,143,8|0,0:0|3:0,0:0:0:0:
341,365,7053,2,0,P|300:358|250:349,1,71.5,6|0,0:0|3:0,0:0:0:0:
191,268,7384,5,2,0:0:0:0:
191,268,7550,2,0,P|138:280|117:286,1,71.5,8|2,0:0|0:0,0:0:0:0:
47,240,7882,1,0,3:0:0:0:
92,167,8047,2,0,P|120:138|132:95,1,71.5,6|2,0:0|0:0,0:0:0:0:
174,33,8379,1,8,0:0:0:0:
237,91,8545,1,0,3:0:0:0:
312,131,8710,6,0,P|379:151|471:149,1,143,6|2,0:0|0:0,0:0:0:0:
373,237,9208,2,0,P|306:217|214:219,1,143,8|0,0:0|3:0,0:0:0:0:
139,160,9705,2,0,P|128:234|122:316,1,143,6|2,0:0|0:0,0:0:0:0:
35,268,10202,6,0,P|24:234|17:187,1,71.5,8|2,0:0|0:0,0:0:0:0:
51,119,10534,1,8,0:0:0:0:
107,54,10699,2,0,P|155:66|190:77,1,71.5,2|8,0:0|0:3,0:0:0:0:
251,114,11031,1,2,0:0:0:0:
317,60,11196,1,2,0:0:0:0:
419,98,11362,6,0,P|451:152|449:234,1,135.849996372414,2|2,0:0|0:0,0:0:0:0:
376,268,11859,1,0,0:0:0:0:
376,268,12025,2,0,P|311:282|234:300,1,135.849996372414,2|2,0:0|0:0,0:0:0:0:
169,332,12522,1,0,0:0:0:0:
108,264,12688,6,0,P|87:222|83:180,1,67.9249981862069,2|0,0:0|0:0,0:0:0:0:
175,111,13020,2,0,P|196:153|200:195,1,67.9249981862069,2|0,0:0|0:0,0:0:0:0:
199,173,13351,2,0,P|265:180|340:142,1,135.849996372414,2|2,0:0|0:0,0:0:0:0:
404,97,13848,5,0,0:0:0:0:
404,97,14014,2,0,P|438:162|431:226,1,135.849996372414,2|2,0:0|0:0,0:0:0:0:
377,282,14511,1,0,0:0:0:0:
292,273,14677,2,0,P|284:322|279:356,1,67.9249981862069,2|0,0:0|0:0,0:0:0:0:
216,211,15009,2,0,P|195:256|181:287,1,67.9249981862069,2|0,0:0|0:0,0:0:0:0:
133,162,15340,6,0,P|97:214|99:295,1,135.849996372414,2|2,0:0|0:0,0:0:0:0:
45,349,15837,1,0,0:0:0:0:
123,372,16003,2,0,P|180:355|259:366,1,135.849996372414,2|2,0:0|0:0,0:0:0:0:
394,280,16666,6,0,P|334:289|259:248,1,135.849996372414,2|2,0:0|0:0,0:0:0:0:
214,196,17163,1,0,0:0:0:0:
134,212,17329,2,0,B|125:266|154:309|154:309|146:350,1,135.849996372414,2|2,0:0|0:0,0:0:0:0:
52,320,17826,1,0,0:0:0:0:
13,234,17992,6,0,P|27:149|45:73,1,135.849996372414,2|2,0:0|0:0,0:0:0:0:
91,39,18489,1,0,0:0:0:0:
91,39,18655,1,2,0:0:0:0:
252,64,18987,2,0,L|239:130,1,67.9249981862069,2|0,0:0|0:0,0:0:0:0:
202,210,19318,6,0,B|238:226|238:226|295:192|354:223,2,135.849996372414,2|2|2,0:0|0:0|0:0,0:0:0:0:
122,228,20147,1,0,0:0:0:0:
141,135,20313,2,0,P|181:117|219:120,1,67.9249981862069,2|0,0:0|0:0,0:0:0:0:
282,140,20644,5,6,0:0:0:0:
363,91,20810,1,8,0:0:0:0:
363,91,20975,2,0,L|347:11,1,67.9249981862069,2|8,0:0|0:3,0:0:0:0:
282,140,21307,2,0,L|295:206,1,67.9249981862069,2|2,0:0|0:0,0:0:0:0:
419,231,21638,2,0,L|405:297,1,67.9249981862069,6|0,0:0|0:0,0:0:0:0:
322,355,21970,6,0,P|258:367|180:318,1,143,6|8,0:0|0:0,0:0:0:0:
137,265,22467,1,0,0:0:0:0:
137,265,22633,2,0,P|94:251|62:251,1,71.5,2|2,0:0|0:0,0:0:0:0:
17,180,22964,1,8,0:0:0:0:
72,113,23130,5,0,0:0:0:0:
72,113,23296,2,0,B|126:128|126:128|162:112|162:112|219:126,1,143,2|8,0:0|0:0,0:0:0:0:
279,170,23793,2,0,L|294:219,2,35.75,0|8|2,3:0|0:0|0:0,0:0:0:0:
309,89,24125,1,2,0:0:0:0:
393,102,24290,2,0,P|414:140|412:182,1,71.5,8|0,0:0|0:0,0:0:0:0:
367,271,24622,6,0,P|315:299|230:288,1,143,2|8,0:0|0:0,0:0:0:0:
156,252,25119,1,0,0:0:0:0:
78,213,25285,2,0,L|94:126,1,71.5,2|2,0:0|0:0,0:0:0:0:
180,50,25616,2,0,L|192:120,1,71.5,8|0,0:0|0:0,0:0:0:0:
268,161,25948,5,2,0:0:0:0:
397,273,26279,1,8,0:0:0:0:
332,330,26445,2,0,L|348:374,2,35.75,0|8|2,3:0|0:0|0:0,0:0:0:0:
280,260,26777,1,2,0:0:0:0:
205,302,26942,2,0,L|132:321,1,71.5,8|0,0:0|0:0,0:0:0:0:
10,263,27274,6,0,L|148:226,1,143,6|8,0:0|0:0,0:0:0:0:
221,181,27771,2,0,P|245:106|220:28,1,143,0|2,3:0|0:0,0:0:0:0:
146,64,28268,1,8,0:0:0:0:
321,108,28600,6,0,B|385:87|385:87|421:109|467:95,1,143,2|8,0:0|0:0,0:0:0:0:
488,182,29097,1,0,3:0:0:0:
416,229,29263,2,0,P|406:278|401:308,1,71.5,2|2,0:0|0:0,0:0:0:0:
353,367,29594,1,8,0:0:0:0:
205,274,29926,6,0,P|148:284|118:291,1,71.5,6|0,0:0|0:0,0:0:0:0:
111,192,30257,1,8,0:0:0:0:
111,192,30423,2,0,P|75:186|40:179,1,71.5,4|2,0:0|0:0,0:0:0:0:
25,88,30754,1,8,0:3:0:0:
101,48,30920,1,2,0:0:0:0:
188,111,31086,6,0,P|248:122|331:73,1,143,6|8,0:0|0:0,0:0:0:0:
391,39,31583,2,0,P|357:110|370:192,1,143,2|2,0:0|0:0,0:0:0:0:
433,232,32080,1,8,0:3:0:0:
433,232,32246,2,0,L|419:328,1,71.5,2|0,0:0|0:0,0:0:0:0:
353,364,32578,6,0,B|285:335|285:335|216:354,1,128.699996072388,6|0,0:0|0:0,0:0:0:0:
155,363,33075,1,2,0:0:0:0:
155,363,33241,2,0,P|129:302|153:227,1,128.699996072388,8|2,0:0|0:0,0:0:0:0:
186,171,33738,1,2,0:0:0:0:
125,112,33904,6,0,L|55:129,2,64.3499980361939,0|2|2,3:0|0:0|0:0,0:0:0:0:
258,213,34567,2,0,L|320:197,1,64.3499980361939,8|0,0:0|0:0,0:0:0:0:
392,240,34898,1,0,3:0:0:0:
416,159,35064,1,2,0:0:0:0:
378,84,35230,6,0,P|321:43|261:49,1,128.699996072388,2|0,0:0|3:0,0:0:0:0:
190,9,35727,2,0,P|174:80|172:154,1,128.699996072388,2|0,0:0|3:0,0:0:0:0:
217,205,36224,1,0,3:0:0:0:
279,260,36390,6,0,P|333:279|411:270,1,128.699996072388,8|8,0:0|0:0,0:0:0:0:
403,272,36887,2,0,P|399:326|397:358,2,64.3499980361939,0|2|8,0:0|0:0|0:0,0:0:0:0:
307,135,37550,2,0,P|309:102|311:70,1,64.3499980361939,0|2,0:0|0:0,0:0:0:0:
233,40,37882,6,0,B|191:29|146:49|146:49|99:34,1,128.699996072388,6|0,0:0|0:0,0:0:0:0:
43,89,38379,1,2,0:0:0:0:
101,149,38545,2,0,P|123:213|94:288,1,128.699996072388,8|2,0:0|0:0,0:0:0:0:
30,228,39042,1,2,0:0:0:0:
30,311,39208,6,0,P|80:351|154:348,1,128.699996072388,0|2,3:0|0:0,0:0:0:0:
215,307,39705,2,0,L|283:330,1,64.3499980361939,2|8,0:0|0:0,0:0:0:0:
424,250,40202,2,0,L|363:229,1,64.3499980361939,0|2,3:0|0:0,0:0:0:0:
295,178,40534,6,0,B|320:148|353:144|353:144|414:162,1,128.699996072388,2|0,0:0|3:0,0:0:0:0:
477,110,41031,1,2,0:0:0:0:
413,55,41196,2,0,P|383:37|357:2,1,64.3499980361939,8|0,0:0|3:0,0:0:0:0:
287,50,41528,1,0,3:0:0:0:
206,74,41694,6,0,P|174:133|177:213,1,128.699996072388,8|8,0:0|0:0,0:0:0:0:
171,193,42191,2,0,P|115:215|35:211,1,128.699996072388,2|8,0:0|0:0,0:0:0:0:
72,306,42688,1,8,0:3:0:0:
168,289,42854,2,0,L|159:353,1,64.3499980361939,2|2,0:0|0:0,0:0:0:0:
263,251,43185,6,0,P|294:308|280:375,2,128.699996072388,6|2|8,0:0|0:0|0:0,0:0:0:0:
417,144,44180,2,0,P|406:109|415:66,1,64.3499980361939,0|2,3:0|0:0,0:0:0:0:
332,47,44511,2,0,P|302:79|295:110,1,64.3499980361939,0|8,3:0|0:0,0:0:0:0:
296,98,44843,6,0,P|210:117|169:125,1,128.699996072388,2|8,0:0|0:0,0:0:0:0:
6,87,45506,1,0,3:0:0:0:
27,167,45672,1,2,0:0:0:0:
114,230,45837,6,0,P|162:182|161:96,1,128.699996072388,6|0,0:0|0:0,0:0:0:0:
121,54,46335,1,2,0:0:0:0:
229,21,46500,2,0,B|259:36|285:27|285:27|310:58|356:50,1,128.699996072388,12|0,0:0|0:0,0:0:0:0:
430,33,46998,1,2,0:0:0:0:
474,112,47163,6,0,L|463:191,1,64.3499980361939,6|2,0:0|0:0,0:0:0:0:
350,213,47495,2,0,L|358:149,1,64.3499980361939,8|2,0:0|0:0,0:0:0:0:
436,279,47826,2,0,L|374:319,1,64.3499980361939,8|2,0:0|0:0,0:0:0:0:
381,313,48075,1,8,0:0:0:0:
381,313,48158,1,2,0:0:0:0:
264,272,48324,5,8,0:0:0:0:
264,272,48406,1,8,0:0:0:0:
264,272,48489,2,0,P|194:267|126:310,1,143,6|8,0:0|0:0,0:0:0:0:
71,363,48987,2,0,P|101:301|92:222,1,143,0|2,3:0|0:0,0:0:0:0:
33,168,49484,1,8,0:0:0:0:
93,92,49650,6,0,P|134:92|170:114,1,71.5,0|2,3:0|0:0,0:0:0:0:
225,196,49981,2,0,P|260:197|292:182,1,71.5,0|8,0:0|0:0,0:0:0:0:
341,111,50313,2,0,L|325:268,1,143,2|2,0:0|0:0,0:0:0:0:
233,357,50810,2,0,L|225:285,1,71.5,8|0,0:0|0:0,0:0:0:0:
225,196,51141,6,0,B|174:227|142:187|75:230,1,143,6|8,0:0|0:0,0:0:0:0:
8,187,51638,2,0,P|-7:138|59:69,1,143,2|2,0:0|0:0,0:0:0:0:
113,16,52136,2,0,P|136:51|134:102,1,71.5,8|0,0:0|3:0,0:0:0:0:
166,173,52467,6,0,B|219:203|277:180|277:180|301:205,1,143,6|8,0:0|0:0,0:0:0:0:
366,249,52964,1,0,3:0:0:0:
423,185,53130,2,0,L|498:211,1,71.5,2|2,0:0|0:0,0:0:0:0:
428,313,53462,2,0,L|353:339,1,71.5,8|0,0:0|0:0,0:0:0:0:
268,373,53793,6,0,P|233:324|244:220,1,143,6|2,0:0|0:0,0:0:0:0:
174,143,54290,2,0,L|309:190,1,143,6|2,0:0|0:0,0:0:0:0:
401,262,54788,2,0,P|436:213|425:109,1,143,6|2,0:0|0:0,0:0:0:0:
334,54,55285,6,0,B|299:139|299:139|311:203,1,143,6|2,0:0|0:0,0:0:0:0:
401,262,55782,2,0,B|367:267|343:281|343:281|311:271|311:271|256:291,1,143,8|0,0:0|3:0,0:0:0:0:
198,341,56279,1,2,0:0:0:0:
160,220,56445,1,6,0:0:0:0:
256,192,56528,12,2,57771,0:0:0:0:
378,295,58103,5,4,0:0:0:0:
392,210,58434,1,4,0:0:0:0:
405,125,58766,1,4,0:0:0:0:
405,125,59097,6,0,P|365:106|330:109,1,71.5,6|0,0:0|0:0,0:0:0:0:
256,176,59429,1,8,0:0:0:0:
256,176,59594,2,0,B|276:246|276:246|252:280|267:342,1,143,0|0,3:0|0:0,0:0:0:0:
197,370,60092,1,8,0:0:0:0:
156,294,60257,1,0,3:0:0:0:
74,320,60423,6,0,P|19:333|-11:340,2,71.5,2|0|8,0:0|3:0|0:0,0:0:0:0:
94,226,60920,2,0,P|122:168|114:80,1,143,0|2,3:0|0:0,0:0:0:0:
176,28,61417,1,8,0:0:0:0:
259,49,61583,6,0,P|273:90|277:120,1,71.5,0|2,3:0|0:0,0:0:0:0:
231,194,61915,2,0,P|264:206|299:211,1,71.5,0|8,3:0|0:0,0:0:0:0:
377,175,62246,2,0,P|419:231|408:317,1,143,0|2,3:0|0:0,0:0:0:0:
343,347,62743,1,8,0:0:0:0:
281,286,62909,1,0,3:0:0:0:
173,313,63075,6,0,P|112:324|26:278,1,143,2|8,0:0|0:0,0:0:0:0:
0,185,63572,2,0,P|61:174|147:220,1,143,0|2,3:0|0:0,0:0:0:0:
214,240,64069,1,8,0:0:0:0:
272,144,64235,1,8,0:0:0:0:
214,79,64401,6,0,B|136:55|136:55|68:82,2,143,6|8|2,0:0|0:0|0:0,0:0:0:0:
272,144,65230,1,2,0:0:0:0:
348,105,65395,2,0,P|368:73|368:33,1,71.5,8|0,0:0|0:0,0:0:0:0:
272,144,65727,6,0,L|292:231,1,71.5,2|0,3:2|0:0,0:0:0:0:
341,281,66058,1,8,0:0:0:0:
341,281,66224,2,0,P|273:255|184:268,1,143,0|2,3:0|0:0,0:0:0:0:
141,319,66721,1,8,0:0:0:0:
71,185,67053,6,0,P|105:114|189:92,1,143,4|8,0:0|0:0,0:0:0:0:
248,144,67550,1,0,3:0:0:0:
248,144,67633,1,2,0:0:0:0:
248,144,67716,2,0,L|319:126,1,71.5,2|2,0:0|0:0,0:0:0:0:
353,21,68047,2,0,L|283:38,1,71.5,8|2,0:0|0:0,0:0:0:0:
388,166,68379,6,0,P|443:114|426:33,1,143,2|6,0:0|0:0,0:0:0:0:
248,144,69042,1,6,0:0:0:0:
312,226,69208,1,2,0:0:0:0:
319,246,69290,1,2,0:0:0:0:
327,265,69373,2,0,L|318:314,3,35.75,8|8|8|8,0:0|0:0|0:0|0:0,0:0:0:0:
295,326,69705,6,0,L|210:344,1,71.5,6|0,0:0|0:0,0:0:0:0:
172,279,70036,1,8,0:0:0:0:
92,245,70202,2,0,P|163:250|228:204,1,143,0|2,3:0|0:0,0:0:0:0:
194,130,70699,1,8,0:0:0:0:
222,48,70865,1,0,3:0:0:0:
310,19,71031,6,0,L|335:97,1,71.5,2|0,0:0|3:0,0:0:0:0:
317,171,71362,1,8,0:0:0:0:
394,251,71528,2,0,P|451:212|448:122,1,143,0|2,3:0|0:0,0:0:0:0:
401,69,72025,2,0,L|314:93,1,71.5,8|0,0:0|3:0,0:0:0:0:
238,39,72357,6,0,L|169:58,1,71.5,4|0,0:0|0:0,0:0:0:0:
98,116,72688,1,8,0:0:0:0:
98,116,72854,2,0,P|69:181|75:256,1,143,0|2,3:0|0:0,0:0:0:0:
126,318,73351,1,8,0:0:0:0:
198,271,73517,1,0,3:0:0:0:
264,360,73683,6,0,B|310:346|310:346|352:385|407:363,1,143,6|8,0:0|0:0,0:0:0:0:
462,295,74180,1,2,0:0:0:0:
334,243,74346,5,8,0:0:0:0:
427,174,74567,1,8,0:0:0:0:
462,295,74788,1,8,0:0:0:0:
372,350,75009,6,0,P|312:364|229:321,1,143,6|8,0:0|0:0,0:0:0:0:
168,284,75506,1,0,3:0:0:0:
168,284,75672,2,0,L|85:305,1,71.5,2|2,0:0|0:0,0:0:0:0:
185,198,76003,2,0,P|197:157|192:120,1,71.5,8|0,0:0|3:0,0:0:0:0:
290,65,76335,6,0,B|274:118|311:170|311:170|300:227,1,143,6|8,0:0|0:0,0:0:0:0:
253,269,76832,2,0,P|237:311|232:346,1,71.5,0|2,3:0|0:0,0:0:0:0:
146,296,77163,1,2,0:0:0:0:
146,296,77329,2,0,P|95:302|54:312,1,71.5,8|0,0:0|3:0,0:0:0:0:
25,226,77661,6,0,L|50:60,1,143,4|2,0:0|0:0,0:0:0:0:
142,30,78158,2,0,P|189:80|182:153,1,143,8|2,0:0|0:0,0:0:0:0:
113,258,78655,2,0,B|163:242|212:267|212:267|259:249,1,143,8|2,0:0|0:0,0:0:0:0:
372,295,79152,6,0,P|415:242|397:163,1,143,8|2,0:0|0:0,0:0:0:0:
345,108,79650,2,0,L|364:38,1,71.5,2|2,0:0|0:0,0:0:0:0:
244,82,79981,2,0,L|215:13,1,71.5,8|2,0:0|0:0,0:0:0:0:
171,153,80313,6,0,B|125:145|82:169|82:169|54:152|13:159,1,143,6|2,0:0|0:0,0:0:0:0:
33,156,80810,2,0,P|60:211|59:293,1,143,0|0,0:0|0:0,0:0:0:0:
118,354,81307,1,8,0:0:0:0:
249,244,81638,5,2,0:0:0:0:
249,244,81804,2,0,P|237:200|237:159,1,71.5,8|2,0:0|0:0,0:0:0:0:
91,90,82301,1,6,0:0:0:0:
18,135,82467,1,0,0:0:0:0:
48,221,82633,2,0,L|121:238,1,71.5,8|0,0:0|0:0,0:0:0:0:
196,342,82964,6,0,P|131:350|64:307,1,143,6|8,0:0|0:0,0:0:0:0:
48,221,83462,2,0,L|201:184,1,143,2|2,0:0|0:0,0:0:0:0:
274,117,83959,2,0,L|412:150,1,143,8|2,0:0|0:0,0:0:0:0:
512,209,84456,6,0,L|494:124,1,71.5,2|2,0:0|0:0,0:0:0:0:
449,64,84788,1,8,0:0:0:0:
350,121,84953,2,0,P|387:146|430:148,1,71.5,6|8,0:0|0:0,0:0:0:0:
331,36,85285,2,0,P|294:6|264:3,1,71.5,2|2,0:0|0:0,0:0:0:0:
152,27,85616,1,6,0:0:0:0:
256,192,85699,12,8,88103,0:0:0:0:
