osu file format v14

[General]
AudioFilename: audio.mp3
AudioLeadIn: 0
PreviewTime: 58020
Countdown: 0
SampleSet: Soft
StackLeniency: 0.7
Mode: 0
LetterboxInBreaks: 0
WidescreenStoryboard: 0

[Editor]
DistanceSpacing: 1
BeatDivisor: 4
GridSize: 4
TimelineZoom: 2.499999

[Metadata]
Title:I'm with you (TV Size)
TitleUnicode:I'm with you (TV Size)
Artist:Latina (CV: Takao Kanon)
ArtistUnicode:ラティナ (CV: 高尾奏音)
Creator:Ujimatsu Chiya
Version:Insane
Source:うちの娘の為ならば、俺はもしかしたら魔王も倒せるかもしれない。
Tags:UchiMusume Uchi no Ko no Tame naraba, Ore wa Moshikashitara Maou mo Taoseru kamo Shirenai If It's for My Daughter, I'd Even Defeat a Demon Lord anime japanese OP opening Momochikun eINess Ujimatsu_Chiya
BeatmapID:2093539
BeatmapSetID:998531

[Difficulty]
HPDrainRate:6
CircleSize:4
OverallDifficulty:8
ApproachRate:9
SliderMultiplier:1.68
SliderTickRate:1

[Events]
//Background and Video events
0,0,"1022.jpg",0,0
Video,0,"[video]op.mp4"
//Break Periods
//Storyboard Layer 0 (Background)
//Storyboard Layer 1 (Fail)
//Storyboard Layer 2 (Pass)
//Storyboard Layer 3 (Foreground)
//Storyboard Layer 4 (Overlay)
//Storyboard Sound Samples

[TimingPoints]
755,331.491712707182,4,2,2,40,1,0
5395,-100,4,2,1,60,0,0
6058,-100,4,2,1,75,0,0
11362,-111.111111111111,4,2,2,60,0,0
20644,-111.111111111111,4,2,1,50,0,0
21638,-111.111111111111,4,2,1,70,0,0
21804,-111.111111111111,4,2,1,40,0,0
21970,-111.111111111111,4,2,1,60,0,0
32578,-142.857142857143,4,2,1,55,0,0
48489,-111.111111111111,4,2,1,60,0,0
58103,-83.3333333333333,4,2,1,65,0,0
59097,-90.9090909090909,4,2,1,75,0,1
68710,-83.3333333333333,4,2,1,65,0,0
69705,-90.9090909090909,4,2,1,75,0,1
80313,-90.9090909090909,4,2,1,70,0,0
85616,-125,4,2,1,50,0,0

[Colours]
Combo1 : 255,255,128
Combo2 : 255,166,210
Combo3 : 177,101,101
Combo4 : 168,255,255

[HitObjects]
102,335,755,5,2,0:0:0:0:
102,335,920,1,2,0:0:0:0:
157,261,1252,1,2,0:0:0:0:
157,261,1417,1,2,0:0:0:0:
240,235,1749,1,2,0:0:0:0:
240,235,1914,1,2,0:0:0:0:
331,247,2246,1,2,0:0:0:0:
331,247,2411,1,2,0:0:0:0:
331,247,2743,5,2,0:0:0:0:
389,306,2909,1,2,0:0:0:0:
471,292,3075,1,2,0:0:0:0:
500,213,3241,1,2,0:0:0:0:
454,142,3406,6,0,L|355:125,1,84,2|2,0:0|0:0,0:0:0:0:
361,112,3904,2,0,L|278:126,1,84,2|2,0:0|0:0,0:0:0:0:
270,139,4401,2,0,L|187:124,1,84,2|2,0:0|0:0,0:0:0:0:
181,138,4898,2,0,L|98:152,1,84,2|2,0:0|0:0,0:0:0:0:
83,142,5395,5,12,0:0:0:0:
130,304,5561,1,8,0:0:0:0:
195,255,5727,2,0,L|250:240,3,42,0|0|0|0,3:0|3:0|3:0|3:0,0:0:0:0:
271,221,6058,6,0,P|267:298|367:314,1,168,6|2,0:0|0:0,0:0:0:0:
430,260,6556,2,0,P|434:183|334:167,1,168,8|0,0:0|3:0,0:0:0:0:
200,97,7053,6,0,L|217:-3,2,84,6|0|2,0:0|3:0|0:0,0:0:0:0:
160,259,7550,1,8,0:0:0:0:
90,181,7716,1,2,0:0:0:0:
288,134,7882,1,0,3:0:0:0:
230,313,8047,6,0,P|172:295|130:288,1,84,6|2,0:0|0:0,0:0:0:0:
299,225,8379,2,0,P|357:207|399:200,1,84,8|0,0:0|3:0,0:0:0:0:
478,351,8710,6,0,B|418:357|361:337|361:337|335:277,1,168,6|2,0:0|0:0,0:0:0:0:
254,133,9208,2,0,B|314:127|371:147|371:147|397:207,1,168,8|0,0:0|3:0,0:0:0:0:
262,309,9705,2,0,P|220:301|180:290,2,84,6|0|2,0:0|3:0|0:0,0:0:0:0:
244,123,10202,1,8,0:0:0:0:
156,209,10368,1,2,0:0:0:0:
352,268,10534,1,8,0:0:0:0:
255,335,10699,5,2,0:0:0:0:
255,335,10865,1,8,0:3:0:0:
156,209,11031,2,0,P|143:143|137:105,1,84,8|2,0:0|0:0,0:0:0:0:
47,256,11362,6,0,P|126:244|160:311,1,151.199995385742,2|2,0:0|0:0,0:0:0:0:
233,350,11859,1,0,0:0:0:0:
310,303,12025,2,0,L|463:278,1,151.199995385742,2|2,0:0|0:0,0:0:0:0:
486,192,12522,1,0,0:0:0:0:
365,111,12688,6,0,P|291:101|265:193,1,151.199995385742,2|2,0:0|0:0,0:0:0:0:
238,248,13185,1,0,0:0:0:0:
168,305,13351,2,0,P|148:266|151:221,1,75.5999976928712,2|0,0:0|0:0,0:0:0:0:
235,89,13683,2,0,P|255:128|252:173,1,75.5999976928712,2|0,0:0|0:0,0:0:0:0:
329,275,14014,6,0,P|377:291|460:226,1,151.199995385742,2|2,0:0|0:0,0:0:0:0:
494,157,14511,1,0,0:0:0:0:
463,71,14677,2,0,L|305:50,1,151.199995385742,2|2,0:0|0:0,0:0:0:0:
223,37,15174,1,0,0:0:0:0:
158,167,15340,6,0,L|184:345,1,151.199995385742,2|2,0:0|0:0,0:0:0:0:
266,342,15837,1,0,0:0:0:0:
266,342,16003,2,0,L|244:192,1,151.199995385742,2|2,0:0|0:0,0:0:0:0:
231,102,16500,1,0,0:0:0:0:
77,43,16666,6,0,B|45:131|45:131|67:184,1,151.199995385742,2|2,0:0|0:0,0:0:0:0:
115,261,17163,1,0,0:0:0:0:
191,212,17329,2,0,P|239:197|350:171,1,151.199995385742,2|2,0:0|0:0,0:0:0:0:
420,210,17826,1,0,0:0:0:0:
484,91,17992,6,0,P|435:81|383:65,1,75.5999976928712,2|0,0:0|0:0,0:0:0:0:
269,46,18324,2,0,P|306:38|342:29,1,75.5999976928712,2|0,0:0|0:0,0:0:0:0:
504,171,18655,2,0,P|420:157|342:127,1,151.199995385742,2|2,0:0|0:0,0:0:0:0:
310,205,19152,1,0,0:0:0:0:
358,325,19318,6,0,P|406:307|452:295,1,75.5999976928712,2|0,0:0|0:0,0:0:0:0:
264,281,19650,2,0,P|285:234|309:193,1,75.5999976928712,2|0,0:0|0:0,0:0:0:0:
162,269,19981,2,0,P|143:221|131:175,1,75.5999976928712,2|0,0:0|0:0,0:0:0:0:
117,363,20313,2,0,P|70:341|29:317,1,75.5999976928712,2|0,0:0|0:0,0:0:0:0:
0,222,20644,5,6,0:0:0:0:
162,269,20810,2,0,P|214:259|255:241,1,75.5999976928712,8|2,0:0|0:0,0:0:0:0:
59,162,21141,1,8,0:3:0:0:
59,162,21307,2,0,P|109:179|153:184,1,75.5999976928712,6|2,0:0|0:0,0:0:0:0:
328,130,21638,2,0,P|317:167|300:235,1,75.5999976928712,10|0,0:0|0:0,0:0:0:0:
247,352,21970,6,0,L|235:255,1,75.5999976928712,6|0,0:0|0:0,0:0:0:0:
399,323,22301,1,8,0:0:0:0:
443,229,22467,2,0,L|483:214,2,37.7999988464356,2|2|2,0:0|0:0|0:0,0:0:0:0:
327,220,22799,1,2,0:0:0:0:
491,98,22964,1,8,0:0:0:0:
478,215,23130,1,0,0:0:0:0:
372,147,23296,6,0,B|360:97|360:97|329:66|329:66|314:3,1,151.199995385742,2|8,0:0|0:0,0:0:0:0:
226,95,23793,1,0,3:0:0:0:
226,95,23876,2,0,L|222:142,1,37.7999988464356,2|2,0:0|0:0,0:0:0:0:
208,229,24125,1,2,0:0:0:0:
75,183,24290,2,0,B|102:158|102:158|145:162,1,75.5999976928712,8|0,0:0|0:0,0:0:0:0:
277,275,24622,6,0,L|107:246,1,151.199995385742,2|8,0:0|0:0,0:0:0:0:
16,336,25119,2,0,L|6:283,2,37.7999988464356,0|0|2,0:0|0:0|0:0,0:0:0:0:
123,262,25451,1,2,0:0:0:0:
59,153,25616,2,0,P|60:115|82:85,1,75.5999976928712,8|0,0:0|0:0,0:0:0:0:
298,47,25948,6,0,B|253:69|253:69|137:37,1,151.199995385742,2|8,0:0|0:0,0:0:0:0:
0,38,26445,1,0,3:0:0:0:
0,38,26528,2,0,L|8:87,1,37.7999988464356,2|2,0:0|0:0,0:0:0:0:
34,204,26777,1,2,0:0:0:0:
237,145,26942,2,0,L|137:113,1,75.5999976928712,8|0,0:0|0:0,0:0:0:0:
205,246,27274,6,0,P|254:246|247:165,1,151.199995385742,6|8,0:0|0:0,0:0:0:0:
111,226,27771,2,0,L|144:373,1,151.199995385742,0|2,3:0|0:0,0:0:0:0:
11,344,28268,2,0,P|24:306|34:266,1,75.5999976928712,8|0,0:0|0:0,0:0:0:0:
23,131,28600,5,2,0:0:0:0:
108,209,28766,1,0,0:0:0:0:
192,64,28931,2,0,L|103:46,1,75.5999976928712,8|0,0:0|3:0,0:0:0:0:
91,44,29180,1,2,0:0:0:0:
91,44,29263,1,2,0:0:0:0:
10,147,29429,1,2,0:0:0:0:
201,210,29594,2,0,P|226:164|206:120,1,75.5999976928712,8|0,0:0|0:0,0:0:0:0:
136,259,29926,6,0,P|231:238|314:237,1,151.199995385742,6|8,0:0|0:0,0:0:0:0:
388,358,30423,2,0,L|291:337,1,75.5999976928712,4|2,0:0|0:0,0:0:0:0:
447,243,30754,2,0,P|461:298|481:332,1,75.5999976928712,8|2,0:3|0:0,0:0:0:0:
366,207,31086,6,0,P|397:171|505:180,1,151.199995385742,6|8,0:0|0:0,0:0:0:0:
450,13,31583,1,2,0:0:0:0:
373,62,31749,1,2,0:0:0:0:
373,62,31832,1,2,0:0:0:0:
373,62,31915,1,2,0:0:0:0:
284,46,32080,1,8,0:3:0:0:
234,151,32246,2,0,P|191:143|155:137,1,75.5999976928712,8|0,0:0|0:0,0:0:0:0:
55,85,32578,6,0,P|69:140|86:224,1,117.599996411133,6|0,0:0|0:0,0:0:0:0:
137,355,33241,2,0,P|149:297|163:240,1,117.599996411133,8|0,0:0|0:0,0:0:0:0:
276,155,33904,6,0,P|347:151|385:201,1,117.599996411133,0|0,3:0|0:0,0:0:0:0:
432,288,34567,2,0,P|361:292|323:242,1,117.599996411133,8|0,0:0|0:0,0:0:0:0:
470,174,35230,2,0,L|486:93,1,58.7999982055665,2|0,0:0|0:0,0:0:0:0:
394,77,35561,5,0,3:0:0:0:
319,204,35727,2,0,L|330:262,1,58.7999982055665,2|8,0:0|0:0,0:0:0:0:
230,335,36058,1,0,3:0:0:0:
163,288,36224,1,0,3:0:0:0:
169,205,36390,2,0,B|191:148|191:148|126:61|24:117,1,235.199992822266,8|2,0:0|0:0,0:0:0:0:
94,22,37219,2,0,P|152:28|206:58,1,117.599996411133,8|0,0:0|0:0,0:0:0:0:
341,22,37882,6,0,P|327:91|320:143,1,117.599996411133,6|0,0:0|0:0,0:0:0:0:
462,255,38545,2,0,P|421:216|346:231,1,117.599996411133,8|0,0:0|0:0,0:0:0:0:
291,361,39208,6,0,B|271:286|271:286|293:240,1,117.599996411133,0|0,3:0|0:0,0:0:0:0:
123,227,39871,2,0,B|180:243|180:243|230:201,1,117.599996411133,8|0,0:0|0:0,0:0:0:0:
194,328,40534,2,0,L|124:307,1,58.7999982055665,2|0,0:0|0:0,0:0:0:0:
45,351,40865,5,0,3:0:0:0:
0,199,41031,2,0,L|70:178,1,58.7999982055665,2|8,0:0|0:0,0:0:0:0:
89,99,41362,1,0,3:0:0:0:
210,229,41528,1,0,3:0:0:0:
210,229,41694,6,0,P|161:259|107:234,1,117.599996411133,8|0,0:0|0:0,0:0:0:0:
247,154,42191,2,0,L|303:170,1,58.7999982055665,0|2,0:0|0:0,0:0:0:0:
338,37,42522,2,0,L|351:94,2,58.7999982055665,8|8|2,0:0|0:3|0:0,0:0:0:0:
494,10,43185,6,0,P|473:60|453:125,1,117.599996411133,6|0,0:0|0:0,0:0:0:0:
512,318,43848,2,0,P|494:261|472:207,1,117.599996411133,8|0,0:0|3:0,0:0:0:0:
286,130,44511,2,0,P|313:167|387:145,1,117.599996411133,0|0,3:0|0:0,0:0:0:0:
401,335,45174,2,0,P|363:293|309:307,1,117.599996411133,8|0,0:0|3:0,0:0:0:0:
187,355,45837,5,6,0:0:0:0:
184,331,46500,1,12,0:0:0:0:
180,307,47163,5,6,0:0:0:0:
221,135,47329,1,0,0:0:0:0:
294,272,47495,1,8,0:0:0:0:
99,199,47661,1,2,0:0:0:0:
224,50,47826,1,2,0:0:0:0:
330,90,47992,1,2,0:0:0:0:
347,87,48075,1,2,0:0:0:0:
364,84,48158,5,2,0:0:0:0:
347,125,48241,1,2,0:0:0:0:
354,168,48324,1,2,0:0:0:0:
387,195,48406,1,2,0:0:0:0:
427,206,48489,6,0,L|500:180,1,75.5999976928712,6|0,0:0|0:0,0:0:0:0:
427,364,48821,1,8,0:0:0:0:
319,307,48987,2,0,P|268:294|217:292,1,75.5999976928712,0|2,0:0|0:0,0:0:0:0:
158,212,49318,2,0,P|195:207|231:196,1,75.5999976928712,2|8,0:0|0:0,0:0:0:0:
345,67,49650,6,0,L|311:223,1,151.199995385742,0|0,3:0|0:0,0:0:0:0:
177,72,50147,1,8,0:0:0:0:
104,122,50313,1,2,0:0:0:0:
105,129,50395,1,2,0:0:0:0:
106,136,50478,1,2,0:0:0:0:
17,92,50644,1,2,0:0:0:0:
56,255,50810,2,0,L|151:237,1,75.5999976928712,8|0,0:0|0:0,0:0:0:0:
288,330,51141,6,0,P|213:348|195:283,1,151.199995385742,6|8,0:0|0:0,0:0:0:0:
304,195,51638,2,0,L|368:209,2,37.7999988464356,2|2|2,0:0|0:0|0:0,0:0:0:0:
164,167,51970,1,2,0:0:0:0:
299,46,52136,2,0,P|282:82|269:134,1,75.5999976928712,8|0,0:0|3:0,0:0:0:0:
84,163,52467,6,0,P|120:100|193:92,1,151.199995385742,6|8,0:0|0:0,0:0:0:0:
231,230,52964,1,0,3:0:0:0:
227,240,53047,1,2,0:0:0:0:
225,251,53130,2,0,L|126:232,1,75.5999976928712,2|2,0:0|0:0,0:0:0:0:
357,317,53462,2,0,P|319:334|286:332,1,75.5999976928712,8|0,0:0|0:0,0:0:0:0:
246,148,53793,6,0,L|417:183,1,151.199995385742,6|2,0:0|0:0,0:0:0:0:
512,47,54290,2,0,P|451:57|466:137,1,151.199995385742,6|2,0:0|0:0,0:0:0:0:
512,277,54788,6,0,L|363:307,1,151.199995385742,6|2,0:0|0:0,0:0:0:0:
204,340,55285,2,0,P|269:330|254:250,1,151.199995385742,6|2,0:0|0:0,0:0:0:0:
114,136,55782,6,0,L|131:217,1,75.5999976928712,8|2,0:0|0:0,0:0:0:0:
261,74,56114,2,0,L|246:148,1,75.5999976928712,0|2,3:0|0:0,0:0:0:0:
407,84,56445,1,0,3:0:0:0:
256,192,56528,12,2,57771,0:0:0:0:
325,275,58103,6,0,P|376:307|435:193,2,201.599993847656,4|4|4,3:2|3:2|3:2,0:0:0:0:
314,259,59097,6,0,L|209:281,1,92.4000028198243,6|0,0:0|0:0,0:0:0:0:
37,216,59429,1,8,0:0:0:0:
98,327,59594,1,0,3:0:0:0:
101,313,59677,1,2,0:0:0:0:
104,299,59760,1,2,0:0:0:0:
211,198,59926,1,0,0:0:0:0:
33,99,60092,2,0,L|48:201,1,92.4000028198243,8|0,0:0|3:0,0:0:0:0:
225,114,60423,6,0,L|238:22,1,92.4000028198243,2|0,0:0|0:0,0:0:0:0:
116,146,60754,1,8,0:0:0:0:
95,29,60920,2,0,L|147:21,2,46.2000014099122,0|2|2,3:0|0:0|0:0,0:0:0:0:
33,99,61252,1,2,0:0:0:0:
191,190,61417,2,0,P|240:197|294:145,1,92.4000028198243,8|0,0:0|3:0,0:0:0:0:
372,42,61749,5,2,0:0:0:0:
394,131,61915,1,0,0:0:0:0:
344,279,62080,1,8,0:0:0:0:
460,230,62246,2,0,L|414:220,2,46.2000014099122,0|2|2,3:0|0:0|0:0,0:0:0:0:
377,348,62578,2,0,P|333:359|294:336,1,92.4000028198243,2|8,0:0|0:0,0:0:0:0:
256,201,62909,1,0,3:0:0:0:
105,335,63075,6,0,P|169:352|175:251,1,184.800005639649,2|8,0:0|0:0,0:0:0:0:
23,168,63572,2,0,L|35:226,2,46.2000014099122,0|2|2,3:0|0:0|0:0,0:0:0:0:
189,156,63904,2,0,P|149:127|102:145,1,92.4000028198243,2|8,0:0|0:0,0:0:0:0:
47,287,64235,1,0,3:0:0:0:
267,235,64401,6,0,L|389:207,1,92.4000028198243,6|0,0:0|0:0,0:0:0:0:
163,315,64732,2,0,L|253:335,1,92.4000028198243,8|0,0:0|3:0,0:0:0:0:
423,364,65064,2,0,P|397:298|406:269,1,92.4000028198243,2|2,0:0|0:0,0:0:0:0:
488,149,65395,2,0,P|490:194|466:233,1,92.4000028198243,8|0,0:0|0:0,0:0:0:0:
261,121,65727,6,0,B|335:67|335:67|430:100,1,184.800005639649,2|8,0:0|0:0,0:0:0:0:
356,241,66224,1,0,3:0:0:0:
342,238,66307,1,2,0:0:0:0:
328,234,66390,1,2,0:0:0:0:
228,303,66556,1,2,0:0:0:0:
173,111,66721,2,0,P|163:58|152:12,1,92.4000028198243,8|0,0:0|0:0,0:0:0:0:
42,180,67053,6,0,P|99:208|164:118,1,184.800005639649,6|8,0:0|0:0,0:0:0:0:
218,257,67550,2,0,L|230:313,2,46.2000014099122,0|2|2,3:0|0:0|0:0,0:0:0:0:
292,195,67882,1,2,0:0:0:0:
123,321,68047,1,8,0:0:0:0:
284,362,68213,1,2,0:0:0:0:
293,360,68296,1,2,0:0:0:0:
302,358,68379,1,2,0:0:0:0:
302,358,68710,6,0,P|291:303|285:258,1,100.799996923828,6|0,0:0|0:0,0:0:0:0:
398,98,69042,1,8,0:0:0:0:
301,174,69208,1,2,0:0:0:0:
291,175,69290,1,2,0:0:0:0:
281,177,69373,5,8,0:0:0:0:
240,173,69456,1,2,0:0:0:0:
203,190,69539,1,2,0:0:0:0:
177,221,69622,1,2,0:0:0:0:
173,257,69705,6,0,P|112:249|70:247,1,92.4000028198243,6|0,0:0|0:0,0:0:0:0:
24,38,70036,1,8,0:0:0:0:
148,91,70202,1,0,3:0:0:0:
146,100,70285,1,2,0:0:0:0:
144,109,70368,1,2,0:0:0:0:
76,230,70534,1,2,0:0:0:0:
217,360,70699,2,0,P|208:314|203:268,1,92.4000028198243,8|0,0:0|3:0,0:0:0:0:
295,78,71031,5,2,0:0:0:0:
332,266,71196,1,0,0:0:0:0:
168,194,71362,1,8,0:0:0:0:
378,139,71528,2,0,L|436:126,2,46.2000014099122,0|2|2,3:0|0:0|0:0,0:0:0:0:
322,297,71859,1,2,0:0:0:0:
210,115,72025,2,0,P|152:100|113:95,1,92.4000028198243,8|0,0:0|3:0,0:0:0:0:
0,260,72357,6,0,P|58:245|97:240,1,92.4000028198243,6|0,0:0|0:0,0:0:0:0:
253,364,72688,1,8,0:0:0:0:
292,211,72854,1,0,3:0:0:0:
283,208,72937,1,2,0:0:0:0:
274,205,73020,1,2,0:0:0:0:
428,268,73185,2,0,P|372:278|324:292,1,92.4000028198243,2|8,0:0|0:0,0:0:0:0:
289,103,73517,1,0,3:0:0:0:
162,231,73683,6,0,P|178:284|186:335,1,92.4000028198243,6|0,0:0|0:0,0:0:0:0:
373,189,74014,2,2,P|351:240|338:289,1,92.4000028198243,8|2,0:0|0:0,0:0:0:0:
242,78,74346,2,0,L|271:208,2,123.200003759766,8|8|8,0:0|0:0|0:0,0:0:0:0:
14,226,75009,6,0,P|73:163|149:204,1,184.800005639649,6|8,0:0|0:0,0:0:0:0:
280,348,75506,1,0,3:0:0:0:
267,341,75589,1,2,0:0:0:0:
255,333,75672,2,0,P|241:265|235:233,1,92.4000028198243,2|2,0:0|0:0,0:0:0:0:
421,169,76003,1,8,0:0:0:0:
331,96,76169,1,0,3:0:0:0:
507,20,76335,6,0,P|493:76|486:119,1,92.4000028198243,6|0,0:0|0:0,0:0:0:0:
512,318,76666,1,8,0:0:0:0:
342,208,76832,2,0,L|417:184,2,46.2000014099122,0|2|2,3:0|0:0|0:0,0:0:0:0:
293,305,77163,1,2,0:0:0:0:
211,105,77329,2,0,P|260:98|314:146,1,92.4000028198243,8|0,0:0|3:0,0:0:0:0:
205,354,77661,5,12,0:0:0:0:
124,196,77826,1,2,0:0:0:0:
87,294,77991,1,2,0:0:0:0:
368,232,78158,5,8,0:0:0:0:
304,333,78323,1,2,0:0:0:0:
283,140,78488,1,2,0:0:0:0:
460,366,78655,5,12,0:0:0:0:
496,201,78821,1,2,0:0:0:0:
278,291,78987,1,2,0:0:0:0:
206,52,79152,5,8,0:0:0:0:
162,185,79318,1,2,0:0:0:0:
302,117,79484,1,2,0:0:0:0:
95,83,79650,5,6,0:0:0:0:
162,185,79815,1,2,0:0:0:0:
162,185,79898,1,2,0:0:0:0:
162,185,79981,2,0,P|220:163|258:172,1,92.4000028198243,2|2,0:0|0:0,0:0:0:0:
182,282,80313,6,0,P|134:218|35:266,2,184.800005639649,6|2|2,0:0|0:0|0:0,0:0:0:0:
254,350,81141,1,0,0:0:0:0:
341,306,81307,2,0,L|361:197,1,92.4000028198243,8|0,0:0|0:0,0:0:0:0:
391,87,81638,5,2,0:0:0:0:
266,206,81804,2,0,P|389:187|460:174,1,184.800005639649,8|0,0:0|0:0,0:0:0:0:
341,306,82301,2,0,P|274:291|212:285,1,92.4000028198243,6|0,0:0|0:0,0:0:0:0:
107,353,82633,1,8,0:0:0:0:
148,264,82799,1,0,0:0:0:0:
79,135,82964,5,6,0:0:0:0:
79,135,83130,1,2,0:0:0:0:
157,281,83296,1,8,0:0:0:0:
266,206,83462,1,2,0:0:0:0:
350,323,83627,2,0,P|362:273|378:226,1,92.4000028198243,2|2,0:0|0:0,0:0:0:0:
512,139,83959,2,0,L|406:159,1,92.4000028198243,8|0,0:0|0:0,0:0:0:0:
249,78,84290,6,0,P|304:87|353:100,1,92.4000028198243,2|6,0:0|0:0,0:0:0:0:
448,28,84622,1,2,0:0:0:0:
374,234,84788,1,8,0:0:0:0:
211,153,84953,2,0,P|165:160|120:170,1,92.4000028198243,6|8,0:0|0:0,0:0:0:0:
79,71,85285,1,8,0:3:0:0:
162,277,85451,1,2,0:0:0:0:
290,199,85616,5,6,0:0:0:0:
256,192,85699,12,8,88103,0:0:0:0:
