osu file format v14

[General]
AudioFilename: audio.mp3
AudioLeadIn: 0
PreviewTime: -1
Countdown: 1
SampleSet: None
StackLeniency: 0.7
Mode: 0
LetterboxInBreaks: 0
WidescreenStoryboard: 1

[Editor]
DistanceSpacing: 0.8
BeatDivisor: 4
GridSize: 4
TimelineZoom: 1.6

[Metadata]
Title:Fall to Light
TitleUnicode:Fall to Light
Artist:Laszlo
ArtistUnicode:Laszlo
Creator:ruyo
Version:dosha
Source:
Tags:HolyCan
BeatmapID:1117491
BeatmapSetID:510280

[Difficulty]
HPDrainRate:7
CircleSize:4
OverallDifficulty:8
ApproachRate:9.2
SliderMultiplier:1.20000000596047
SliderTickRate:1

[Events]
//Background and Video events
//Break Periods
2,25384,30098
//Storyboard Layer 0 (Background)
//Storyboard Layer 1 (Fail)
//Storyboard Layer 2 (Pass)
//Storyboard Layer 3 (Foreground)
//Storyboard Sound Samples

[TimingPoints]
506,342.759211653813,4,1,0,100,1,0

[HitObjects]
256,160,14216,5,0,2:2:0:0:
192,128,16958,6,0,L|180:60,2,60.0000002980235,0|0|0,2:0|2:0|2:0,2:0:0:0:
320,144,17643,2,0,L|336:72,2,60.0000002980235,0|0|0,2:0|2:0|2:0,2:0:0:0:
184,280,18329,2,0,L|168:212,2,60.0000002980235,0|0|0,2:0|2:0|2:0,2:0:0:0:
336,304,19014,2,0,L|352:240,2,60.0000002980235,0|0|0,2:0|2:0|2:0,2:0:0:0:
112,83,19700,5,0,2:0:0:0:
158,95,19871,1,0,2:0:0:0:
206,111,20043,1,0,2:0:0:0:
381,151,20386,1,0,2:0:0:0:
332,169,20557,1,0,2:0:0:0:
286,188,20728,1,0,2:0:0:0:
128,240,21071,5,0,2:0:0:0:
177,268,21242,1,0,2:0:0:0:
221,297,21414,1,0,2:0:0:0:
404,267,21757,1,0,2:0:0:0:
359,297,21929,1,0,2:0:0:0:
315,324,22100,1,0,2:0:0:0:
358,112,22442,5,0,0:0:0:0:
358,112,22785,1,0,0:0:0:0:
358,112,23128,1,0,0:0:0:0:
358,112,23470,1,0,0:0:0:0:
347,125,23814,5,0,0:0:0:0:
334,145,23899,1,0,0:0:0:0:
319,166,23985,1,0,0:0:0:0:
308,181,24071,1,0,0:0:0:0:
297,195,24157,1,0,0:0:0:0:
224,304,24327,5,0,0:0:0:0:
128,224,24499,1,0,0:0:0:0:
272,96,24670,1,0,0:0:0:0:
356,296,24841,1,0,0:0:0:0:
88,248,25013,1,0,0:0:0:0:
468,112,25184,1,8,3:0:0:0:
172,120,30668,5,0,0:0:0:0:
324,128,31011,1,0,0:0:0:0:
144,280,31354,1,0,0:0:0:0:
339,300,31697,1,0,0:0:0:0:
188,168,32039,5,0,0:0:0:0:
288,116,32211,1,0,0:0:0:0:
288,228,32382,1,0,0:0:0:0:
220,100,32553,1,0,0:0:0:0:
380,176,32725,1,0,0:0:0:0:
188,264,32896,1,0,0:0:0:0:
280,60,33068,1,0,0:0:0:0:
392,284,33239,1,0,0:0:0:0:
152,116,33410,5,0,0:0:0:0:
155,132,33496,1,0,0:0:0:0:
159,150,33582,1,0,0:0:0:0:
162,167,33667,1,0,0:0:0:0:
166,181,33753,1,0,0:0:0:0:
169,194,33839,1,0,0:0:0:0:
173,210,33925,1,0,0:0:0:0:
176,223,34010,1,0,0:0:0:0:
180,234,34096,5,0,0:0:0:0:
205,250,34182,1,0,0:0:0:0:
257,268,34267,1,0,0:0:0:0:
313,268,34353,1,0,0:0:0:0:
373,247,34439,1,0,0:0:0:0:
428,209,34524,1,0,0:0:0:0:
470,145,34610,1,0,0:0:0:0:
256,192,34781,12,0,35810,0:0:0:0:
296,227,36152,5,0,0:0:0:0:
296,227,36238,1,0,0:0:0:0:
296,227,36324,1,0,0:0:0:0:
296,227,36410,1,0,0:0:0:0:
296,227,36495,1,0,0:0:0:0:
334,132,36667,1,0,0:0:0:0:
203,128,36838,1,0,0:0:0:0:
242,288,37009,1,0,0:0:0:0:
409,144,37181,1,0,0:0:0:0:
211,60,37352,1,0,0:0:0:0:
416,166,37695,5,0,0:0:0:0:
165,92,37866,1,0,0:0:0:0:
416,189,38209,5,0,0:0:0:0:
133,106,38380,1,0,0:0:0:0:
174,251,38895,5,0,0:0:0:0:
273,73,39066,1,0,0:0:0:0:
309,271,39237,1,0,0:0:0:0:
273,73,39409,1,0,0:0:0:0:
174,251,39580,1,0,0:0:0:0:
305,302,39751,5,0,0:0:0:0:
120,121,39923,1,0,0:0:0:0:
379,98,40094,1,0,0:0:0:0:
224,293,40266,6,0,L|186:334,4,30.0000001490118
162,199,40780,1,0,0:0:0:0:
75,271,40951,1,0,0:0:0:0:
135,112,41122,1,0,0:0:0:0:
247,250,41294,1,0,0:0:0:0:
321,47,41465,1,0,0:0:0:0:
365,131,41637,5,0,0:0:0:0:
370,157,41722,1,0,0:0:0:0:
376,189,41808,1,0,0:0:0:0:
383,213,41894,1,0,0:0:0:0:
387,235,41979,1,0,0:0:0:0:
406,326,42151,5,0,0:0:0:0:
297,198,42322,1,0,0:0:0:0:
218,326,42494,1,0,0:0:0:0:
156,121,42665,1,0,0:0:0:0:
371,153,42836,1,0,0:0:0:0:
144,140,43179,5,0,0:0:0:0:
362,139,43350,1,0,0:0:0:0:
111,187,43693,5,0,0:0:0:0:
418,110,43865,1,0,0:0:0:0:
127,151,44379,5,0,0:0:0:0:
324,96,44550,1,0,0:0:0:0:
272,269,44721,1,0,0:0:0:0:
210,81,44893,1,0,0:0:0:0:
142,287,45064,1,0,0:0:0:0:
415,217,45236,1,0,0:0:0:0:
233,166,45407,1,0,0:0:0:0:
276,346,45578,1,0,0:0:0:0:
362,126,45750,2,0,L|380:84,4,30.0000001490118
325,227,46264,5,0,0:0:0:0:
251,88,46435,1,0,0:0:0:0:
232,245,46607,1,0,0:0:0:0:
142,88,46778,1,0,0:0:0:0:
142,297,46949,1,0,0:0:0:0:
82,236,47121,5,0,0:0:0:0:
75,195,47206,1,0,0:0:0:0:
80,161,47292,1,0,0:0:0:0:
92,124,47378,1,0,0:0:0:0:
115,95,47464,1,0,0:0:0:0:
188,46,47635,5,0,0:0:0:0:
348,158,47806,1,0,0:0:0:0:
165,193,47978,1,0,0:0:0:0:
327,43,48149,1,0,0:0:0:0:
286,240,48320,1,0,0:0:0:0:
139,68,48492,2,0,L|121:44,4,30.0000001490118
213,207,49006,5,0,0:0:0:0:
327,77,49177,1,0,0:0:0:0:
366,302,49349,1,0,0:0:0:0:
327,77,49520,1,0,0:0:0:0:
233,281,49691,1,0,0:0:0:0:
410,204,49863,5,0,0:0:0:0:
196,287,50034,1,0,0:0:0:0:
236,117,50206,1,0,0:0:0:0:
321,303,50377,1,0,0:0:0:0:
353,94,50548,1,0,0:0:0:0:
175,163,50720,1,0,0:0:0:0:
428,213,50891,1,0,0:0:0:0:
225,288,51062,1,0,0:0:0:0:
253,82,51234,6,0,L|269:40,4,30.0000001490118
429,167,51748,5,0,0:0:0:0:
238,236,51919,1,0,0:0:0:0:
323,97,52091,1,0,0:0:0:0:
358,307,52262,1,0,0:0:0:0:
114,253,52434,1,0,0:0:0:0:
112,166,52605,5,0,0:0:0:0:
125,134,52691,1,0,0:0:0:0:
145,109,52776,1,0,0:0:0:0:
172,85,52862,1,0,0:0:0:0:
203,71,52948,1,0,0:0:0:0:
288,59,53119,5,0,0:0:0:0:
251,268,53290,1,0,0:0:0:0:
428,194,53462,1,0,0:0:0:0:
219,135,53633,1,0,0:0:0:0:
411,93,53805,2,0,L|446:68,4,30.0000001490118
318,259,54319,5,0,0:0:0:0:
169,115,54490,1,0,0:0:0:0:
374,85,54661,1,0,0:0:0:0:
204,240,54833,1,0,0:0:0:0:
409,193,55004,1,0,0:0:0:0:
260,60,55176,1,0,0:0:0:0:
376,292,55347,5,0,0:0:0:0:
180,131,55518,1,0,0:0:0:0:
394,94,55690,1,0,0:0:0:0:
235,258,55861,1,0,0:0:0:0:
463,194,56032,1,0,0:0:0:0:
275,57,56204,1,0,0:0:0:0:
205,257,56375,1,0,0:0:0:0:
332,171,56547,1,0,0:0:0:0:
354,294,56718,2,0,L|363:332,4,30.0000001490118
242,253,57232,5,0,0:0:0:0:
200,223,57318,1,0,0:0:0:0:
162,195,57404,1,0,0:0:0:0:
87,146,57575,1,0,0:0:0:0:
215,47,57746,1,0,0:0:0:0:
310,194,57918,1,0,0:0:0:0:
386,99,58089,6,0,P|388:67|399:107,1,120.000000596047
355,106,58517,1,0,0:0:0:0:
316,117,58603,1,0,0:0:0:0:
276,129,58689,1,0,0:0:0:0:
236,141,58775,1,0,0:0:0:0:
137,176,58946,5,0,0:0:0:0:
319,315,59117,1,0,0:0:0:0:
112,325,59289,1,0,0:0:0:0:
317,181,59460,2,0,L|351:160,4,30.0000001490118
225,91,59974,5,0,0:0:0:0:
118,255,60146,1,0,0:0:0:0:
295,213,60317,1,0,0:0:0:0:
110,134,60488,1,0,0:0:0:0:
226,277,60660,1,0,0:0:0:0:
254,75,60831,5,0,0:0:0:0:
303,84,60917,1,0,0:0:0:0:
346,111,61003,1,0,0:0:0:0:
419,172,61174,1,0,0:0:0:0:
334,193,61345,5,0,0:0:0:0:
286,217,61431,1,0,0:0:0:0:
241,246,61517,1,0,0:0:0:0:
146,305,61688,1,0,0:0:0:0:
110,217,61859,5,0,0:0:0:0:
117,173,61945,1,0,0:0:0:0:
134,126,62031,1,0,0:0:0:0:
159,91,62116,1,0,0:0:0:0:
188,60,62202,1,0,0:0:0:0:
432,120,62374,6,0,L|462:102,4,30.0000001490118
416,248,62888,1,0,0:0:0:0:
308,132,63059,1,0,0:0:0:0:
276,272,63230,1,0,0:0:0:0:
180,136,63402,1,0,0:0:0:0:
112,272,63573,5,0,0:0:0:0:
112,272,63659,1,0,0:0:0:0:
112,272,63745,1,0,0:0:0:0:
112,272,63830,1,0,0:0:0:0:
112,272,63916,1,0,0:0:0:0:
256,296,64087,1,0,0:0:0:0:
208,176,64259,1,0,0:0:0:0:
100,320,64430,1,0,0:0:0:0:
316,296,64601,1,0,0:0:0:0:
164,144,64773,1,0,0:0:0:0:
164,144,65116,6,0,L|234:111,1,60.0000002980235
218,118,65458,1,0,0:0:0:0:
218,118,65630,2,0,L|292:144,1,60.0000002980235
274,138,65973,1,0,0:0:0:0:
172,188,66315,5,0,0:0:0:0:
271,96,66487,1,0,0:0:0:0:
347,238,66658,1,0,0:0:0:0:
143,257,66829,1,0,0:0:0:0:
201,64,67001,1,0,0:0:0:0:
402,164,67172,1,0,0:0:0:0:
237,312,67344,1,0,0:0:0:0:
85,56,67515,1,0,0:0:0:0:
