osu file format v14

[General]
AudioFilename: Fake Out.mp3
AudioLeadIn: 0
PreviewTime: 54042
Countdown: 0
SampleSet: Normal
StackLeniency: 0.7
Mode: 0
LetterboxInBreaks: 0
WidescreenStoryboard: 0

[Editor]
DistanceSpacing: 1
BeatDivisor: 4
GridSize: 4
TimelineZoom: 4.199998

[Metadata]
Title:Fake out
TitleUnicode:フェイクアウト
Artist:Last Note. feat.mirin
ArtistUnicode:Last Note. feat.mirin
Creator:Kyubey
Version:True
Source:beatmania IIDX
Tags:22 pendual ryuu alacat seikatu rock bemani konami EXIT TUNES
BeatmapID:714190
BeatmapSetID:321002

[Difficulty]
HPDrainRate:7
CircleSize:4
OverallDifficulty:9
ApproachRate:9.5
SliderMultiplier:2
SliderTickRate:1

[Events]
//Background and Video events
0,0,"BACKactuallyGROUND.jpg",0,0
//Break Periods
//Storyboard Layer 0 (Background)
//Storyboard Layer 1 (Fail)
//Storyboard Layer 2 (Pass)
//Storyboard Layer 3 (Foreground)
//Storyboard Sound Samples

[TimingPoints]
594,279.06976744186,4,2,1,30,1,0
594,-166.666666666667,4,2,1,30,0,0
8966,-200,4,1,0,50,0,0
9524,-100,4,1,1,75,0,0
27384,-125,4,2,1,60,0,0
29338,-100,4,1,1,80,0,0
29617,-125,4,2,1,60,0,0
31570,-100,4,1,1,80,0,0
31849,-125,4,2,1,60,0,0
33803,-100,4,1,1,80,0,0
34082,-111.111111111111,4,1,1,65,0,0
45245,-125,4,1,1,60,0,0
53198,-142.857142857143,4,1,5,50,0,0
53477,-142.857142857143,4,1,5,5,0,0
53547,-142.857142857143,4,1,5,50,0,0
53756,-142.857142857143,4,1,5,5,0,0
53826,-142.857142857143,4,1,5,50,0,0
54175,-90.9090909090909,4,1,1,80,0,1
62407,-90.9090909090909,4,1,1,80,0,0
63105,-90.9090909090909,4,1,1,80,0,1
71966,-90.9090909090909,4,1,1,80,0,0
72035,-90.9090909090909,4,1,1,80,0,1
75384,-90.9090909090909,4,1,1,80,0,0
76500,-100,4,1,1,75,0,1
76570,-100,4,1,1,75,0,0
98268,-90.9090909090909,4,1,1,5,0,0
98547,-90.9090909090909,4,1,1,50,0,0

[Colours]
Combo1 : 247,243,98
Combo2 : 255,98,98
Combo3 : 150,213,32
Combo4 : 254,107,37

[HitObjects]
428,40,594,6,0,B|448:96|448:96|432:156,1,119.999996337891,0|0,3:0|0:0,0:0:0:0:
312,176,1152,2,0,P|252:164|196:176,1,119.999996337891,8|2,0:0|0:0,0:0:0:0:
116,156,1570,2,0,L|88:92,2,59.9999981689454,0|0|0,3:0|0:0|3:0,0:0:0:0:
140,236,1989,2,0,P|160:300|148:352,1,119.999996337891,0|8,3:0|0:0,0:0:0:0:
56,220,2547,1,0,3:0:0:0:
216,204,2826,6,0,L|340:216,1,119.999996337891,0|0,3:0|0:0,0:0:0:0:
428,140,3384,2,0,P|444:76|420:20,1,119.999996337891,8|2,0:0|0:0,0:0:0:0:
340,28,3803,2,0,L|364:84,2,59.9999981689454,0|0|0,3:0|0:0|3:0,0:0:0:0:
265,68,4221,2,0,P|209:80|145:68,1,119.999996337891,0|8,3:0|0:0,0:0:0:0:
20,0,4780,1,0,3:0:0:0:
20,144,5059,6,0,L|32:272,1,119.999996337891,0|0,3:0|0:0,0:0:0:0:
140,320,5617,2,0,B|200:308|200:308|260:320,1,119.999996337891,8|2,0:0|0:0,0:0:0:0:
312,256,6035,2,0,L|228:240,2,59.9999981689454,0|0|0,3:0|0:0|3:0,0:0:0:0:
340,336,6454,2,0,P|400:348|460:336,1,119.999996337891,0|8,3:0|0:0,0:0:0:0:
496,196,7012,1,0,3:0:0:0:
360,116,7291,6,0,L|280:100,2,59.9999981689454,8|0|2,0:0|3:0|3:2,0:0:0:0:
437,207,7710,1,8,0:0:0:0:
437,207,7849,2,0,L|517:191,2,59.9999981689454,0|2|8,3:0|3:2|0:0,0:0:0:0:
284,272,8407,5,2,0:0:0:0:
236,204,8547,1,8,0:0:0:0:
200,280,8687,1,2,0:0:0:0:
196,292,8756,1,0,0:0:0:0:
192,304,8826,1,2,0:0:0:0:
188,316,8896,1,2,0:0:0:0:
184,328,8966,6,8,L|124:312,1,50,0|0,1:0|2:2,2:0:0:0:
76,264,9245,2,0,L|124:276,1,50,0|0,1:3|2:0,2:0:0:0:
236,204,9524,6,0,P|280:116|204:32,1,200,4|8,0:0|0:0,0:0:0:0:
192,124,9942,1,0,0:0:0:0:
387,105,10082,2,0,L|499:93,1,100
336,32,10361,1,8,0:0:0:0:
376,184,10500,1,0,0:0:0:0:
280,300,10640,6,0,P|184:296|132:204,1,200,0|8,0:0|0:0,0:0:0:0:
192,124,11059,1,0,0:0:0:0:
376,184,11198,1,2,0:0:0:0:
236,204,11338,1,0,0:0:0:0:
264,60,11477,2,0,P|224:32|152:36,1,100,10|8,0:0|0:0,0:0:0:0:
376,184,11756,5,4,0:0:0:0:
424,32,11896,1,0,0:0:0:0:
424,32,11966,1,0,0:0:0:0:
424,32,12035,1,8,0:0:0:0:
356,204,12175,2,0,L|376:308,1,100
160,300,12454,1,0,0:0:0:0:
256,220,12593,2,0,L|237:121,1,100,8|0,0:0|0:0,0:0:0:0:
160,300,12873,6,0,P|208:312|272:292,1,100
236,120,13152,1,8,0:0:0:0:
88,248,13291,1,0,0:1:0:0:
88,248,13361,1,0,0:1:0:0:
88,248,13431,1,10,0:0:0:0:
44,116,13570,1,0,0:0:0:0:
80,332,13710,1,10,3:1:0:0:
104,336,13780,1,8,3:1:0:0:
128,340,13849,1,8,3:1:0:0:
152,344,13919,1,8,3:1:0:0:
176,348,13989,6,0,P|260:304|256:208,1,200,4|8,0:0|0:0,0:0:0:0:
164,148,14407,1,0,0:0:0:0:
336,76,14547,2,0,L|464:92,1,100
304,188,14826,1,8,0:0:0:0:
280,20,14966,1,0,0:0:0:0:
435,88,15105,6,0,B|468:152|448:232|448:232|388:212,1,200,0|8,0:0|0:0,0:0:0:0:
336,76,15524,1,0,0:0:0:0:
332,284,15663,2,0,P|340:340|372:396,1,100,2|0,0:0|0:0,0:0:0:0:
398,215,15942,1,10,0:0:0:0:
212,268,16082,1,8,0:0:0:0:
398,215,16221,5,4,0:0:0:0:
336,76,16361,1,0,0:0:0:0:
336,76,16431,1,0,0:0:0:0:
336,76,16500,1,8,0:0:0:0:
384,244,16640,1,0,0:0:0:0:
240,192,16780,2,0,P|196:188|144:224,1,100
368,272,17059,1,10,0:0:0:0:
480,160,17198,1,0,0:0:0:0:
252,104,17338,6,0,P|200:100|148:76,1,100,10|0,0:0|0:0,0:0:0:0:
336,76,17617,1,8,0:0:0:0:
272,288,17756,1,8,0:0:0:0:
149,216,17896,2,0,L|48:204,1,100,10|0,0:0|0:0,0:0:0:0:
152,352,18175,1,8,0:0:0:0:
196,368,18245,1,8,0:0:0:0:
240,372,18314,1,8,0:0:0:0:
284,368,18384,1,8,0:0:0:0:
328,352,18454,6,0,B|368:312|448:320|448:320|448:272|432:240,1,200,4|8,0:0|0:0,0:0:0:0:
410,144,18873,1,0,0:0:0:0:
240,192,19012,2,0,P|296:200|348:188,1,100
176,84,19291,1,8,0:0:0:0:
140,240,19431,1,0,0:0:0:0:
320,276,19570,6,0,P|412:232|404:136,1,200,0|8,0:0|0:0,0:0:0:0:
336,76,19989,1,0,0:0:0:0:
320,276,20128,2,0,L|340:384,1,100,2|0,0:0|0:0,0:0:0:0:
472,312,20407,1,10,0:0:0:0:
334,188,20547,1,8,0:0:0:0:
184,248,20687,6,0,L|204:356,1,100,4|0,0:0|0:0,0:0:0:0:
202,346,20896,1,0,0:0:0:0:
202,346,20966,1,8,0:0:0:0:
240,168,21105,2,0,L|221:69,1,100
148,160,21384,1,0,0:0:0:0:
336,76,21524,2,0,L|354:174,1,100,8|0,0:0|0:0,0:0:0:0:
320,364,21803,6,0,P|292:324|288:260,1,100
403,279,22082,1,8,0:0:0:0:
320,364,22221,1,0,0:0:0:0:
320,364,22291,1,0,0:0:0:0:
320,364,22361,1,10,0:0:0:0:
112,240,22500,1,0,0:0:0:0:
164,352,22640,1,10,3:1:0:0:
187,343,22710,1,8,3:1:0:0:
206,327,22780,1,8,3:1:0:0:
220,307,22849,1,8,3:1:0:0:
228,284,22919,6,0,B|200:200|256:156|256:156|268:192|256:224,1,200,4|8,0:0|0:0,0:0:0:0:
112,240,23338,1,0,0:0:0:0:
204,96,23477,2,0,P|256:76|316:104,1,100
428,188,23756,1,8,0:0:0:0:
408,40,23896,1,0,0:0:0:0:
348,248,24035,6,0,B|348:328|404:376|404:376|448:300,1,200,0|8,0:0|0:0,0:0:0:0:
428,188,24454,1,0,0:0:0:0:
241,256,24593,2,0,P|192:268|143:268,1,100,2|0,0:0|0:0,0:0:0:0:
204,96,24873,1,10,0:0:0:0:
348,248,25012,1,8,0:0:0:0:
408,40,25152,5,4,0:0:0:0:
428,188,25291,1,0,0:0:0:0:
424,208,25361,1,0,0:0:0:0:
420,228,25431,1,8,0:0:0:0:
244,256,25570,1,0,0:0:0:0:
363,133,25710,2,0,P|411:105|483:121,1,100
300,328,25989,2,0,L|168:336,1,100,10|0,0:0|0:0,0:0:0:0:
84,224,26268,6,0,B|36:160|84:104|84:104|116:120,1,150,10|0,0:0|2:0,0:0:0:0:
134,135,26547,1,8,0:0:0:0:
308,152,26687,1,8,0:0:0:0:
336,144,26756,1,8,0:0:0:0:
363,133,26826,1,10,0:0:0:0:
288,28,26966,1,8,0:0:0:0:
244,216,27105,1,8,0:0:0:0:
236,256,27175,1,8,0:0:0:0:
228,296,27245,1,8,0:0:0:0:
220,336,27314,1,8,0:0:0:0:
212,376,27384,6,0,P|176:364|104:372,1,80,4|0,1:0|1:0,0:0:0:0:
48,368,27663,2,0,L|32:192,1,160,0|2,0:0|2:0,0:0:0:0:
64,108,28082,1,0,3:0:0:0:
132,188,28221,2,0,P|171:188|216:180,1,80,8|0,0:1|0:0,0:0:0:0:
300,132,28500,5,0,3:0:0:0:
384,104,28640,1,0,3:0:0:0:
316,44,28780,2,0,P|272:48|236:72,1,80,8|0,0:1|3:0,0:0:0:0:
368,196,29059,2,0,P|412:192|448:168,1,80,2|0,0:0|1:0,0:0:0:0:
500,256,29338,6,0,L|480:368,1,100
352,376,29617,5,0,1:0:0:0:
352,376,29756,1,0,1:0:0:0:
264,324,29896,2,0,P|196:312|116:368,1,160,8|2,0:1|0:0,0:0:0:0:
176,272,30314,1,0,3:0:0:0:
228,184,30454,2,0,P|232:136|216:96,1,80,8|0,0:1|0:0,0:0:0:0:
73,143,30733,5,0,3:0:0:0:
156,148,30873,1,0,3:0:0:0:
148,64,31012,2,0,L|48:60,1,80,8|0,0:1|3:0,0:0:0:0:
76,240,31291,2,0,L|176:232,1,80,2|0,0:0|1:0,0:0:0:0:
208,332,31570,6,0,L|316:312,1,100
424,240,31849,6,0,P|408:196|416:140,1,80,0|0,1:0|1:0,0:0:0:0:
488,116,32128,2,0,B|440:124|440:124|312:100,1,160,8|2,0:1|0:0,0:0:0:0:
240,136,32547,1,0,3:0:0:0:
240,136,32687,2,0,L|132:128,1,80,8|0,0:1|0:0,0:0:0:0:
104,208,32966,5,0,3:0:0:0:
176,272,33105,1,0,3:0:0:0:
272,256,33245,2,0,P|304:228|316:172,1,80,8|0,0:1|3:0,0:0:0:0:
368,280,33524,2,0,L|392:372,1,80,2|0,0:0|1:0,0:0:0:0:
460,264,33803,6,0,L|480:140,1,100
379,72,34082,6,0,B|288:56|288:56|200:72,1,179.999994506836,2|0,0:0|0:0,0:0:0:0:
116,152,34500,2,0,B|207:168|207:168|295:152,1,179.999994506836,2|0,0:0|0:0,0:0:0:0:
404,184,34919,2,0,L|380:296,1,89.9999972534181,2|0,0:0|0:0,0:0:0:0:
288,244,35198,5,0,0:0:0:0:
252,340,35338,1,2,0:0:0:0:
295,221,35477,1,0,0:0:0:0:
168,238,35617,1,0,0:0:0:0:
378,265,35756,2,0,P|374:178|306:122,1,179.999994506836,2|8,0:0|3:1,0:0:0:0:
276,132,36105,1,8,3:1:0:0:
244,140,36175,1,8,3:1:0:0:
212,140,36245,1,8,3:1:0:0:
180,132,36314,6,0,P|120:144|64:240,1,179.999994506836,4|8,0:0|0:0,0:0:0:0:
124,328,36733,1,0,0:0:0:0:
124,328,36873,2,0,B|188:316|188:316|256:328,1,134.999995880127,0|0,0:0|2:0,0:0:0:0:
296,336,37152,1,8,0:0:0:0:
348,220,37291,1,0,0:0:0:0:
348,220,37431,6,0,L|324:124,1,89.9999972534181
440,164,37710,2,0,L|461:251,1,89.9999972534181,8|0,0:0|0:0,0:0:0:0:
436,372,37989,1,0,0:0:0:0:
328,344,38128,1,0,0:0:0:0:
328,344,38198,1,0,0:0:0:0:
328,344,38268,1,8,0:0:0:0:
220,372,38407,1,8,0:0:0:0:
120,304,38547,6,0,P|32:304|20:384,1,179.999994506836,4|8,0:0|0:0,0:0:0:0:
140,384,38966,1,0,0:0:0:0:
204,288,39105,2,0,P|220:220|204:156,1,134.999995880127,0|0,0:0|2:0,0:0:0:0:
180,120,39384,1,8,0:0:0:0:
296,96,39524,1,0,0:0:0:0:
411,129,39663,6,0,P|453:84|367:9,1,179.999994506836,0|8,0:0|0:0,0:0:0:0:
228,44,40082,1,0,0:0:0:0:
232,176,40221,1,0,0:0:0:0:
344,196,40361,1,0,0:0:0:0:
344,196,40431,1,0,0:0:0:0:
344,196,40500,1,8,0:0:0:0:
268,280,40640,1,8,0:0:0:0:
156,264,40780,6,0,B|112:228|116:164|116:164|80:160|36:208,1,179.999994506836,4|8,0:0|0:0,0:0:0:0:
48,296,41198,1,0,0:0:0:0:
128,372,41338,2,0,P|216:352|304:376,1,179.999994506836,0|8,0:0|0:0,0:0:0:0:
404,308,41756,1,0,0:0:0:0:
440,184,41896,6,0,L|456:76,1,89.9999972534181
348,160,42175,1,8,0:0:0:0:
348,160,42314,1,0,0:0:0:0:
264,200,42454,2,0,P|216:204|160:192,1,89.9999972534181
132,108,42733,2,0,P|180:104|236:116,1,89.9999972534181,8|8,0:0|0:0,0:0:0:0:
384,80,43012,5,10,0:0:0:0:
328,8,43152,1,0,0:0:0:0:
292,92,43291,1,8,0:0:0:0:
456,200,43431,2,0,L|480:84,1,89.9999972534181,10|0,0:0|0:0,0:0:0:0:
348,160,43710,1,8,0:0:0:0:
400,312,43849,1,10,0:0:0:0:
400,312,44128,5,8,0:0:0:0:
308,272,44268,1,2,0:0:0:0:
120,376,44407,1,8,0:0:0:0:
216,231,44547,1,0,0:0:0:0:
205,316,44687,1,10,0:0:0:0:
120,164,44826,1,0,0:0:0:0:
131,264,44966,5,8,0:0:0:0:
160,300,45035,1,8,0:0:0:0:
204,316,45105,1,8,0:0:0:0:
248,312,45175,1,8,0:0:0:0:
284,288,45245,6,0,P|300:208|248:144,1,160,2|0,0:0|0:0,0:0:0:0:
212,80,45663,1,0,0:0:0:0:
272,24,45803,2,0,P|312:20|368:32,1,80,8|0,0:0|0:0,0:0:0:0:
456,32,46082,1,0,0:0:0:0:
456,32,46221,2,0,B|468:112|468:112|428:200,1,160,2|0,0:0|0:0,0:0:0:0:
362,285,46640,6,0,P|322:293|266:281,1,80
278,143,46919,2,0,P|304:173|322:228,1,80,8|0,0:0|0:0,0:0:0:0:
196,288,47198,2,0,P|209:249|247:206,1,80
244,364,47477,6,0,B|188:388|132:352|132:352|80:368,1,160,2|0,0:0|0:0,0:0:0:0:
0,384,47896,1,0,0:0:0:0:
32,292,48035,2,0,P|44:256|44:204,1,80,8|0,0:0|0:0,0:0:0:0:
24,112,48314,1,0,0:0:0:0:
24,112,48454,2,0,L|192:104,1,160,2|0,0:0|0:0,0:0:0:0:
324,128,48873,6,0,P|340:92|336:48,1,80
248,162,49152,2,0,P|271:193|311:212,1,80,8|0,0:0|0:0,0:0:0:0:
256,78,49431,2,0,P|216:82|180:107,1,80
184,236,49710,6,0,P|196:312|136:376,1,160,2|0,0:0|0:0,0:0:0:0:
109,286,50128,1,0,0:0:0:0:
108,200,50268,2,0,L|124:88,1,80,8|0,0:0|0:0,0:0:0:0:
216,32,50547,1,0,0:0:0:0:
216,32,50687,6,0,L|256:212,1,160,2|0,0:0|0:0,0:0:0:0:
288,284,51105,1,0,0:0:0:0:
372,344,51245,2,0,L|456:320,1,80,0|8,0:0|0:0,0:0:0:0:
288,284,51524,2,0,L|211:305,1,80
128,372,51803,1,0,0:0:0:0:
120,228,51942,6,0,L|100:32,1,160,4|8,0:2|0:0,0:0:0:0:
228,108,52361,1,8,0:0:0:0:
356,167,52500,1,8,0:0:0:0:
216,216,52640,1,8,0:0:0:0:
300,48,52779,1,8,0:0:0:0:
480,224,52919,5,2,0:0:0:0:
480,224,53268,6,0,P|468:272|492:336,1,104.999996795654,0|0,2:0|2:0,0:0:0:0:
392,308,53547,6,0,P|356:273|289:262,1,104.999996795654,0|0,2:0|2:0,0:0:0:0:
360,192,53826,6,0,P|407:178|450:125,1,104.999996795654,0|0,2:0|0:0,0:0:0:0:
204,44,54175,6,0,P|96:28|0:108,1,220.000006713867,4|8,0:0|0:0,0:0:0:0:
184,304,54593,1,0,0:0:0:0:
128,140,54733,1,0,0:0:0:0:
16,272,54873,1,0,0:0:0:0:
184,344,55012,1,8,0:0:0:0:
356,208,55152,6,0,P|368:148|236:100,1,220.000006713867
245,93,55500,1,0,0:0:0:0:
245,93,55570,1,8,0:0:0:0:
436,52,55710,1,0,0:0:0:0:
288,164,55849,2,0,P|235:172|176:140,1,110.000003356934
328,8,56128,1,8,0:0:0:0:
356,208,56268,1,8,0:0:0:0:
360,248,56338,1,0,0:0:0:0:
364,284,56407,5,12,0:0:0:0:
504,188,56547,1,0,0:0:0:0:
360,126,56687,1,8,0:0:0:0:
284,332,56826,2,0,P|328:369|400:372,1,110.000003356934
200,236,57105,1,0,0:0:0:0:
164,352,57245,1,8,0:0:0:0:
264,184,57384,6,0,B|288:100|247:37|247:37|184:76,1,220.000006713867
190,72,57733,1,0,0:0:0:0:
190,72,57803,1,8,0:0:0:0:
164,352,57942,1,0,0:0:0:0:
328,248,58082,1,0,0:0:0:0:
156,160,58221,1,0,0:0:0:0:
284,348,58361,1,8,3:1:0:0:
336,368,58431,1,8,3:1:0:0:
388,376,58500,1,8,3:1:0:0:
444,368,58570,1,8,3:1:0:0:
496,348,58640,6,0,P|508:280|472:216,1,110.000003356934,2|0,0:0|0:0,0:0:0:0:
304,112,58919,1,8,0:0:0:0:
388,376,59059,6,0,P|444:336|464:265,1,110.000003356934,2|0,0:0|0:0,0:0:0:0:
280,96,59338,1,8,0:0:0:0:
292,320,59477,6,0,P|360:331|424:296,1,110.000003356934,2|0,0:0|0:0,0:0:0:0:
256,76,59756,5,8,0:0:0:0:
160,240,59896,1,0,0:0:0:0:
160,240,59966,1,0,0:0:0:0:
160,240,60035,1,8,0:0:0:0:
72,56,60175,1,0,0:0:0:0:
172,20,60314,1,8,0:0:0:0:
160,240,60454,1,0,0:0:0:0:
60,192,60593,1,8,0:0:0:0:
142,131,60733,1,0,0:0:0:0:
272,360,60873,6,0,L|162:368,1,110.000003356934,2|0,0:0|0:0,0:0:0:0:
132,120,61152,1,8,0:0:0:0:
292,328,61291,6,0,L|182:336,1,110.000003356934,2|0,0:0|0:0,0:0:0:0:
120,108,61570,1,8,0:0:0:0:
320,116,61710,5,2,0:0:0:0:
228,296,61849,1,0,0:0:0:0:
444,232,61989,5,10,0:0:0:0:
444,232,62059,1,8,0:0:0:0:
444,232,62128,1,8,0:0:0:0:
432,372,62268,1,0,0:0:0:0:
344,188,62407,5,2,0:0:0:0:
332,152,62687,1,2,0:0:0:0:
320,116,62966,1,2,0:0:0:0:
248,248,63105,6,0,P|288:288|352:304,1,110.000003356934,4|0,0:0|0:0,0:0:0:0:
432,120,63384,1,8,0:0:0:0:
236,116,63524,1,0,0:0:0:0:
344,188,63663,1,0,0:0:0:0:
368,4,63803,1,0,0:0:0:0:
448,232,63942,1,8,0:0:0:0:
248,248,64082,6,0,B|184:216|104:236|104:236|112:276|172:292,1,220.000006713867
152,285,64431,1,0,0:0:0:0:
152,285,64500,1,8,0:0:0:0:
156,132,64640,1,0,0:0:0:0:
232,344,64780,2,0,P|292:336|340:280,1,110.000003356934
340,112,65059,1,8,0:0:0:0:
180,44,65198,1,8,0:0:0:0:
168,88,65268,1,0,0:0:0:0:
156,132,65338,5,10,0:0:0:0:
282,305,65477,1,0,0:0:0:0:
282,91,65617,1,8,0:0:0:0:
156,264,65756,1,0,0:0:0:0:
359,198,65896,2,0,P|416:196|496:232,1,110.000003356934
396,324,66175,1,8,0:0:0:0:
284,178,66314,6,0,P|260:76|160:44,1,220.000006713867
160,44,66663,1,0,0:0:0:0:
160,44,66733,1,8,0:0:0:0:
0,264,66873,1,0,0:0:0:0:
156,264,67012,2,0,L|184:148,1,110.000003356934
316,296,67291,1,8,3:1:0:0:
284,340,67361,1,8,3:1:0:0:
232,360,67431,1,8,3:1:0:0:
176,360,67500,1,8,3:1:0:0:
131,331,67570,6,0,P|78:320|26:335,1,110.000003356934,2|0,0:0|0:0,0:0:0:0:
4,112,67849,1,8,0:0:0:0:
225,169,67989,6,0,P|211:221|175:263,1,110.000003356934,2|0,0:0|0:0,0:0:0:0:
20,80,68268,1,8,0:0:0:0:
296,128,68407,6,0,L|416:144,1,110.000003356934,4|0,0:2|0:0,0:0:0:0:
304,16,68687,5,8,0:0:0:0:
296,208,68826,1,0,0:0:0:0:
296,208,68896,1,0,0:0:0:0:
296,208,68966,1,8,0:0:0:0:
212,48,69105,1,0,0:0:0:0:
396,56,69245,1,8,0:0:0:0:
296,208,69384,1,0,0:0:0:0:
308,352,69524,1,8,0:0:0:0:
426,259,69663,1,0,0:0:0:0:
176,232,69803,6,0,L|160:116,1,110.000003356934,2|0,0:0|0:0,0:0:0:0:
164,360,70082,1,8,0:0:0:0:
296,208,70221,6,0,L|311:99,1,110.000003356934,2|0,0:0|0:0,0:0:0:0:
296,348,70500,1,8,0:0:0:0:
208,156,70640,6,0,L|192:40,1,110.000003356934,2|0,0:0|0:0,0:0:0:0:
296,208,70919,1,8,0:0:0:0:
176,232,71059,1,0,0:0:0:0:
381,134,71198,1,8,3:1:0:0:
402,172,71268,1,8,3:1:0:0:
407,215,71338,1,8,3:1:0:0:
397,257,71407,1,8,3:1:0:0:
380,298,71477,5,8,0:0:0:0:
388,341,71547,1,8,0:0:0:0:
427,360,71617,1,8,0:0:0:0:
471,361,71687,1,8,0:0:0:0:
498,327,71756,1,8,0:0:0:0:
503,283,71826,1,8,0:0:0:0:
477,247,71896,1,8,0:0:0:0:
433,240,71966,1,8,0:0:0:0:
397,257,72035,6,0,P|339:273|272:267,1,110.000003356934,2|0,0:0|0:0,0:0:0:0:
101,106,72314,2,0,P|159:90|226:96,1,110.000003356934,2|0,0:0|0:0,0:0:0:0:
220,344,72593,6,0,L|184:232,1,110.000003356934,2|0,0:0|0:0,0:0:0:0:
292,40,72873,2,0,L|328:152,1,110.000003356934,2|0,0:0|0:0,0:0:0:0:
288,304,73152,5,2,0:0:0:0:
224,80,73291,1,0,0:0:0:0:
199,293,73431,1,2,0:0:0:0:
312,90,73570,1,0,0:0:0:0:
144,224,73710,5,2,0:0:0:0:
368,160,73849,1,0,0:0:0:0:
154,135,73989,1,10,3:1:0:0:
112,140,74059,1,8,3:1:0:0:
76,168,74128,1,8,3:1:0:0:
56,208,74198,1,8,3:1:0:0:
60,252,74268,6,0,P|80:302|65:354,1,110.000003356934,2|0,0:0|0:0,0:0:0:0:
0,96,74547,1,2,0:0:0:0:
199,293,74687,1,0,0:0:0:0:
312,90,74826,5,2,0:0:0:0:
144,224,74966,1,0,0:0:0:0:
357,248,75105,1,8,0:0:0:0:
400,244,75175,1,8,0:0:0:0:
436,216,75245,1,8,0:0:0:0:
456,176,75314,1,8,0:0:0:0:
452,132,75384,5,2,0:0:0:0:
112,56,76500,6,0,P|80:144|152:248,1,200,4|8,0:0|0:0,0:0:0:0:
228,128,76919,1,0,0:0:0:0:
296,268,77059,2,0,P|282:315|253:355,1,100
228,128,77338,1,8,0:0:0:0:
380,136,77477,1,0,0:0:0:0:
208,280,77617,6,0,B|132:304|72:256|72:256|12:308,1,200,0|8,0:0|0:0,0:0:0:0:
132,376,78035,1,0,0:0:0:0:
156,156,78175,1,2,0:0:0:0:
29,292,78314,1,0,0:0:0:0:
288,336,78454,2,0,P|304:288|288:228,1,100,10|0,0:0|0:0,0:0:0:0:
200,372,78733,5,4,0:0:0:0:
412,280,78873,1,0,0:0:0:0:
412,280,78942,1,0,0:0:0:0:
412,280,79012,1,8,0:0:0:0:
376,368,79152,1,0,0:0:0:0:
380,176,79291,2,0,L|384:40,1,100
184,144,79570,1,8,0:0:0:0:
260,24,79710,1,0,0:0:0:0:
290,236,79849,6,0,L|287:335,1,100
412,280,80128,1,8,0:0:0:0:
284,128,80268,1,0,0:0:0:0:
284,128,80338,1,0,0:0:0:0:
284,128,80407,1,10,0:0:0:0:
112,276,80547,1,0,0:0:0:0:
232,332,80687,1,10,3:1:0:0:
244,296,80756,1,8,3:1:0:0:
244,256,80826,1,8,3:1:0:0:
228,220,80896,1,8,3:1:0:0:
200,192,80966,6,0,P|180:128|272:24,1,200,4|8,0:0|0:0,0:0:0:0:
356,108,81384,1,0,0:0:0:0:
144,132,81524,2,0,L|36:112,1,100
8,288,81803,1,8,0:0:0:0:
200,192,81942,1,0,0:0:0:0:
111,53,82082,6,0,P|63:125|131:217,1,200,0|8,0:0|0:0,0:0:0:0:
298,241,82500,1,0,0:0:0:0:
293,42,82640,1,2,0:0:0:0:
200,192,82780,1,0,0:0:0:0:
384,188,82919,2,0,P|400:136|372:64,1,100,10|0,0:0|0:0,0:0:0:0:
160,100,83198,5,4,0:0:0:0:
298,241,83338,1,0,0:0:0:0:
298,241,83407,1,0,0:0:0:0:
298,241,83477,1,8,0:0:0:0:
136,116,83617,1,0,0:0:0:0:
296,140,83756,2,0,P|304:88|292:40,1,100
108,136,84035,1,10,0:0:0:0:
72,348,84175,1,0,0:0:0:0:
224,232,84314,6,0,L|256:112,1,100,10|0,0:0|0:0,0:0:0:0:
392,208,84593,1,8,0:0:0:0:
328,356,84733,1,8,0:0:0:0:
340,132,84873,2,0,P|387:118|452:137,1,100,10|0,0:0|0:0,0:0:0:0:
296,280,85152,1,8,0:0:0:0:
268,304,85221,1,8,0:0:0:0:
232,316,85291,1,8,0:0:0:0:
192,312,85361,1,8,0:0:0:0:
160,288,85431,6,0,B|96:224|124:152|124:152|192:160,1,200,4|8,0:0|0:0,0:0:0:0:
312,204,85849,1,0,0:0:0:0:
251,59,85989,2,0,P|207:37|158:35,1,100
192,312,86268,1,8,0:0:0:0:
372,256,86407,1,0,0:0:0:0:
185,187,86547,6,0,L|224:384,1,200,0|8,0:0|0:0,0:0:0:0:
312,204,86966,1,0,0:0:0:0:
36,204,87105,2,0,P|61:246|104:271,1,100,2|0,0:0|0:0,0:0:0:0:
264,96,87384,1,10,0:0:0:0:
72,128,87524,1,0,0:0:0:0:
263,224,87663,5,4,0:0:0:0:
427,173,87803,1,0,0:0:0:0:
427,173,87873,1,0,0:0:0:0:
427,173,87942,1,8,0:0:0:0:
388,338,88082,1,0,0:0:0:0:
324,141,88221,2,0,L|287:39,1,100
140,144,88500,1,8,0:0:0:0:
184,336,88640,1,0,0:0:0:0:
332,300,88780,6,0,P|356:256|356:184,1,100
244,44,89059,1,8,0:0:0:0:
132,236,89198,1,0,0:0:0:0:
132,236,89268,1,0,0:0:0:0:
132,236,89338,1,10,0:0:0:0:
84,40,89477,1,0,0:0:0:0:
44,180,89617,1,10,3:1:0:0:
48,220,89687,1,8,3:1:0:0:
52,260,89756,1,8,3:1:0:0:
56,300,89826,1,8,3:1:0:0:
60,340,89896,6,0,B|128:312|184:336|184:336|268:288,1,200,4|8,0:0|0:0,0:0:0:0:
424,268,90314,1,0,0:0:0:0:
256,324,90454,2,0,L|272:188,1,100
340,96,90733,1,8,0:0:0:0:
176,192,90873,1,0,0:0:0:0:
392,180,91012,6,0,P|432:116|384:8,1,200,0|8,0:0|0:0,0:0:0:0:
176,72,91431,1,0,0:0:0:0:
116,292,91570,2,0,L|236:256,1,100,2|0,0:0|0:0,0:0:0:0:
96,148,91849,1,10,0:0:0:0:
72,368,91989,1,0,0:0:0:0:
256,188,92128,5,4,0:0:0:0:
296,336,92268,1,0,0:0:0:0:
296,336,92338,1,0,0:0:0:0:
296,336,92407,1,8,0:0:0:0:
344,148,92547,1,0,0:0:0:0:
296,335,92687,2,0,P|246:344|197:336,1,100
404,216,92966,1,8,0:0:0:0:
452,368,93105,1,8,0:0:0:0:
240,256,93245,6,0,P|220:204|232:136,1,100,2|0,0:0|0:0,0:0:0:0:
384,244,93524,1,8,0:0:0:0:
176,304,93663,1,8,0:0:0:0:
144,112,93803,1,2,0:0:0:0:
336,80,93942,1,0,0:0:0:0:
368,272,94082,1,8,0:0:0:0:
320,280,94152,1,8,0:0:0:0:
276,260,94221,1,8,0:0:0:0:
252,216,94291,1,8,0:0:0:0:
256,164,94361,5,2,0:0:0:0:
256,192,94431,12,0,98268,2:0:0:0:
312,212,98547,6,0,L|296:280,3,55.0000016784668,8|8|8|8,3:1|3:1|3:1|3:1,0:1:0:0:
