osu file format v14

[General]
AudioFilename: Fake Out.mp3
AudioLeadIn: 0
PreviewTime: 54042
Countdown: 0
SampleSet: Normal
StackLeniency: 0.7
Mode: 0
LetterboxInBreaks: 0
WidescreenStoryboard: 1

[Editor]
Bookmarks: 76507
DistanceSpacing: 1
BeatDivisor: 2
GridSize: 4
TimelineZoom: 2.2

[Metadata]
Title:Fake out
TitleUnicode:フェイクアウト
Artist:Last Note. feat.mirin
ArtistUnicode:Last Note. feat.mirin
Creator:Kyubey
Version:Normal
Source:beatmania IIDX
Tags:22 pendual ryuu alacat seikatu rock bemani konami EXIT TUNES
BeatmapID:850900
BeatmapSetID:321002

[Difficulty]
HPDrainRate:4
CircleSize:3.2
OverallDifficulty:4.5
ApproachRate:5.5
SliderMultiplier:1.05
SliderTickRate:1

[Events]
//Background and Video events
0,0,"BACKactuallyGROUND.jpg",0,0
//Break Periods
//Storyboard Layer 0 (Background)
//Storyboard Layer 1 (Fail)
//Storyboard Layer 2 (Pass)
//Storyboard Layer 3 (Foreground)
//Storyboard Sound Samples

[TimingPoints]
594,279.06976744186,4,2,1,30,1,0
8966,-100,4,1,1,50,0,0
9524,-100,4,1,1,75,0,0
27384,-100,4,2,1,60,0,0
29338,-100,4,1,1,80,0,0
29617,-100,4,2,1,60,0,0
31570,-100,4,1,1,80,0,0
31849,-100,4,2,1,60,0,0
33803,-100,4,1,1,80,0,0
34082,-100,4,1,1,65,0,0
45245,-100,4,1,1,60,0,0
53198,-100,4,1,1,30,0,0
54175,-100,4,1,1,80,0,1
62407,-100,4,1,1,80,0,0
63105,-100,4,1,1,80,0,1
71966,-100,4,1,1,80,0,0
72035,-100,4,1,1,80,0,1
75384,-100,4,1,1,80,0,0
76500,-100,4,1,1,75,0,1
76570,-100,4,1,1,75,0,0
98756,-100,4,1,1,50,0,0

[Colours]
Combo1 : 247,243,98
Combo2 : 255,98,98
Combo3 : 150,213,32
Combo4 : 254,107,37

[HitObjects]
348,320,594,6,0,P|384:256|336:136,1,210,0|8,3:0|0:0,0:0:0:0:
268,200,1431,1,2,0:0:0:0:
268,200,1570,2,0,L|96:168,1,157.5,0|0,3:0|3:0,0:0:0:0:
92,80,2268,2,0,L|201:101,1,105,8|0,0:0|3:0,0:0:0:0:
288,116,2826,6,0,P|408:152|488:88,1,210,0|8,3:0|0:0,0:0:0:0:
504,200,3663,1,2,0:0:0:0:
504,200,3803,2,0,L|476:372,1,157.5,0|0,3:0|3:0,0:0:0:0:
396,308,4500,2,0,P|346:301|280:312,1,105,8|0,0:0|3:0,0:0:0:0:
208,352,5059,6,0,B|104:372|104:372|12:304,1,210,0|8,3:0|0:0,0:0:0:0:
32,216,5896,1,2,0:0:0:0:
32,216,6035,2,0,B|123:281|123:281|192:268,1,157.5,0|0,3:0|3:0,0:0:0:0:
136,184,6733,2,0,L|36:112,1,105,8|0,0:0|3:0,0:0:0:0:
120,60,7291,6,0,P|176:60|252:48,1,105,8|2,0:0|3:2,0:0:0:0:
256,144,7849,2,0,P|311:135|384:111,1,105,0|8,3:0|0:0,0:0:0:0:
416,48,8407,6,0,B|404:112|404:112|440:164|440:164|408:216|420:280,1,210,2|0,0:0|1:0,0:0:0:0:
480,312,9245,1,0,1:3:0:0:
388,332,9524,6,0,B|280:320|280:320|180:336,1,210,4|0,0:0|0:0,0:0:0:0:
80,360,10361,1,8,0:0:0:0:
80,360,10500,2,0,P|104:288|60:196,1,157.5,0|8,0:0|0:0,0:0:0:0:
28,120,11198,1,2,0:0:0:0:
84,32,11477,1,10,0:0:0:0:
188,44,11756,6,0,L|308:56,1,105,4|8,0:0|0:0,0:0:0:0:
332,92,12175,2,0,L|452:80,1,105,0|0,0:0|0:0,0:0:0:0:
476,48,12593,1,8,0:0:0:0:
484,152,12873,2,0,L|472:272,1,105,0|8,0:0|0:0,0:0:0:0:
424,348,13431,1,10,0:0:0:0:
320,368,13710,1,10,3:1:0:0:
232,308,13989,6,0,P|144:284|28:320,1,210,4|0,0:0|0:0,0:0:0:0:
24,212,14826,1,8,0:0:0:0:
24,212,14966,2,0,P|96:192|220:200,1,157.5,0|8,0:0|0:0,0:0:0:0:
280,208,15663,2,0,L|252:84,1,105,2|10,0:0|0:0,0:0:0:0:
336,36,16221,6,0,P|340:88|388:132,1,105,4|8,0:0|0:0,0:0:0:0:
428,136,16640,1,0,0:0:0:0:
448,240,16919,1,0,0:0:0:0:
448,240,17059,2,0,P|395:233|332:232,2,105,10|10|8,0:0|0:0|0:0,0:0:0:0:
436,344,17896,6,0,P|364:336|260:340,1,157.5,10|8,0:0|0:0,0:0:0:0:
236,364,18454,6,0,B|200:304|200:304|240:160,1,210,4|0,0:0|0:0,0:0:0:0:
168,88,19291,1,8,0:0:0:0:
168,88,19431,2,0,L|121:254,1,157.5,0|8,0:0|0:0,0:0:0:0:
60,320,20128,2,0,P|28:276|25:210,1,105,2|10,0:0|0:0,0:0:0:0:
125,239,20687,6,0,L|233:255,1,105,4|8,0:0|0:0,0:0:0:0:
280,264,21105,2,0,P|292:212|260:132,1,105,0|0,0:0|0:0,0:0:0:0:
252,120,21524,1,8,0:0:0:0:
340,60,21803,2,0,L|376:172,1,105,0|8,0:0|0:0,0:0:0:0:
460,216,22361,1,10,0:0:0:0:
404,304,22640,1,10,3:1:0:0:
316,244,22919,6,0,P|224:224|100:256,1,210,4|0,0:0|0:0,0:0:0:0:
148,348,23756,1,8,0:0:0:0:
148,348,23896,2,0,P|221:322|305:357,1,157.5,0|8,0:0|0:0,0:0:0:0:
388,300,24593,2,0,L|408:168,1,105,2|10,0:0|0:0,0:0:0:0:
440,96,25152,6,0,L|304:116,1,105,4|8,0:0|0:0,0:0:0:0:
288,88,25570,1,0,0:0:0:0:
208,20,25849,1,0,0:0:0:0:
208,20,25989,2,0,P|196:76|224:132,2,105,10|10|8,0:0|0:0|0:0,0:0:0:0:
288,88,26826,6,0,P|292:140|213:202,1,157.5,10|8,0:0|0:0,0:0:0:0:
176,236,27384,6,0,L|292:256,1,105,4|0,1:0|0:0,0:0:0:0:
332,344,27942,2,0,L|384:340,1,52.5,2|0,2:0|3:0,0:0:0:0:
436,352,28221,1,8,0:1:0:0:
500,272,28500,2,0,P|512:212|480:144,1,105,0|8,3:0|0:1,0:0:0:0:
416,108,29059,1,2,0:0:0:0:
396,4,29338,1,0,0:0:0:0:
316,72,29617,6,0,P|267:78|200:68,1,105,0|8,1:0|0:1,0:0:0:0:
116,32,30175,2,0,L|128:96,1,52.5,2|0,0:0|3:0,0:0:0:0:
108,132,30454,1,8,0:1:0:0:
72,232,30733,2,0,P|64:288|80:352,1,105,0|8,3:0|0:1,0:0:0:0:
164,288,31291,1,2,0:0:0:0:
264,320,31570,1,0,0:0:0:0:
348,256,31849,6,0,B|364:224|364:224|352:148,1,105,0|8,1:0|0:1,0:0:0:0:
420,76,32407,2,0,L|431:139,1,52.5,2|0,0:0|3:0,0:0:0:0:
440,180,32687,1,8,0:1:0:0:
420,284,32966,2,0,P|376:328|316:324,1,105,0|8,3:0|0:1,0:0:0:0:
240,288,33524,1,2,0:0:0:0:
144,332,33803,1,0,0:0:0:0:
156,228,34082,6,0,P|164:176|156:112,1,105,2|0,0:0|0:0,0:0:0:0:
204,96,34500,2,0,P|245:128|304:154,1,105,2|0,0:0|0:0,0:0:0:0:
284,204,34919,1,2,0:0:0:0:
300,308,35198,1,0,0:0:0:0:
300,308,35338,2,0,P|353:298|420:316,1,105,2|0,0:0|0:0,0:0:0:0:
448,336,35756,1,2,0:0:0:0:
492,240,36035,1,0,0:0:0:0:
488,136,36314,6,0,P|436:136|368:120,1,105,4|8,0:0|0:0,0:0:0:0:
320,40,36873,2,0,P|372:40|440:56,1,105,0|8,0:0|0:0,0:0:0:0:
488,136,37431,2,0,L|460:244,1,105,0|8,0:0|0:0,0:0:0:0:
408,328,37989,2,0,P|381:325|348:328,1,52.5,0|0,0:0|0:0,0:0:0:0:
308,352,38268,1,8,0:0:0:0:
208,316,38547,6,0,B|196:280|196:280|216:184,1,105,4|8,0:0|0:0,0:0:0:0:
124,152,39105,2,0,B|136:188|136:188|116:284,1,105,0|8,0:0|0:0,0:0:0:0:
40,188,39663,2,0,P|32:136|60:80,1,105,0|8,0:0|0:0,0:0:0:0:
148,52,40221,2,0,P|184:56|216:44,1,52.5
244,20,40500,1,8,0:0:0:0:
324,88,40780,6,0,L|340:196,1,105,4|8,0:0|0:0,0:0:0:0:
236,196,41338,2,0,L|220:304,1,105,0|8,0:0|0:0,0:0:0:0:
320,332,41896,2,0,P|376:324|440:336,1,105,0|8,0:0|0:0,0:0:0:0:
480,244,42454,2,0,P|493:187|472:132,1,105,0|8,0:0|0:0,0:0:0:0:
388,196,43012,6,0,B|308:204|308:204|272:184,1,105,10|8,0:0|0:0,0:0:0:0:
260,148,43431,2,0,B|257:123|257:123|296:53,1,105,10|8,0:0|0:0,0:0:0:0:
264,12,43849,1,10,0:0:0:0:
160,36,44128,5,8,0:0:0:0:
68,88,44407,1,8,0:0:0:0:
76,192,44687,2,0,L|87:243,1,52.5,10|0,0:0|0:0,0:0:0:0:
48,276,44966,2,0,L|32:348,1,52.5,8|8,0:0|0:0,0:0:0:0:
60,372,45245,6,0,P|132:356|236:368,1,157.5,2|0,0:0|0:0,0:0:0:0:
260,340,45803,2,0,L|208:228,1,105,8|0,0:0|0:0,0:0:0:0:
232,196,46221,2,0,P|304:212|408:200,1,157.5,2|0,0:0|0:0,0:0:0:0:
452,124,46919,1,8,0:0:0:0:
420,24,47198,1,0,0:0:0:0:
316,12,47477,6,0,B|272:32|272:32|148:20,1,157.5,2|0,0:0|0:0,0:0:0:0:
112,28,48035,2,0,P|88:86|96:140,1,105,8|0,0:0|0:0,0:0:0:0:
116,172,48454,2,0,B|132:224|132:224|92:344,1,157.5,2|0,0:0|0:0,0:0:0:0:
200,296,49152,1,8,0:0:0:0:
304,296,49431,1,0,0:0:0:0:
404,320,49710,6,0,L|424:196,1,105,2|0,0:0|0:0,0:0:0:0:
332,156,50268,2,0,L|312:44,1,105,8|0,0:0|0:0,0:0:0:0:
272,84,50687,6,0,P|220:88|144:80,1,105,2|0,0:0|0:0,0:0:0:0:
116,176,51245,2,0,P|168:172|244:180,1,105,0|0,0:0|0:0,0:0:0:0:
296,252,51803,1,0,0:0:0:0:
296,252,51942,6,0,P|356:264|404:216,1,105,4|8,0:2|0:0,0:0:0:0:
384,188,52361,1,8,0:0:0:0:
404,84,52640,1,8,0:0:0:0:
500,40,52919,1,2,0:0:0:0:
444,280,54175,6,0,P|392:272|300:280,1,105,4|8,0:0|0:0,0:0:0:0:
244,316,54733,1,0,0:0:0:0:
152,268,55012,1,8,0:0:0:0:
152,268,55152,2,0,P|149:207|156:136,1,105,0|0,0:0|0:0,0:0:0:0:
244,112,55710,2,0,P|246:172|240:244,1,105,0|0,0:0|0:0,0:0:0:0:
152,268,56268,1,8,0:0:0:0:
152,268,56407,6,0,P|97:262|20:272,1,105,12|8,0:0|0:0,0:0:0:0:
24,164,56966,1,0,0:0:0:0:
48,60,57245,1,8,0:0:0:0:
48,60,57384,2,0,B|78:71|78:71|176:64,1,105,0|0,0:0|0:0,0:0:0:0:
256,64,57942,2,0,B|328:69|328:69|358:58,1,105,0|0,0:0|0:0,0:0:0:0:
456,20,58500,1,8,3:1:0:0:
456,20,58640,6,0,L|444:144,1,105,2|8,0:0|0:0,0:0:0:0:
464,172,59059,2,0,L|476:296,1,105,2|8,0:0|0:0,0:0:0:0:
460,328,59477,2,0,B|360:312|360:312|252:332,1,210,2|8,0:0|0:0,0:0:0:0:
96,332,60454,2,0,P|152:300|164:244,1,105
192,220,60873,6,0,L|336:193,1,105,2|8,0:0|0:0,0:0:0:0:
348,204,61291,2,0,P|360:148|336:92,1,105,2|8,0:0|0:0,0:0:0:0:
300,72,61710,1,2,0:0:0:0:
384,8,61989,1,10,0:0:0:0:
440,156,62407,2,0,L|452:280,1,105,2|2,0:0|0:0,0:0:0:0:
380,340,62966,1,2,0:0:0:0:
380,340,63105,6,0,P|328:336|248:340,1,105,4|8,0:0|0:0,0:0:0:0:
172,352,63663,1,0,0:0:0:0:
116,264,63942,1,8,0:0:0:0:
116,264,64082,2,0,P|124:208|112:160,1,105,0|0,0:0|0:0,0:0:0:0:
12,140,64640,2,0,P|0:89|8:37,1,105,0|0,0:0|0:0,0:0:0:0:
112,40,65198,1,8,0:0:0:0:
112,40,65338,6,0,L|244:56,1,105,10|8,0:0|0:0,0:0:0:0:
272,144,65896,1,0,0:0:0:0:
376,120,66175,1,8,0:0:0:0:
376,120,66314,2,0,P|388:180|368:240,1,105,0|0,0:0|0:0,0:0:0:0:
320,312,66873,2,0,L|192:300,1,105,0|0,0:0|0:0,0:0:0:0:
112,304,67431,1,8,3:1:0:0:
112,304,67570,6,0,P|100:252|116:188,1,105,2|8,0:0|0:0,0:0:0:0:
152,172,67989,2,0,P|161:120|149:69,1,105,2|8,0:0|0:0,0:0:0:0:
104,40,68407,2,0,L|320:60,1,210,2|8,0:0|0:0,0:0:0:0:
460,4,69384,2,0,P|488:48|488:104,1,105
444,124,69803,6,0,L|432:244,1,105,2|8,0:0|0:0,0:0:0:0:
384,240,70221,2,0,L|396:360,1,105,2|8,0:0|0:0,0:0:0:0:
352,372,70640,1,2,0:0:0:0:
260,324,70919,1,8,0:0:0:0:
108,368,71338,2,0,L|92:256,1,105,8|8,3:1|0:0,0:0:0:0:
104,108,72035,5,2,0:0:0:0:
192,48,72314,1,2,0:0:0:0:
280,108,72593,1,2,0:0:0:0:
368,48,72872,1,2,0:0:0:0:
376,152,73152,2,0,P|384:212|376:276,1,105,2|2,0:0|0:0,0:0:0:0:
292,312,73710,2,0,P|284:252|292:188,1,105,2|10,0:0|3:1,0:0:0:0:
280,108,74268,5,2,0:0:0:0:
192,48,74547,1,2,0:0:0:0:
104,108,74826,1,2,0:0:0:0:
20,172,75105,2,0,L|40:292,1,105,8|2,0:0|0:0,0:0:0:0:
37,275,76500,6,0,P|140:260|260:280,1,210,4|0,0:0|0:0,0:0:0:0:
336,324,77338,1,8,0:0:0:0:
336,324,77477,2,0,B|352:284|352:284|356:220|292:176,1,157.5,0|8,0:0|0:0,0:0:0:0:
296,80,78175,1,2,0:0:0:0:
384,24,78454,1,10,0:0:0:0:
480,68,78733,6,0,L|472:200,1,105,4|8,0:0|0:0,0:0:0:0:
420,172,79152,2,0,L|428:304,1,105,0|0,0:0|0:0,0:0:0:0:
460,316,79570,1,8,0:0:0:0:
356,320,79849,2,0,L|224:312,1,105,0|8,0:0|0:0,0:0:0:0:
148,296,80407,1,10,0:0:0:0:
44,320,80687,1,10,3:1:0:0:
76,220,80966,6,0,P|96:132|68:8,1,210,4|0,0:0|0:0,0:0:0:0:
176,36,81803,1,8,0:0:0:0:
176,36,81942,2,0,B|228:48|228:48|336:28,1,157.5,0|8,0:0|0:0,0:0:0:0:
408,100,82640,2,0,L|272:127,1,105,2|10,0:0|0:0,0:0:0:0:
232,196,83198,6,0,P|275:218|356:216,1,105,4|8,0:0|0:0,0:0:0:0:
376,196,83617,1,0,0:0:0:0:
372,300,83896,1,0,0:0:0:0:
372,300,84035,2,0,L|252:320,2,105,10|10|8,0:0|0:0|0:0,0:0:0:0:
464,252,84873,6,0,P|444:176|464:92,1,157.5,10|8,0:0|0:0,0:0:0:0:
480,52,85431,6,0,L|268:40,1,210,4|0,0:0|0:0,0:0:0:0:
168,4,86268,1,8,0:0:0:0:
168,4,86407,2,0,P|160:52|212:164,1,157.5,0|8,0:0|0:0,0:0:0:0:
284,212,87105,2,0,P|336:200|408:200,1,105,2|10,0:0|0:0,0:0:0:0:
430,293,87663,6,0,P|378:289|322:297,1,105,4|8,0:0|0:0,0:0:0:0:
276,312,88082,2,0,P|224:319|171:315,1,105,0|0,0:0|0:0,0:0:0:0:
124,292,88500,1,8,0:0:0:0:
76,196,88780,2,0,L|64:72,1,105,0|8,0:0|0:0,0:0:0:0:
160,48,89338,1,10,0:0:0:0:
252,100,89617,1,10,3:1:0:0:
344,52,89896,6,0,B|364:96|344:156|344:156|324:208|348:268,1,210,4|0,0:0|0:0,0:0:0:0:
440,212,90733,1,8,0:0:0:0:
440,212,90873,2,0,P|452:128|448:44,1,157.5,0|8,0:0|0:0,0:0:0:0:
344,52,91570,1,2,0:0:0:0:
240,48,91849,1,10,0:0:0:0:
136,44,92128,6,0,P|124:97|120:196,1,105,4|8,0:0|0:0,0:0:0:0:
140,196,92547,1,0,0:0:0:0:
88,288,92826,1,0,0:0:0:0:
88,288,92966,2,0,L|220:280,2,105,8|2|8,0:0|0:0|0:0,0:0:0:0:
160,364,93803,6,0,P|244:352|268:228,1,210,2|2,0:0|0:0,0:0:0:0:
256,192,94500,12,8,98756,3:1:0:0:
