osu file format v14

[General]
AudioFilename: audio.mp3
AudioLeadIn: 0
PreviewTime: 54101
Countdown: 1
SampleSet: Soft
StackLeniency: 0.7
Mode: 0
LetterboxInBreaks: 0
WidescreenStoryboard: 0

[Editor]
Bookmarks: 2822,5055,6171,39659,75380,76496
DistanceSpacing: 1.7
BeatDivisor: 4
GridSize: 4
TimelineZoom: 2

[Metadata]
Title:Fake Out
TitleUnicode:Fake Out
Artist:Last Note. feat.mirin
ArtistUnicode:Last Note. feat.mirin
Creator:iamVill
Version:Fake
Source:
Tags:
BeatmapID:1003452
BeatmapSetID:469259

[Difficulty]
HPDrainRate:6.5
CircleSize:4.2
OverallDifficulty:8.6
ApproachRate:9.6
SliderMultiplier:1.4
SliderTickRate:1

[Events]
//Background and Video events
0,0,"Anime-Wallpaper-1920x1080-045.jpg",0,0
//Break Periods
//Storyboard Layer 0 (Background)
//Storyboard Layer 1 (Fail)
//Storyboard Layer 2 (Pass)
//Storyboard Layer 3 (Foreground)
//Storyboard Sound Samples

[TimingPoints]
590,279.06976744186,4,2,0,100,1,0
8962,-83.3333333333333,4,2,0,100,0,0
9520,-76.9230769230769,4,2,0,100,0,0
43008,-100,4,2,0,100,0,0
43427,-86.9565217391304,4,2,0,100,0,0
43845,-76.9230769230769,4,2,0,100,0,0
53194,-125,4,2,0,50,0,0
53543,-100,4,2,0,50,0,0
53752,-76.9230769230769,4,2,0,50,0,0
54171,-76.9230769230769,4,2,0,100,0,1
75380,-76.9230769230769,4,2,0,100,0,0
76496,-90.9090909090909,4,2,0,100,0,0
85427,-76.9230769230769,4,2,0,100,0,0

[HitObjects]
296,276,590,5,0,0:0:0:0:
392,245,869,1,0,0:0:0:0:
396,344,1148,5,0,0:0:0:0:
472,280,1427,2,0,P|488:232|488:188,2,70
384,352,1845,1,0,0:0:0:0:
288,264,1985,2,0,P|248:232|204:224,1,70
124,280,2264,1,0,0:0:0:0:
52,120,2403,6,0,L|52:208,1,70
136,72,2683,2,0,L|136:152,1,70
192,248,2962,1,0,0:0:0:0:
220,272,3031,1,0,0:0:0:0:
256,284,3101,1,0,0:0:0:0:
360,124,3241,1,0,0:0:0:0:
440,236,3380,2,0,P|468:184|472:152,1,70
396,36,3659,2,0,P|372:80|368:120,2,70
412,160,4078,6,0,P|404:200|380:232,2,70
312,32,4496,2,0,L|252:92,1,70
208,32,4776,2,0,L|148:92,1,70
80,168,5055,5,0,0:0:0:0:
106,303,5194,1,0,0:0:0:0:
364,96,5334,2,0,P|408:104|448:140,1,70
428,271,5613,1,0,0:0:0:0:
296,208,5752,2,0,L|216:164,2,70
312,220,6101,1,0,0:0:0:0:
324,228,6171,1,0,0:0:0:0:
278,354,6310,6,0,L|191:308,1,70
140,176,6589,2,0,L|140:268,1,70
111,342,6869,1,0,0:0:0:0:
12,135,7008,1,0,0:0:0:0:
170,138,7148,2,0,P|208:160|261:166,1,70
244,166,7357,5,0,0:0:0:0:
256,166,7427,1,0,0:0:0:0:
492,82,7566,1,0,0:0:0:0:
315,232,7706,1,0,0:0:0:0:
450,38,7845,2,0,L|392:103,1,70
216,290,8124,1,0,0:0:0:0:
298,29,8264,2,0,L|268:124,1,70
274,107,8473,5,0,0:0:0:0:
270,122,8543,1,0,0:0:0:0:
171,50,8683,1,0,0:0:0:0:
149,79,8752,1,0,0:0:0:0:
142,118,8822,1,0,0:0:0:0:
153,155,8892,1,0,0:0:0:0:
175,186,8962,2,0,P|223:233|271:246,1,83.9999974365235
308,176,9241,2,0,P|370:201|416:189,1,83.9999974365235
477,221,9520,6,0,B|445:330|341:329,1,181.999991668702
221,93,9938,1,0,0:0:0:0:
195,329,10078,1,0,0:0:0:0:
73,189,10217,2,0,P|23:143|21:88,1,90.9999958343508
160,158,10496,2,0,P|159:224|132:268,1,90.9999958343508
141,257,10706,1,0,0:0:0:0:
130,270,10776,1,0,0:0:0:0:
241,25,10915,6,0,L|325:79,1,90.9999958343508
256,272,11194,1,0,0:0:0:0:
448,144,11334,1,0,0:0:0:0:
216,180,11473,1,0,0:0:0:0:
464,240,11613,2,0,P|493:284|493:332,1,90.9999958343508
330,253,11892,1,0,0:0:0:0:
424,99,12031,2,0,P|454:151|450:189,1,90.9999958343508
292,212,12310,1,0,0:0:0:0:
150,57,12450,2,0,L|152:155,1,90.9999958343508
259,268,12729,5,0,0:0:0:0:
17,269,12869,2,0,P|6:213|15:170,1,90.9999958343508
141,38,13148,1,0,0:0:0:0:
155,57,13217,1,0,0:0:0:0:
170,80,13287,1,0,0:0:0:0:
335,56,13427,1,0,0:0:0:0:
356,87,13496,1,0,0:0:0:0:
377,118,13566,1,0,0:0:0:0:
416,287,13706,5,0,0:0:0:0:
402,267,13776,1,0,0:0:0:0:
389,249,13845,1,0,0:0:0:0:
378,233,13915,1,0,0:0:0:0:
365,217,13985,2,0,P|318:191|182:182,1,181.999991668702
148,340,14403,1,0,0:0:0:0:
20,228,14543,1,0,0:0:0:0:
245,138,14683,6,0,P|308:124|374:129,1,90.9999958343508
481,259,14962,2,0,P|416:276|366:277,1,90.9999958343508
283,34,15241,1,0,0:0:0:0:
176,272,15380,1,0,0:0:0:0:
331,94,15520,2,0,P|383:80|433:100,1,90.9999958343508
157,227,15799,2,0,P|107:198|99:163,1,90.9999958343508
99,156,16008,1,0,0:0:0:0:
99,144,16078,1,0,0:0:0:0:
205,42,16217,6,0,L|205:148,1,90.9999958343508
4,168,16496,1,0,0:0:0:0:
67,327,16636,2,0,P|119:316|149:276,1,90.9999958343508
4,168,16915,1,0,0:0:0:0:
159,44,17055,2,0,P|185:96|194:149,1,90.9999958343508
136,234,17334,1,0,0:0:0:0:
128,266,17403,1,0,0:0:0:0:
132,303,17473,1,0,0:0:0:0:
269,327,17613,6,0,L|269:225,1,90.9999958343508
356,364,17892,2,0,L|356:264,1,90.9999958343508
376,168,18171,1,0,0:0:0:0:
400,140,18241,1,0,0:0:0:0:
440,128,18310,1,0,0:0:0:0:
476,112,18380,1,0,0:0:0:0:
500,80,18450,2,0,P|501:32|442:6,1,90.9999958343508
337,80,18729,5,0,0:0:0:0:
314,112,18799,1,0,0:0:0:0:
286,135,18869,1,0,0:0:0:0:
183,54,19008,2,0,P|132:33|94:48,1,90.9999958343508
162,289,19287,1,0,0:0:0:0:
25,98,19427,1,0,0:0:0:0:
236,88,19566,1,0,0:0:0:0:
140,172,19706,1,0,0:0:0:0:
447,80,19845,1,0,0:0:0:0:
365,194,19985,6,0,P|323:237|284:256,1,90.9999958343508
211,125,20264,1,0,0:0:0:0:
141,322,20403,2,0,L|83:230,1,90.9999958343508
76,113,20683,1,0,0:0:0:0:
95,81,20752,1,0,0:0:0:0:
130,64,20822,1,0,0:0:0:0:
330,45,20962,2,0,L|252:117,1,90.9999958343508
89,253,21241,1,0,0:0:0:0:
195,33,21380,6,0,L|117:107,1,90.9999958343508
35,171,21659,1,0,0:0:0:0:
226,255,21799,2,0,L|318:301,1,90.9999958343508
425,348,22078,1,0,0:0:0:0:
427,71,22217,2,0,L|373:154,1,90.9999958343508
220,76,22496,2,0,L|172:140,1,45.4999979171754
168,148,22636,5,0,0:0:0:0:
143,183,22706,1,0,0:0:0:0:
131,227,22776,1,0,0:0:0:0:
132,271,22845,1,0,0:0:0:0:
150,311,22915,1,0,0:0:0:0:
306,326,23055,2,0,P|366:306|390:281,1,90.9999958343508
463,83,23334,2,0,P|492:143|494:205,1,90.9999958343508
125,260,23613,5,0,0:0:0:0:
383,153,23752,1,0,0:0:0:0:
72,187,23892,1,0,0:0:0:0:
377,263,24031,1,0,0:0:0:0:
301,115,24171,1,0,0:0:0:0:
173,284,24310,1,0,0:0:0:0:
350,222,24450,1,0,0:0:0:0:
76,152,24589,2,0,P|31:106|32:65,1,90.9999958343508
222,83,24869,5,0,0:0:0:0:
75,209,25008,2,0,P|45:266|64:302,1,90.9999958343508
304,296,25287,1,0,0:0:0:0:
144,205,25427,2,0,P|106:149|110:115,1,90.9999958343508
340,93,25706,1,0,0:0:0:0:
485,222,25845,2,0,P|459:268|406:297,1,90.9999958343508
347,215,26124,5,0,0:0:0:0:
353,178,26194,1,0,0:0:0:0:
374,142,26264,1,0,0:0:0:0:
449,25,26403,2,0,P|383:40|317:35,1,90.9999958343508
188,20,26683,1,0,0:0:0:0:
43,87,26822,2,0,P|92:136|95:186,1,90.9999958343508
73,266,27101,5,0,0:0:0:0:
75,313,27171,1,0,0:0:0:0:
102,351,27241,1,0,0:0:0:0:
147,363,27310,1,0,0:0:0:0:
190,353,27380,2,0,L|190:240,1,90.9999958343508
192,209,27938,5,0,0:0:0:0:
191,47,28078,1,0,0:0:0:0:
296,183,28217,2,0,P|361:216|411:218,1,90.9999958343508
397,91,28496,1,0,0:0:0:0:
400,66,28636,1,0,0:0:0:0:
499,190,28776,2,0,P|506:250|493:287,1,90.9999958343508
316,326,29055,2,0,P|308:264|321:221,1,90.9999958343508
477,144,29334,1,0,0:0:0:0:
203,253,29473,1,0,0:0:0:0:
26,173,29613,6,0,P|17:120|30:66,1,90.9999958343508
170,84,29892,1,0,0:0:0:0:
36,263,30031,1,0,0:0:0:0:
207,139,30171,2,0,P|257:91|271:59,1,90.9999958343508
36,115,30450,2,0,P|106:147|135:144,1,90.9999958343508
314,160,30729,1,0,0:0:0:0:
330,160,30869,1,0,0:0:0:0:
100,20,31008,2,0,L|100:226,1,181.999991668702
155,337,31427,6,0,P|199:297|214:259,1,90.9999958343508
247,37,31706,2,0,P|290:81|339:83,1,90.9999958343508
443,33,31985,1,0,0:0:0:0:
287,221,32124,1,0,0:0:0:0:
486,102,32264,2,0,L|487:200,1,90.9999958343508
325,90,32543,1,0,0:0:0:0:
324,303,32683,1,0,0:0:0:0:
481,212,32822,2,0,P|408:182|372:177,1,90.9999958343508
322,273,33101,5,0,0:0:0:0:
235,330,33241,1,0,0:0:0:0:
128,318,33380,1,0,0:0:0:0:
72,233,33520,1,0,0:0:0:0:
68,136,33659,2,0,P|106:94|160:89,1,90.9999958343508
290,158,33938,2,0,P|249:226|202:228,1,90.9999958343508
137,80,34217,1,0,0:0:0:0:
306,285,34357,5,0,0:0:0:0:
245,44,34496,1,0,0:0:0:0:
189,275,34636,1,0,0:0:0:0:
338,84,34776,2,0,P|410:72|447:91,1,90.9999958343508
475,184,35055,5,0,0:0:0:0:
479,224,35124,1,0,0:0:0:0:
464,262,35194,1,0,0:0:0:0:
359,136,35334,2,0,P|297:78|266:68,1,90.9999958343508
101,199,35613,1,0,0:0:0:0:
223,43,35752,1,0,0:0:0:0:
212,331,35892,1,0,0:0:0:0:
162,113,36031,2,0,P|126:68|94:63,1,90.9999958343508
75,68,36241,1,0,0:0:0:0:
60,80,36310,1,0,0:0:0:0:
33,278,36450,5,0,0:0:0:0:
109,188,36589,1,0,0:0:0:0:
126,320,36729,2,0,P|172:346|212:346,1,90.9999958343508
340,256,37008,1,0,0:0:0:0:
179,239,37148,1,0,0:0:0:0:
395,165,37287,2,0,P|462:191|470:218,1,90.9999958343508
313,202,37566,2,0,L|289:109,1,90.9999958343508
493,117,37845,6,0,L|462:228,1,90.9999958343508
392,124,38124,1,0,0:0:0:0:
392,104,38194,1,0,0:0:0:0:
392,88,38264,1,0,0:0:0:0:
392,196,38403,1,0,0:0:0:0:
296,56,38543,1,0,0:0:0:0:
488,56,38683,1,0,0:0:0:0:
392,284,38822,2,0,P|308:268|276:244,1,90.9999958343508
28,264,39101,6,0,P|64:300|104:320,1,90.9999958343508
56,176,39380,1,0,0:0:0:0:
164,228,39520,2,0,P|192:172|184:136,1,90.9999958343508
32,112,39799,2,0,P|72:68|108:68,1,90.9999958343508
96,212,40078,1,0,0:0:0:0:
280,52,40217,1,0,0:0:0:0:
159,71,40357,5,0,0:0:0:0:
170,112,40427,1,0,0:0:0:0:
197,142,40496,1,0,0:0:0:0:
389,34,40636,1,0,0:0:0:0:
268,196,40776,1,0,0:0:0:0:
269,333,40915,1,0,0:0:0:0:
367,250,41055,6,0,P|403:211|484:287,1,181.999991668702
373,349,41473,1,0,0:0:0:0:
334,342,41543,1,0,0:0:0:0:
303,323,41613,2,0,P|268:271|259:237,1,90.9999958343508
183,174,41892,2,0,P|175:227|152:268,1,90.9999958343508
246,89,42171,2,0,P|287:59|338:48,1,90.9999958343508
327,132,42450,2,0,P|369:160|396:204,1,90.9999958343508
269,264,42729,5,0,0:0:0:0:
169,319,42869,1,0,0:0:0:0:
203,183,43008,2,0,P|207:121|160:51,1,140
74,114,43427,2,0,P|93:153|34:255,1,161.000003070831
187,351,43845,2,0,L|187:160,1,181.999991668702
97,58,44264,5,0,0:0:0:0:
336,220,44403,1,0,0:0:0:0:
165,218,44543,1,0,0:0:0:0:
334,143,44683,1,0,0:0:0:0:
260,14,44822,1,0,0:0:0:0:
213,229,44962,1,0,0:0:0:0:
209,248,45031,5,0,0:0:0:0:
205,269,45101,1,0,0:0:0:0:
201,290,45171,1,0,0:0:0:0:
196,314,45241,2,0,B|206:364|264:365|366:331,1,181.999991668702
330,203,45659,1,0,0:0:0:0:
276,88,45799,1,0,0:0:0:0:
412,41,45938,2,0,L|459:149,1,90.9999958343508
455,140,46148,1,0,0:0:0:0:
463,155,46217,1,0,0:0:0:0:
342,257,46357,6,0,L|457:257,1,90.9999958343508
322,159,46636,1,0,0:0:0:0:
156,160,46776,1,0,0:0:0:0:
248,296,46915,2,0,L|368:296,1,90.9999958343508
400,360,47194,1,0,0:0:0:0:
504,172,47334,1,0,0:0:0:0:
288,288,47473,2,0,P|236:296|156:292,1,90.9999958343508
48,184,47752,6,0,L|48:288,1,90.9999958343508
176,168,48031,1,0,0:0:0:0:
76,336,48171,1,0,0:0:0:0:
24,136,48310,2,0,P|36:72|84:56,1,90.9999958343508
172,64,48589,2,0,P|248:64|364:112,1,181.999991668702
196,172,49008,1,0,0:0:0:0:
448,48,49148,1,0,0:0:0:0:
472,32,49287,1,0,0:0:0:0:
448,180,49427,5,0,0:0:0:0:
472,196,49566,1,0,0:0:0:0:
380,96,49706,2,0,B|316:72|288:12|192:24,1,181.999991668702
224,128,50124,1,0,0:0:0:0:
96,72,50264,2,0,P|60:108|56:164,1,90.9999958343508
120,256,50543,2,0,P|144:208|144:168,1,90.9999958343508
36,232,50822,2,0,P|44:292|76:328,1,90.9999958343508
224,228,51101,1,0,0:0:0:0:
168,340,51241,6,0,P|224:364|272:360,1,90.9999958343508
228,240,51520,2,0,P|164:224|124:228,1,90.9999958343508
44,308,51799,1,0,0:0:0:0:
100,132,51938,2,0,P|140:96|180:92,1,90.9999958343508
216,188,52217,2,0,P|260:164|288:96,1,90.9999958343508
288,24,52496,5,0,0:0:0:0:
356,236,52636,1,0,0:0:0:0:
188,72,52776,1,0,0:0:0:0:
268,304,52915,1,0,0:0:0:0:
416,60,53194,6,0,L|416:193,1,112
332,240,53613,2,0,L|332:148,1,70
336,76,53892,2,0,P|284:96|243:150,1,90.9999958343508
240,268,54171,2,0,P|224:328|176:356,1,90.9999958343508
92,168,54450,5,0,0:0:0:0:
280,344,54589,1,0,0:0:0:0:
308,216,54729,1,0,0:0:0:0:
152,328,54869,1,0,0:0:0:0:
392,328,55008,1,0,0:0:0:0:
172,192,55148,2,0,P|132:152|192:48,1,181.999991668702
300,180,55566,5,0,0:0:0:0:
408,44,55706,2,0,L|464:128,1,90.9999958343508
400,260,55985,1,0,0:0:0:0:
380,224,56055,1,0,0:0:0:0:
364,188,56124,1,0,0:0:0:0:
208,40,56264,1,0,0:0:0:0:
276,220,56403,6,0,P|308:288|344:320,1,90.9999958343508
436,200,56683,1,0,0:0:0:0:
152,312,56822,1,0,0:0:0:0:
160,112,56962,1,0,0:0:0:0:
60,248,57101,1,0,0:0:0:0:
296,240,57241,1,0,0:0:0:0:
152,40,57380,1,0,0:0:0:0:
160,240,57520,2,0,P|200:280|256:296,1,90.9999958343508
248,295,57729,1,0,0:0:0:0:
262,295,57799,1,0,0:0:0:0:
459,269,57938,6,0,L|357:227,1,90.9999958343508
168,139,58217,2,0,L|265:52,1,90.9999958343508
248,74,58427,1,0,0:0:0:0:
262,71,58496,1,0,0:0:0:0:
459,97,58636,2,0,L|460:204,1,90.9999958343508
301,186,58915,1,0,0:0:0:0:
223,346,59055,2,0,P|151:305|117:273,1,90.9999958343508
238,156,59334,1,0,0:0:0:0:
55,35,59473,2,0,L|55:131,1,90.9999958343508
63,246,59752,5,0,0:0:0:0:
74,275,59822,1,0,0:0:0:0:
94,297,59892,1,0,0:0:0:0:
178,158,60031,1,0,0:0:0:0:
289,335,60171,1,0,0:0:0:0:
310,91,60310,1,0,0:0:0:0:
370,310,60450,1,0,0:0:0:0:
392,184,60589,1,0,0:0:0:0:
483,231,60729,6,0,P|489:161|465:113,1,90.9999958343508
369,285,61008,1,0,0:0:0:0:
279,102,61148,2,0,P|326:61|368:56,1,90.9999958343508
459,147,61427,1,0,0:0:0:0:
152,150,61566,1,0,0:0:0:0:
483,204,61706,1,0,0:0:0:0:
161,54,61845,1,0,0:0:0:0:
31,191,61985,5,0,0:0:0:0:
274,137,62124,1,0,0:0:0:0:
39,96,62264,1,0,0:0:0:0:
134,276,62403,5,0,0:0:0:0:
125,179,62683,1,0,0:0:0:0:
176,233,62962,6,0,P|168:295|199:333,1,90.9999958343508
195,329,63171,1,0,0:0:0:0:
212,337,63241,1,0,0:0:0:0:
296,223,63380,1,0,0:0:0:0:
160,213,63520,2,0,P|139:148|154:118,1,90.9999958343508
220,286,63799,2,0,P|285:326|321:318,1,90.9999958343508
376,140,64078,5,0,0:0:0:0:
370,369,64217,1,0,0:0:0:0:
466,208,64357,1,0,0:0:0:0:
489,239,64427,1,0,0:0:0:0:
497,278,64496,2,0,P|461:323|392:339,1,90.9999958343508
361,198,64776,5,0,0:0:0:0:
332,176,64845,1,0,0:0:0:0:
290,164,64915,1,0,0:0:0:0:
181,318,65055,1,0,0:0:0:0:
309,75,65194,2,0,P|360:35|410:38,1,90.9999958343508
485,155,65473,5,0,0:0:0:0:
305,234,65613,1,0,0:0:0:0:
319,38,65752,2,0,P|381:16|431:28,1,90.9999958343508
412,215,66031,1,0,0:0:0:0:
326,122,66171,1,0,0:0:0:0:
296,244,66310,1,0,0:0:0:0:
486,192,66450,1,0,0:0:0:0:
215,104,66589,1,0,0:0:0:0:
185,95,66659,5,0,0:0:0:0:
157,98,66729,1,0,0:0:0:0:
165,271,66869,1,0,0:0:0:0:
46,53,67008,1,0,0:0:0:0:
5,249,67148,2,0,P|28:300|75:318,1,90.9999958343508
74,322,67357,1,0,0:0:0:0:
92,325,67427,1,0,0:0:0:0:
112,326,67496,1,0,0:0:0:0:
132,322,67566,2,0,P|188:304|225:257,1,90.9999958343508
161,130,67845,5,0,0:0:0:0:
292,351,67985,2,0,P|352:368|403:364,1,90.9999958343508
491,206,68264,1,0,0:0:0:0:
371,314,68403,2,0,P|311:349|195:322,1,181.999991668702
159,149,68822,1,0,0:0:0:0:
144,118,68962,1,0,0:0:0:0:
356,122,69101,1,0,0:0:0:0:
253,262,69241,1,0,0:0:0:0:
415,226,69380,6,0,P|474:171|484:131,1,90.9999958343508
387,54,69659,1,0,0:0:0:0:
361,240,69799,2,0,P|279:260|231:250,1,90.9999958343508
126,76,70078,1,0,0:0:0:0:
1,233,70217,1,0,0:0:0:0:
215,126,70357,2,0,P|275:115|337:132,1,90.9999958343508
312,260,70636,5,0,0:0:0:0:
286,286,70706,1,0,0:0:0:0:
246,306,70776,1,0,0:0:0:0:
93,358,70915,2,0,P|39:330|29:288,1,90.9999958343508
32,227,71194,1,0,0:0:0:0:
48,189,71264,1,0,0:0:0:0:
35,152,71334,1,0,0:0:0:0:
49,116,71403,1,0,0:0:0:0:
37,72,71473,1,0,0:0:0:0:
59,33,71543,1,0,0:0:0:0:
106,20,71613,1,0,0:0:0:0:
152,35,71683,1,0,0:0:0:0:
181,77,71752,5,0,0:0:0:0:
179,126,71822,1,0,0:0:0:0:
195,175,71892,1,0,0:0:0:0:
243,199,71962,1,0,0:0:0:0:
294,189,72031,2,0,P|345:126|344:102,1,90.9999958343508
185,36,72310,5,0,0:0:0:0:
479,184,72450,1,0,0:0:0:0:
157,104,72589,1,0,0:0:0:0:
495,142,72729,1,0,0:0:0:0:
163,191,72869,1,0,0:0:0:0:
487,80,73008,1,0,0:0:0:0:
134,113,73148,1,0,0:0:0:0:
474,200,73287,1,0,0:0:0:0:
182,240,73427,2,0,P|127:284|213:313,1,181.999991668702
373,138,73845,5,0,0:0:0:0:
327,318,73985,1,0,0:0:0:0:
175,107,74124,1,0,0:0:0:0:
141,89,74194,1,0,0:0:0:0:
100,89,74264,2,0,P|51:126|48:158,1,90.9999958343508
197,301,74543,5,0,0:0:0:0:
5,229,74683,1,0,0:0:0:0:
347,257,74822,1,0,0:0:0:0:
455,351,74962,1,0,0:0:0:0:
347,149,75101,1,0,0:0:0:0:
314,129,75171,1,0,0:0:0:0:
284,109,75241,1,0,0:0:0:0:
253,88,75310,1,0,0:0:0:0:
225,71,75380,1,0,0:0:0:0:
25,138,76496,6,0,L|95:209,1,77.0000023498536
89,204,76706,1,0,0:0:0:0:
99,215,76776,1,0,0:0:0:0:
250,337,76915,2,0,L|213:252,1,77.0000023498536
159,133,77194,1,0,0:0:0:0:
158,98,77264,1,0,0:0:0:0:
174,64,77334,1,0,0:0:0:0:
296,168,77473,6,0,P|253:216|212:220,1,77.0000023498536
171,86,77752,1,0,0:0:0:0:
149,58,77822,1,0,0:0:0:0:
112,41,77892,2,0,P|65:53|48:84,1,77.0000023498536
125,240,78171,2,0,P|189:204|199:175,1,77.0000023498536
149,45,78450,1,0,0:0:0:0:
7,186,78589,1,0,0:0:0:0:
245,108,78729,2,0,P|294:90|344:89,1,77.0000023498536
198,291,79008,5,0,0:0:0:0:
415,119,79148,1,0,0:0:0:0:
281,329,79287,1,0,0:0:0:0:
335,135,79427,2,0,P|339:83|308:51,1,77.0000023498536
276,293,79706,1,0,0:0:0:0:
387,171,79845,2,0,P|453:162|478:179,1,77.0000023498536
480,286,80124,5,0,0:0:0:0:
448,317,80194,1,0,0:0:0:0:
405,330,80264,1,0,0:0:0:0:
204,264,80403,2,0,P|173:231|174:185,1,77.0000023498536
173,187,80613,1,0,0:0:0:0:
179,171,80683,1,0,0:0:0:0:
187,151,80752,1,0,0:0:0:0:
197,132,80822,1,0,0:0:0:0:
206,115,80892,1,0,0:0:0:0:
216,98,80962,2,0,P|253:59|297:49,1,77.0000023498536
292,53,81171,1,0,0:0:0:0:
305,54,81241,5,0,0:0:0:0:
128,67,81380,2,0,P|84:82|57:128,1,77.0000023498536
158,311,81659,1,0,0:0:0:0:
15,166,81799,1,0,0:0:0:0:
63,335,81938,2,0,L|122:254,1,77.0000023498536
40,196,82217,1,0,0:0:0:0:
52,168,82287,1,0,0:0:0:0:
76,148,82357,1,0,0:0:0:0:
188,316,82496,5,0,0:0:0:0:
148,80,82636,1,0,0:0:0:0:
256,264,82776,2,0,P|296:296|348:300,1,77.0000023498536
332,144,83055,1,0,0:0:0:0:
488,132,83194,2,0,P|488:188|464:224,1,77.0000023498536
332,144,83473,1,0,0:0:0:0:
392,336,83613,2,0,P|340:348|296:328,1,77.0000023498536
324,229,83892,5,0,0:0:0:0:
352,196,83962,1,0,0:0:0:0:
376,160,84031,2,0,P|392:100|312:28,1,154.000004699707
324,33,84380,1,0,0:0:0:0:
308,33,84450,1,0,0:0:0:0:
314,194,84589,1,0,0:0:0:0:
210,37,84729,2,0,P|146:38|122:55,1,77.0000023498536
222,223,85008,5,0,0:0:0:0:
49,107,85148,1,0,0:0:0:0:
50,141,85217,1,0,0:0:0:0:
50,177,85287,1,0,0:0:0:0:
50,207,85357,1,0,0:0:0:0:
50,246,85427,2,0,P|79:313|190:343,1,181.999991668702
217,181,85845,5,0,0:0:0:0:
241,296,85985,1,0,0:0:0:0:
454,187,86124,1,0,0:0:0:0:
175,261,86264,1,0,0:0:0:0:
220,68,86403,1,0,0:0:0:0:
382,351,86543,1,0,0:0:0:0:
466,236,86683,2,0,P|490:175|488:137,1,90.9999958343508
417,32,86962,5,0,0:0:0:0:
281,237,87101,1,0,0:0:0:0:
460,114,87241,2,0,P|457:167|436:199,1,90.9999958343508
341,27,87520,1,0,0:0:0:0:
417,269,87659,1,0,0:0:0:0:
203,42,87799,1,0,0:0:0:0:
385,118,87938,2,0,P|435:153|457:177,1,90.9999958343508
328,239,88217,5,0,0:0:0:0:
230,357,88357,2,0,P|174:320|168:291,1,90.9999958343508
167,181,88636,1,0,0:0:0:0:
185,143,88706,1,0,0:0:0:0:
226,119,88776,1,0,0:0:0:0:
251,269,88915,6,0,P|204:295|132:295,1,90.9999958343508
156,300,89124,1,0,0:0:0:0:
144,300,89194,1,0,0:0:0:0:
0,199,89334,2,0,L|129:199,1,90.9999958343508
204,197,89613,1,0,0:0:0:0:
248,218,89683,5,0,0:0:0:0:
270,266,89752,1,0,0:0:0:0:
277,320,89822,1,0,0:0:0:0:
306,358,89892,2,0,P|363:375|413:367,1,90.9999958343508
406,364,90101,1,0,0:0:0:0:
415,355,90171,1,0,0:0:0:0:
483,170,90310,6,0,L|395:233,1,90.9999958343508
299,266,90589,1,0,0:0:0:0:
257,273,90659,1,0,0:0:0:0:
210,262,90729,1,0,0:0:0:0:
363,180,90869,2,0,P|411:158|439:127,1,90.9999958343508
377,22,91148,1,0,0:0:0:0:
340,32,91217,1,0,0:0:0:0:
311,65,91287,1,0,0:0:0:0:
326,224,91427,5,0,0:0:0:0:
206,61,91566,2,0,P|148:23|110:22,1,90.9999958343508
6,244,91845,1,0,0:0:0:0:
186,109,91985,1,0,0:0:0:0:
39,281,92124,2,0,P|44:333|81:357,1,90.9999958343508
177,240,92403,1,0,0:0:0:0:
22,165,92543,2,0,P|12:113|37:78,1,90.9999958343508
221,112,92822,5,0,0:0:0:0:
5,215,92962,1,0,0:0:0:0:
317,206,93101,1,0,0:0:0:0:
15,115,93241,1,0,0:0:0:0:
314,93,93380,1,0,0:0:0:0:
6,42,93520,1,0,0:0:0:0:
298,38,93659,2,0,P|355:48|401:84,1,90.9999958343508
301,311,93938,2,0,L|253:286,1,45.4999979171754
229,264,94078,1,0,0:0:0:0:
207,239,94148,5,0,0:0:0:0:
198,206,94217,1,0,0:0:0:0:
205,168,94287,1,0,0:0:0:0:
256,192,94357,12,0,98543,0:0:0:0:
