osu file format v14

[General]
AudioFilename: audio.mp3
AudioLeadIn: 0
PreviewTime: 84206
Countdown: 0
SampleSet: None
StackLeniency: 0.3
Mode: 0
LetterboxInBreaks: 0
WidescreenStoryboard: 0

[Editor]
Bookmarks: 84662
DistanceSpacing: 2
BeatDivisor: 4
GridSize: 4
TimelineZoom: 1.4

[Metadata]
Title:Garakuta Innocence
TitleUnicode:我楽多イノセンス
Artist:Last Note. feat. Ryo-kun
ArtistUnicode:Last Note. feat. りょーくん
Creator:Mafumafu
Version:r1ngochan's eXtrAa!!
Source:
Tags:九頭竜京摩 kuzuryu kyoma kyouma RYOTA blank japanese rock jrock j-rock utaite cover vocaloid gumi megpoid male vocal appleeaterx mint regraz
BeatmapID:4576815
BeatmapSetID:2168965

[Difficulty]
HPDrainRate:0
CircleSize:4.2
OverallDifficulty:9
ApproachRate:9.7
SliderMultiplier:2.3
SliderTickRate:2

[Events]
//Background and Video events
0,0,"43514536_p0 (1).jpg",0,0
//Break Periods
2,992,83651
//Storyboard Layer 0 (Background)
//Storyboard Layer 1 (Fail)
//Storyboard Layer 2 (Pass)
//Storyboard Layer 3 (Foreground)
//Storyboard Layer 4 (Overlay)
//Storyboard Sound Samples

[TimingPoints]
141,260.869565217391,4,2,1,80,1,0
532,-166.666666666667,4,2,1,80,0,0
84662,-100,4,2,1,65,0,1
84727,-100,4,2,1,80,0,1
92097,-133.333333333333,4,2,1,80,0,0
92488,-100,4,2,1,80,0,0
93010,-100,4,2,1,65,0,1
93075,-100,4,2,1,80,0,1
105532,-100,4,2,1,65,0,1
105597,-100,4,2,1,80,0,1
108662,-90.9090909090909,4,2,1,80,0,0
108923,-83.3333333333333,4,2,1,80,0,0
109184,-76.9230769230769,4,2,1,80,0,0
109380,-66.6666666666667,4,2,1,80,0,0

[Colours]
Combo1 : 255,192,0
Combo2 : 245,69,82
Combo3 : 2,209,253
Combo4 : 147,252,69

[HitObjects]
112,260,532,6,0,L|93:124,1,137.999995788574
39,329,84401,5,0,0:0:0:0:
39,329,84467,1,0,0:0:0:0:
39,329,84532,1,0,0:0:0:0:
39,329,84597,1,0,0:0:0:0:
39,329,84662,6,0,B|97:316|97:316|141:340|141:340|209:328,1,172.5,6|0,3:0|0:0,0:0:0:0:
273,369,84923,2,0,L|294:249,1,115,8|0,0:0|0:0,0:0:0:0:
135,13,85184,2,0,L|114:133,1,115,0|0,3:0|3:0,0:0:0:0:
379,330,85445,1,8,0:0:0:0:
294,126,85575,6,0,B|166:142|245:217|103:234,1,230,2|0,3:2|3:0,0:0:0:0:
382,43,85967,2,0,P|408:97|408:158,1,115,8|0,0:0|3:0,0:0:0:0:
273,369,86227,1,0,0:0:0:0:
294,126,86358,1,0,3:0:0:0:
294,126,86423,1,0,3:0:0:0:
294,126,86488,1,8,0:0:0:0:
504,249,86619,1,8,0:0:0:0:
267,264,86749,6,0,L|383:241,1,115,6|0,3:2|0:0,0:0:0:0:
218,34,87010,2,0,L|102:57,1,115,8|0,0:0|0:0,0:0:0:0:
51,308,87271,1,0,3:0:0:0:
176,184,87401,1,0,3:0:0:0:
9,70,87532,1,8,0:0:0:0:
28,352,87662,6,0,B|110:333|110:333|156:367|156:367|243:354,1,230,2|0,3:2|3:0,0:0:0:0:
294,258,87988,1,0,0:0:0:0:
294,258,88054,2,0,L|166:277,1,115,8|0,0:0|3:0,0:0:0:0:
478,164,88314,1,0,0:0:0:0:
353,347,88445,1,0,3:0:0:0:
353,347,88510,1,0,3:0:0:0:
353,347,88575,1,8,0:0:0:0:
217,64,88706,1,8,0:0:0:0:
496,266,88836,6,0,P|432:262|387:146,1,172.5,6|0,3:2|0:0,0:0:0:0:
306,127,89097,2,0,P|355:90|418:95,1,115,8|0,0:0|0:0,0:0:0:0:
208,359,89358,2,0,P|151:357|107:322,1,115,0|0,3:0|3:0,0:0:0:0:
107,38,89619,2,0,B|130:143|130:143|101:218,1,172.5,10|0,0:0|0:0,0:0:0:0:
45,134,89880,6,0,L|20:15,1,115,2|0,3:2|3:0,0:0:0:0:
322,103,90140,1,8,0:0:0:0:
19,239,90271,1,0,3:0:0:0:
208,359,90401,2,0,L|231:246,1,115,0|0,0:0|3:0,0:0:0:0:
256,175,90597,1,0,3:0:0:0:
256,175,90662,1,8,0:0:0:0:
107,38,90793,1,8,0:0:0:0:
208,359,90923,6,0,P|319:371|391:289,2,230,6|8|0,3:2|0:0|0:0,0:0:0:0:
56,140,91575,1,0,3:0:0:0:
273,262,91706,1,8,0:0:0:0:
24,352,91836,1,0,3:0:0:0:
248,132,91967,1,10,0:0:0:0:
80,13,92097,6,0,L|54:153,1,129.375004935265,6|0,3:2|0:0,0:0:0:0:
53,164,92358,1,0,3:0:0:0:
248,132,92488,6,0,L|262:51,1,57.5,8|0,0:0|3:0,0:0:0:0:
394,53,92619,2,0,L|380:134,1,57.5,0|0,3:0|3:0,0:0:0:0:
330,362,92749,5,8,0:0:0:0:
292,320,92814,1,8,0:0:0:0:
301,266,92879,1,8,0:0:0:0:
350,239,92944,1,8,0:0:0:0:
401,261,93010,6,0,L|184:291,1,172.5,6|0,3:0|0:0,0:0:0:0:
180,341,93271,2,0,L|63:358,1,115,8|0,0:0|0:0,0:0:0:0:
91,61,93532,1,0,3:0:0:0:
223,175,93662,1,0,3:0:0:0:
27,271,93793,1,8,0:0:0:0:
67,27,93923,6,0,B|153:37|153:37|187:75|187:75|291:88,1,230,2|0,3:2|3:0,0:0:0:0:
490,206,94314,1,8,0:0:0:0:
379,19,94445,1,0,3:0:0:0:
223,175,94575,2,0,L|233:292,1,115,0|0,0:0|3:0,0:0:0:0:
244,361,94771,1,0,3:0:0:0:
244,361,94836,1,8,0:0:0:0:
102,132,94967,1,8,0:0:0:0:
352,298,95097,6,0,B|227:278|263:360|120:334,1,230,6|8,3:2|0:0,0:0:0:0:
339,177,95488,1,0,0:0:0:0:
480,266,95619,2,0,L|456:385,1,115,0|0,3:0|3:0,0:0:0:0:
166,219,95880,1,8,0:0:0:0:
312,55,96010,6,0,P|420:64|471:179,1,230,2|0,3:2|0:0,0:0:0:0:
173,125,96401,2,0,P|164:52|156:6,1,115,8|0,0:0|3:0,0:0:0:0:
339,177,96662,2,0,P|329:233|322:290,1,115,0|0,0:0|3:0,0:0:0:0:
356,359,96858,1,0,3:0:0:0:
356,359,96923,1,8,0:0:0:0:
472,163,97054,1,8,0:0:0:0:
197,253,97184,6,0,P|84:232|2:223,1,172.5,6|0,3:2|0:0,0:0:0:0:
48,305,97445,2,0,P|106:315|169:327,1,115,8|0,0:0|0:0,0:0:0:0:
452,197,97706,2,0,P|394:187|331:175,1,115,0|0,3:0|3:0,0:0:0:0:
168,0,97967,2,0,P|183:75|199:176,1,172.5,10|0,0:0|0:0,0:0:0:0:
115,146,98227,6,0,P|104:82|94:30,1,115,2|0,3:2|3:0,0:0:0:0:
299,49,98488,1,8,0:0:0:0:
10,107,98619,1,0,3:0:0:0:
326,156,98749,2,0,P|315:212|305:269,1,115,0|0,0:0|3:0,0:0:0:0:
288,340,98945,1,0,3:0:0:0:
288,340,99010,1,8,0:0:0:0:
198,169,99140,1,8,0:0:0:0:
453,158,99271,6,0,P|408:58|299:49,2,230,6|8|0,3:2|0:0|3:0,0:0:0:0:
208,282,99923,1,0,3:0:0:0:
352,138,100054,2,0,L|329:255,1,115,8|0,0:0|3:0,0:0:0:0:
117,371,100314,6,0,L|94:258,1,115,2|0,3:2|3:0,0:0:0:0:
35,13,100575,1,8,0:0:0:0:
239,185,100706,1,0,3:0:0:0:
12,146,100836,5,8,0:0:0:0:
176,22,100967,1,8,0:3:0:0:
208,282,101097,1,0,3:0:0:0:
43,162,101227,1,0,3:0:0:0:
303,24,101358,6,0,P|368:42|432:53,1,115,6|0,0:2|3:0,0:0:0:0:
272,196,101554,1,0,0:0:0:0:
256,223,101619,2,0,P|239:157|216:96,1,115,8|0,0:0|3:0,0:0:0:0:
456,172,101880,2,0,P|407:219|366:269,1,115,8|0,0:0|3:0,0:0:0:0:
340,131,102140,1,8,0:0:0:0:
340,131,102271,1,0,3:0:0:0:
284,367,102401,5,10,0:2:0:0:
284,367,102532,1,0,3:0:0:0:
121,196,102662,1,8,0:0:0:0:
121,196,102793,1,0,3:0:0:0:
399,268,102923,5,8,0:0:0:0:
145,327,103054,1,0,3:0:0:0:
210,82,103184,5,8,0:0:0:0:
284,367,103314,1,0,3:0:0:0:
396,135,103445,6,0,B|263:159|340:225|195:246,1,230,6|8,3:2|0:0,0:0:0:0:
399,268,103836,1,0,3:0:0:0:
237,6,103967,2,0,L|214:126,1,115,8|0,0:0|3:0,0:0:0:0:
29,369,104227,2,0,L|52:249,1,115,8|0,0:0|3:0,0:0:0:0:
103,34,104488,5,10,0:0:0:0:
20,142,104619,2,0,P|76:172|137:165,1,115,0|8,3:0|0:0,0:0:0:0:
326,109,104880,1,0,3:0:0:0:
103,34,105010,5,8,0:0:0:0:
158,288,105140,1,8,0:0:0:0:
434,106,105271,5,8,0:0:0:0:
379,360,105401,1,8,0:0:0:0:
235,184,105532,6,0,B|319:202|319:202|349:247|349:247|447:270,2,230,6|8|0,3:0|0:0|3:0,0:0:0:0:
429,148,106184,1,0,3:0:0:0:
252,287,106314,1,8,0:0:0:0:
174,15,106445,6,0,B|149:164|149:164|161:117|212:90,1,230,2|0,3:2|3:0,0:0:0:0:
505,62,106836,2,0,L|385:39,1,115,8|0,0:0|3:0,0:0:0:0:
252,287,107097,2,0,L|372:310,1,115,0|0,0:0|3:0,0:0:0:0:
440,324,107293,1,0,3:0:0:0:
440,324,107358,1,8,0:0:0:0:
314,127,107488,1,0,3:0:0:0:
187,380,107619,6,0,P|142:285|208:186,1,230,6|0,3:2|3:0,0:0:0:0:
502,187,108010,2,0,P|455:219|395:221,1,115,8|0,0:0|3:0,0:0:0:0:
192,86,108271,1,0,3:0:0:0:
450,10,108401,2,0,L|425:138,1,115,10|0,0:0|3:0,0:0:0:0:
368,347,108662,6,0,L|241:323,1,126.500003860474,6|0,3:2|3:0,0:0:0:0:
123,156,108858,1,0,3:0:0:0:
90,176,108923,2,0,L|228:204,1,137.999995788574,6|0,3:2|3:0,0:0:0:0:
409,88,109119,1,0,3:0:0:0:
427,122,109184,2,0,L|275:88,1,149.499993156433,10|8,0:0|0:3,0:0:0:0:
160,61,109380,1,8,0:3:0:0:
192,85,109445,6,0,L|211:1,1,86.2500032901765,0|0,3:0|3:0,0:0:0:0:
321,178,109575,2,0,L|302:262,1,86.2500032901765,0|0,3:0|3:0,0:0:0:0:
59,353,109706,5,6,0:0:0:0:
