osu file format v14

[General]
AudioFilename: audio.mp3
AudioLeadIn: 0
PreviewTime: 81249
Countdown: 0
SampleSet: Soft
StackLeniency: 0.7
Mode: 3
LetterboxInBreaks: 0
SpecialStyle: 0
WidescreenStoryboard: 0

[Editor]
Bookmarks: 871,14836,15249,28490,41731,53317,54973,81455,121180
DistanceSpacing: 1
BeatDivisor: 2
GridSize: 4
TimelineZoom: 1

[Metadata]
Title:Setsuna Trip (Short Ver.)
TitleUnicode:セツナトリップ (Short Ver.)
Artist:Last Note.
ArtistUnicode:Last Note.
Creator:deetsiu
Version:Easy
Source:
Tags:Last Note Setsuna Trip Short Ver No_Sync Etsu deetsiu gumi vocaloid
BeatmapID:1232738
BeatmapSetID:582540

[Difficulty]
HPDrainRate:5
CircleSize:4
OverallDifficulty:5.5
ApproachRate:5
SliderMultiplier:0.5
SliderTickRate:1

[Events]
//Background and Video events
0,0,"maxresdefault.jpg",0,0
//Break Periods
//Storyboard Layer 0 (Background)
//Storyboard Layer 1 (Fail)
//Storyboard Layer 2 (Pass)
//Storyboard Layer 3 (Foreground)
//Storyboard Sound Samples

[TimingPoints]
871,413.793103448276,4,2,0,30,1,0
14836,206.896551724138,4,2,0,30,1,0
14836,-200,4,2,0,30,0,0
15249,206.896551724138,4,2,0,30,1,0
15249,-200,4,2,0,30,0,1
28490,413.793103448276,4,2,0,30,1,0
28490,-100,4,2,0,30,0,0
41731,206.896551724138,4,2,0,30,1,0
41731,-200,4,2,0,30,0,1
53317,-200,4,2,0,30,0,0
54144,-200,4,2,0,30,0,0
54972,-100,4,2,0,30,0,0
54973,413.793103448276,4,2,0,30,1,0
81455,206.896551724138,4,2,0,30,1,0
81455,-200,4,2,0,30,0,1
121180,-200,4,2,0,30,0,0

[HitObjects]
320,192,14836,5,0,0:0:0:0:
448,192,15249,128,0,16076:0:0:0:0:
64,192,16076,128,0,16904:0:0:0:0:
320,192,16904,128,0,18559:0:0:0:0:
192,192,18559,128,0,19386:0:0:0:0:
448,192,19386,128,0,20214:0:0:0:0:
64,192,20214,128,0,21869:0:0:0:0:
192,192,21869,128,0,22697:0:0:0:0:
320,192,22697,128,0,23524:0:0:0:0:
64,192,23524,128,0,25180:0:0:0:0:
320,192,25180,128,0,26007:0:0:0:0:
192,192,26007,128,0,26835:0:0:0:0:
448,192,26835,128,0,28490:0:0:0:0:
320,192,28490,1,0,0:0:0:0:
192,192,28904,1,0,0:0:0:0:
448,192,29317,1,0,0:0:0:0:
64,192,29731,1,0,0:0:0:0:
192,192,30145,1,0,0:0:0:0:
448,192,30559,1,0,0:0:0:0:
64,192,30973,1,0,0:0:0:0:
192,192,31386,1,0,0:0:0:0:
320,192,31800,1,0,0:0:0:0:
448,192,32214,1,0,0:0:0:0:
192,192,32628,1,0,0:0:0:0:
448,192,33042,1,0,0:0:0:0:
64,192,33455,1,0,0:0:0:0:
320,192,33869,1,0,0:0:0:0:
192,192,34283,1,0,0:0:0:0:
448,192,34697,1,0,0:0:0:0:
64,192,35111,128,0,35524:0:0:0:0:
448,192,35524,128,0,35938:0:0:0:0:
192,192,35938,128,0,36352:0:0:0:0:
320,192,36352,128,0,36766:0:0:0:0:
64,192,36766,128,0,37180:0:0:0:0:
448,192,37180,128,0,37593:0:0:0:0:
320,192,37593,1,0,0:0:0:0:
64,192,38007,1,0,0:0:0:0:
192,192,38421,1,0,0:0:0:0:
448,192,38835,1,0,0:0:0:0:
64,192,39249,1,0,0:0:0:0:
320,192,39662,1,0,0:0:0:0:
64,192,40076,1,0,0:0:0:0:
192,192,40490,1,0,0:0:0:0:
448,192,40904,1,0,0:0:0:0:
192,192,41317,1,0,0:0:0:0:
320,192,41524,1,0,0:0:0:0:
448,192,41731,128,0,43386:0:0:0:0:
320,192,43386,128,0,45042:0:0:0:0:
64,192,45042,128,0,46697:0:0:0:0:
192,192,46697,128,0,48352:0:0:0:0:
448,192,48352,128,0,50007:0:0:0:0:
320,192,50007,128,0,51662:0:0:0:0:
64,192,51662,128,0,53317:0:0:0:0:
192,192,53317,128,0,53524:0:0:0:0:
448,192,53524,128,0,53731:0:0:0:0:
64,192,53731,128,0,53938:0:0:0:0:
320,192,53938,128,0,54145:0:0:0:0:
192,192,54145,128,0,54973:0:0:0:0:
448,192,54973,128,0,55800:0:0:0:0:
320,192,55800,128,0,56628:0:0:0:0:
64,192,56628,128,0,57455:0:0:0:0:
192,192,57455,128,0,58283:0:0:0:0:
448,192,58283,128,0,59938:0:0:0:0:
192,192,59938,128,0,60766:0:0:0:0:
448,192,60766,128,0,61593:0:0:0:0:
320,192,61593,1,0,0:0:0:0:
192,192,61800,1,0,0:0:0:0:
320,192,62007,1,0,0:0:0:0:
64,192,62214,1,0,0:0:0:0:
192,192,62421,1,0,0:0:0:0:
320,192,62628,1,0,0:0:0:0:
448,192,62835,1,0,0:0:0:0:
192,192,63042,1,0,0:0:0:0:
448,192,63249,128,0,63662:0:0:0:0:
192,192,63662,128,0,64076:0:0:0:0:
320,192,64076,128,0,64490:0:0:0:0:
64,192,64490,128,0,64904:0:0:0:0:
448,192,64904,128,0,65731:0:0:0:0:
320,192,65731,128,0,66559:0:0:0:0:
64,192,66559,128,0,67386:0:0:0:0:
192,192,67386,128,0,68214:0:0:0:0:
448,192,68214,128,0,69869:0:0:0:0:
320,192,69042,1,0,0:0:0:0:
64,192,69869,128,0,71524:0:0:0:0:
192,192,70697,1,0,0:0:0:0:
320,192,71524,128,0,73180:0:0:0:0:
192,192,72352,1,0,0:0:0:0:
64,192,73180,128,0,74835:0:0:0:0:
192,192,74007,1,0,0:0:0:0:
192,192,74835,128,0,75249:0:0:0:0:
448,192,75249,128,0,75662:0:0:0:0:
64,192,75662,128,0,76076:0:0:0:0:
320,192,76076,128,0,76490:0:0:0:0:
64,192,76490,128,0,76904:0:0:0:0:
192,192,76904,128,0,77317:0:0:0:0:
64,192,77317,128,0,77731:0:0:0:0:
320,192,77731,128,0,78145:0:0:0:0:
448,192,78145,128,0,78559:0:0:0:0:
320,192,78559,1,0,0:0:0:0:
192,192,78766,1,0,0:0:0:0:
320,192,78973,1,0,0:0:0:0:
192,192,79180,1,0,0:0:0:0:
448,192,79386,1,0,0:0:0:0:
320,192,79593,1,0,0:0:0:0:
64,192,79800,128,0,80421:0:0:0:0:
448,192,80421,128,0,81455:0:0:0:0:
320,192,81455,1,0,0:0:0:0:
64,192,81869,1,0,0:0:0:0:
192,192,82283,1,0,0:0:0:0:
448,192,82697,1,0,0:0:0:0:
192,192,83111,1,0,0:0:0:0:
64,192,83524,1,0,0:0:0:0:
448,192,83938,1,0,0:0:0:0:
192,192,84352,1,0,0:0:0:0:
448,192,84559,1,0,0:0:0:0:
320,192,84662,1,0,0:0:0:0:
192,192,84766,1,0,0:0:0:0:
64,192,84973,1,0,0:0:0:0:
192,192,85076,1,0,0:0:0:0:
320,192,85180,1,0,0:0:0:0:
448,192,85386,1,0,0:0:0:0:
320,192,85490,1,0,0:0:0:0:
192,192,85593,1,0,0:0:0:0:
448,192,86007,1,0,0:0:0:0:
64,192,86421,1,0,0:0:0:0:
320,192,86835,1,0,0:0:0:0:
192,192,87249,1,0,0:0:0:0:
448,192,87662,1,0,0:0:0:0:
64,192,88076,1,0,0:0:0:0:
320,192,88490,1,0,0:0:0:0:
192,192,88904,1,0,0:0:0:0:
448,192,89317,1,0,0:0:0:0:
64,192,89731,1,0,0:0:0:0:
448,192,90145,1,0,0:0:0:0:
320,192,90559,1,0,0:0:0:0:
448,192,90973,1,0,0:0:0:0:
64,192,91180,1,0,0:0:0:0:
192,192,91283,1,0,0:0:0:0:
320,192,91386,1,0,0:0:0:0:
448,192,91593,1,0,0:0:0:0:
320,192,91697,1,0,0:0:0:0:
192,192,91800,1,0,0:0:0:0:
64,192,92007,1,0,0:0:0:0:
192,192,92111,1,0,0:0:0:0:
320,192,92214,1,0,0:0:0:0:
64,192,92628,1,0,0:0:0:0:
448,192,93042,128,0,93869:0:0:0:0:
192,192,93869,128,0,94697:0:0:0:0:
320,192,94697,1,0,0:0:0:0:
64,192,95111,128,0,95524:0:0:0:0:
448,192,95524,128,0,95938:0:0:0:0:
192,192,95938,128,0,96352:0:0:0:0:
320,192,96352,128,0,96766:0:0:0:0:
64,192,96766,128,0,97180:0:0:0:0:
192,192,97180,128,0,97593:0:0:0:0:
320,192,97593,1,0,0:0:0:0:
448,192,97800,1,0,0:0:0:0:
320,192,97904,1,0,0:0:0:0:
192,192,98007,1,0,0:0:0:0:
64,192,98214,1,0,0:0:0:0:
192,192,98317,1,0,0:0:0:0:
320,192,98421,1,0,0:0:0:0:
448,192,98628,1,0,0:0:0:0:
320,192,98731,1,0,0:0:0:0:
192,192,98835,1,0,0:0:0:0:
64,192,99249,1,0,0:0:0:0:
192,192,99662,128,0,100076:0:0:0:0:
448,192,100076,128,0,100490:0:0:0:0:
320,192,100490,128,0,101317:0:0:0:0:
64,192,101317,128,0,101731:0:0:0:0:
192,192,101731,1,0,0:0:0:0:
448,192,102145,1,0,0:0:0:0:
64,192,102559,1,0,0:0:0:0:
192,192,102973,1,0,0:0:0:0:
320,192,103386,1,0,0:0:0:0:
448,192,103800,128,0,104214:0:0:0:0:
64,192,104214,1,0,0:0:0:0:
192,192,104421,1,0,0:0:0:0:
320,192,104524,1,0,0:0:0:0:
448,192,104628,1,0,0:0:0:0:
320,192,104835,1,0,0:0:0:0:
192,192,104938,1,0,0:0:0:0:
64,192,105042,1,0,0:0:0:0:
192,192,105249,1,0,0:0:0:0:
320,192,105352,1,0,0:0:0:0:
448,192,105455,1,0,0:0:0:0:
64,192,105869,1,0,0:0:0:0:
448,192,106283,128,0,107111:0:0:0:0:
64,192,107111,128,0,107938:0:0:0:0:
192,192,107938,128,0,109593:0:0:0:0:
320,192,109593,128,0,111249:0:0:0:0:
64,192,111249,128,0,112904:0:0:0:0:
448,192,112904,128,0,114559:0:0:0:0:
192,192,114559,128,0,116214:0:0:0:0:
320,192,116214,128,0,117869:0:0:0:0:
64,192,117869,128,0,119524:0:0:0:0:
192,192,119524,128,0,119731:0:0:0:0:
448,192,119835,128,0,120145:0:0:0:0:
64,192,120145,128,0,120352:0:0:0:0:
192,192,120352,128,0,120766:0:0:0:0:
320,192,120766,128,0,121180:0:0:0:0:
448,192,121180,1,0,0:0:0:0:
