osu file format v14

[General]
AudioFilename: audio.mp3
AudioLeadIn: 1500
PreviewTime: 62427
Countdown: 1
SampleSet: Soft
StackLeniency: 0.3
Mode: 0
LetterboxInBreaks: 0
WidescreenStoryboard: 1

[Editor]
Bookmarks: 11143,21521,31900,42278,52656,63035,79900,81197,91575,96764,101954,112332,129197,130494,140873,151251,161629,172008,182386,183683,194062,201846,218710,220008,230386,231683,233305
DistanceSpacing: 1
BeatDivisor: 4
GridSize: 8
TimelineZoom: 2.699999

[Metadata]
Title:Mukiryoku Coup D'Etat
TitleUnicode:無気力クーデター
Artist:Last Note.
ArtistUnicode:Last Note.
Creator:Ryuusei Aika
Version:soncak's Expert
Source:
Tags:no_gu addy2607 kaedeharakazuha narcissu klaksoncakfish japanese rock j-rock jrock the perennial 2022 gf hd2 grand winner loser finals d'État メグッポイド グミ megpoid gumi vocaloid ボーカロイド ボカロ ミカグラ学園組曲 赤間 遊兎 もやし メリケン 色白 明菜
BeatmapID:3686466
BeatmapSetID:1789331

[Difficulty]
HPDrainRate:4.6
CircleSize:4.7
OverallDifficulty:8
ApproachRate:8
SliderMultiplier:1.6
SliderTickRate:1

[Events]
//Background and Video events
0,0,"BG.jpg",0,0
//Break Periods
2,183883,192825
//Storyboard Layer 0 (Background)
//Storyboard Layer 1 (Fail)
//Storyboard Layer 2 (Pass)
//Storyboard Layer 3 (Foreground)
//Storyboard Layer 4 (Overlay)
//Storyboard Sound Samples

[TimingPoints]
765,324.324324324324,4,2,1,55,1,0
1413,-90.9090909090909,4,2,1,55,0,0
10494,-66.6666666666667,4,2,1,55,0,0
11143,-90.9090909090909,4,2,1,70,0,0
21521,-111.111111111111,4,2,1,55,0,0
31575,-100,4,2,1,60,0,0
31900,-90.9090909090909,4,2,1,70,0,0
42278,-100,4,2,1,55,0,0
52008,-100,4,2,1,60,0,0
52656,-111.111111111111,4,2,1,60,0,0
57846,-86.9565217391304,4,2,1,65,0,0
61575,-50,4,2,1,65,0,0
61900,-66.6666666666667,4,2,1,65,0,0
62062,-50,4,2,1,75,0,0
62548,-133.333333333333,4,2,1,75,0,0
63035,-66.6666666666667,4,2,1,80,0,1
71954,-50,4,2,1,80,0,1
73413,-66.6666666666667,4,2,1,80,0,1
79737,-83.3333333333333,4,2,1,70,0,0
91575,-100,4,2,1,40,0,0
94008,-100,4,2,1,50,0,0
96278,-100,4,2,1,5,0,0
96359,-100,4,2,1,50,0,0
96440,-100,4,2,1,70,0,0
96764,-90.9090909090909,4,2,1,55,0,0
101143,-66.6666666666667,4,2,1,55,0,0
101305,-66.6666666666667,4,2,1,60,0,0
101954,-100,4,2,1,60,0,0
107143,-83.3333333333333,4,2,1,70,0,0
110873,-55.5555555555556,4,2,1,70,0,0
112008,-100,4,2,1,70,0,0
112332,-66.6666666666667,4,2,1,80,0,1
121251,-50,4,2,1,80,0,1
122224,-66.6666666666667,4,2,1,80,0,1
129035,-100,4,2,1,70,0,0
129846,-133.333333333333,4,2,1,70,0,0
130494,-90.9090909090909,4,2,1,70,0,0
140873,-83.3333333333333,4,2,1,70,0,0
151251,-74.0740740740741,4,2,1,70,0,1
159035,-83.3333333333333,4,2,1,70,0,0
161629,-74.0740740740741,4,2,1,85,0,1
170548,-74.0740740740741,4,2,1,70,0,1
172008,-100,4,2,1,70,0,0
173305,-100,4,2,1,65,0,0
173954,-100,4,2,1,60,0,0
174602,-100,4,2,1,55,0,0
177197,-86.9565217391304,4,2,1,60,0,0
179629,-86.9565217391304,4,2,1,65,0,0
180927,-55.5555555555556,4,2,1,65,0,0
182386,-100,4,2,1,50,0,0
183683,-133.333333333333,4,2,1,50,0,0
201846,-66.6666666666667,4,2,1,80,0,1
210764,-50,4,2,1,80,0,1
211900,-66.6666666666667,4,2,1,80,0,1
218548,-133.333333333333,4,2,1,70,0,0
220008,-90.9090909090909,4,2,1,70,0,0
231521,-166.666666666667,4,2,1,70,0,0
231683,-166.666666666667,4,2,1,5,0,0
232008,-166.666666666667,4,2,1,50,0,0

[Colours]
Combo1 : 206,206,206
Combo2 : 0,196,152
Combo3 : 255,64,64

[HitObjects]
26,93,765,5,4,1:1:0:0:
196,58,927,1,10,0:0:0:0:
36,77,1089,1,0,1:0:0:0:
105,64,1251,1,2,0:0:0:0:
173,49,1413,2,0,P|231:68|284:83,1,88.000002685547,10|4,0:0|0:3,0:0:0:0:
324,96,1656,1,4,0:3:0:0:
336,99,1737,1,2,1:0:0:0:
308,25,1900,1,8,0:0:0:0:
434,34,2062,5,0,1:0:0:0:
319,15,2224,1,10,0:0:0:0:
403,114,2386,1,0,1:0:0:0:
356,170,2548,1,2,0:0:0:0:
392,252,2710,2,0,P|363:196|387:160,1,88.000002685547,10|2,0:0|0:0,0:0:0:0:
444,181,3035,1,2,1:0:0:0:
444,181,3197,1,10,0:0:0:0:
381,354,3359,5,0,1:0:0:0:
498,250,3521,2,0,P|440:258|391:264,1,88.000002685547,10|2,0:0|1:0,0:0:0:0:
293,251,3846,1,0,0:0:0:0:
313,326,4008,2,0,P|264:313|212:304,1,88.000002685547,10|4,0:0|0:3,0:0:0:0:
85,305,4332,1,10,0:0:0:0:
72,307,4413,1,8,0:0:0:0:
59,312,4494,1,8,0:0:0:0:
220,382,4656,5,0,1:0:0:0:
154,282,4819,1,10,0:0:0:0:
229,300,4981,1,0,1:0:0:0:
212,230,5143,1,2,1:0:0:0:
196,161,5305,2,0,P|211:127|276:101,1,88.000002685547,10|0,0:0|1:0,0:0:0:0:
96,234,5629,1,0,1:0:0:0:
83,231,5710,1,8,0:3:0:0:
69,228,5792,1,10,0:0:0:0:
88,13,5954,5,6,1:1:0:0:
116,162,6116,1,8,0:0:0:0:
144,59,6278,1,0,1:0:0:0:
54,74,6440,1,2,0:0:0:0:
113,145,6602,2,0,P|184:123|230:114,1,88.000002685547,8|4,0:0|0:3,0:0:0:0:
260,95,6846,1,4,0:3:0:0:
265,82,6927,1,4,0:3:0:0:
410,32,7089,1,10,0:0:0:0:
279,5,7251,5,0,0:0:0:0:
392,107,7413,1,10,0:0:0:0:
266,110,7575,1,2,1:0:0:0:
341,158,7737,1,0,1:0:0:0:
273,182,7900,2,0,P|305:224|355:224,1,88.000002685547,10|0,0:0|0:0,0:0:0:0:
403,200,8143,1,4,0:3:0:0:
409,188,8224,1,2,1:0:0:0:
330,75,8386,1,8,0:0:0:0:
202,192,8548,5,0,1:0:0:0:
202,192,8710,1,10,0:0:0:0:
250,277,8873,5,0,1:0:0:0:
140,152,9035,1,0,0:0:0:0:
103,315,9197,1,10,0:0:0:0:
153,260,9359,5,2,1:0:0:0:
34,317,9521,1,2,0:0:0:0:
73,126,9683,1,8,0:0:0:0:
0,233,9846,5,0,1:0:0:0:
0,233,10008,1,10,0:0:0:0:
150,166,10170,5,0,1:0:0:0:
150,166,10332,1,8,0:0:0:0:
48,143,10494,6,0,B|64:87|-10:94|33:0,1,120.000004577637,8|8,0:0|0:0,0:0:0:0:
170,3,10819,5,8,0:0:0:0:
189,25,10900,1,8,0:0:0:0:
216,37,10981,1,8,0:0:0:0:
245,38,11062,1,8,0:0:0:0:
273,30,11143,5,4,0:0:0:0:
375,145,11305,1,2,0:0:0:0:
224,175,11467,1,8,0:0:0:0:
276,47,11629,5,8,0:0:0:0:
358,139,11791,1,4,0:3:0:0:
237,163,11953,1,4,0:3:0:0:
440,49,12116,6,0,P|466:42|489:36,3,29.3333342285157,8|2|2|2,0:0|0:0|0:0|0:0,0:0:0:0:
338,6,12440,1,2,0:0:0:0:
435,130,12602,1,4,0:3:0:0:
414,122,12683,1,4,0:3:0:0:
392,118,12764,1,8,0:0:0:0:
327,167,12927,1,8,0:0:0:0:
192,253,13089,5,8,3:0:0:0:
212,242,13170,1,8,3:0:0:0:
233,235,13251,1,8,3:0:0:0:
255,230,13332,1,8,3:0:0:0:
277,227,13413,1,8,0:0:0:0:
191,56,13575,1,4,0:0:0:0:
185,36,13900,5,4,0:3:0:0:
258,139,14062,1,10,0:0:0:0:
238,150,14143,1,2,0:0:0:0:
217,157,14224,1,10,0:0:0:0:
195,162,14305,1,2,0:0:0:0:
173,165,14386,2,0,P|114:150|69:142,2,88.000002685547,4|4|8,0:3|0:3|0:0,0:0:0:0:
259,336,14873,1,4,0:0:0:0:
265,356,15198,5,4,0:3:0:0:
128,299,15359,1,10,0:0:0:0:
107,292,15440,1,2,0:0:0:0:
107,270,15521,1,10,0:0:0:0:
128,263,15602,1,2,0:0:0:0:
140,281,15683,1,4,0:3:0:0:
7,370,15846,1,4,0:3:0:0:
32,288,16008,2,0,P|2:295|-29:302,3,44.0000013427735,8|4|4|4,0:0|0:3|0:3|0:3,0:0:0:0:
41,267,16332,5,4,0:0:0:0:
0,186,16494,1,0,0:0:0:0:
103,225,16656,1,8,0:0:0:0:
42,106,16819,5,8,0:0:0:0:
120,225,16981,1,4,0:3:0:0:
138,71,17143,1,4,0:3:0:0:
225,172,17305,6,0,P|256:179|276:182,3,29.3333342285157,8|2|2|2,0:0|0:0|0:0|0:0,0:0:0:0:
127,53,17629,1,0,0:0:0:0:
237,102,17792,1,4,0:3:0:0:
258,106,17873,1,4,0:3:0:0:
279,110,17954,1,8,0:0:0:0:
340,157,18116,1,8,0:0:0:0:
384,8,18278,5,8,0:3:0:0:
404,15,18359,1,8,0:3:0:0:
418,31,18440,1,8,0:3:0:0:
425,51,18521,1,8,0:3:0:0:
424,72,18602,1,8,0:0:0:0:
279,110,18764,1,4,0:0:0:0:
265,115,19089,5,0,0:0:0:0:
451,216,19251,5,10,0:0:0:0:
431,209,19332,1,2,0:0:0:0:
417,193,19413,1,10,0:0:0:0:
410,173,19494,1,2,0:0:0:0:
411,152,19575,2,0,P|469:132|505:119,2,88.000002685547,4|4|8,0:3|0:3|0:0,0:0:0:0:
501,281,20062,1,4,0:0:0:0:
512,292,20386,6,0,P|482:301|445:316,1,44.0000013427735,4|4,0:3|0:3,0:0:0:0:
348,317,20548,5,10,0:0:0:0:
334,334,20629,1,2,0:0:0:0:
328,355,20710,1,10,0:0:0:0:
313,338,20792,1,2,0:0:0:0:
295,324,20873,1,0,0:0:0:0:
399,362,21035,1,8,0:0:0:0:
306,253,21197,6,0,P|281:247|234:251,1,44.0000013427735,8|4,0:0|0:3,0:0:0:0:
224,312,21359,2,0,P|201:314|165:329,1,44.0000013427735,4|4,0:3|0:3,0:0:0:0:
174,364,21521,5,6,1:2:0:0:
142,260,21683,2,0,P|98:253|37:246,1,71.9999978027344,0|8,0:0|0:0,0:0:0:0:
0,252,22008,2,0,L|54:261,1,35.9999989013672,2|2,0:0|0:0,0:0:0:0:
111,187,22170,1,0,0:0:0:0:
18,158,22332,6,0,P|61:164|121:169,1,71.9999978027344,2|8,0:0|0:0,0:0:0:0:
165,175,22656,1,2,0:0:0:0:
200,31,22819,1,0,0:0:0:0:
238,94,22981,6,0,P|187:103|146:76,1,71.9999978027344,2|8,0:0|0:0,0:0:0:0:
93,32,23305,1,2,0:0:0:0:
106,20,23386,1,2,0:0:0:0:
122,13,23467,1,2,0:0:0:0:
274,30,23629,6,0,P|307:70|303:119,1,71.9999978027344,2|8,0:0|0:0,0:0:0:0:
282,157,23954,1,0,0:0:0:0:
467,43,24116,1,6,0:2:0:0:
512,126,24278,6,0,P|459:118|407:109,1,71.9999978027344,2|8,0:0|0:0,0:0:0:0:
370,102,24602,1,2,0:0:0:0:
485,191,24764,1,0,0:0:0:0:
345,190,24927,2,0,P|398:198|450:207,1,71.9999978027344,2|8,0:0|0:0,0:0:0:0:
494,212,25251,1,2,0:0:0:0:
440,288,25413,1,2,0:0:0:0:
284,131,25575,1,2,0:0:0:0:
275,226,25737,1,8,0:0:0:0:
370,102,25900,1,2,0:0:0:0:
385,98,26224,5,10,0:0:0:0:
271,247,26386,1,4,3:0:0:0:
225,29,26548,1,4,3:0:0:0:
170,134,26710,5,6,1:2:0:0:
147,37,26873,2,0,P|99:42|49:46,1,71.9999978027344,2|8,0:0|0:0,0:0:0:0:
9,63,27197,2,0,L|69:59,1,35.9999989013672,2|2,0:0|0:0,0:0:0:0:
154,115,27359,1,0,0:0:0:0:
17,152,27521,2,0,P|65:147|115:143,1,71.9999978027344,2|8,0:0|0:0,0:0:0:0:
170,134,27846,1,2,0:0:0:0:
84,269,28008,1,0,0:0:0:0:
168,222,28170,6,0,P|136:263|93:266,1,71.9999978027344,2|8,0:0|0:0,0:0:0:0:
28,224,28494,1,2,0:0:0:0:
232,181,28656,1,0,0:0:0:0:
271,247,28819,2,0,P|291:295|271:341,1,71.9999978027344,2|8,0:0|0:0,0:0:0:0:
236,368,29143,1,2,0:0:0:0:
439,281,29305,1,6,0:2:0:0:
482,353,29467,6,0,P|434:358|381:362,1,71.9999978027344,2|8,0:0|0:0,0:0:0:0:
339,365,29792,1,2,0:0:0:0:
472,279,29954,1,0,0:0:0:0:
332,273,30116,6,0,P|380:268|433:264,1,71.9999978027344,2|8,0:0|0:0,0:0:0:0:
484,260,30441,1,2,0:0:0:0:
341,185,30602,1,0,0:0:0:0:
322,100,30764,1,2,0:0:0:0:
463,31,30927,1,8,0:0:0:0:
424,180,31089,1,2,0:0:0:0:
420,199,31413,5,8,0:0:0:0:
265,55,31575,1,8,0:0:0:0:
209,130,31737,1,0,0:0:0:0:
188,133,31819,1,8,0:0:0:0:
168,129,31900,5,4,0:0:0:0:
56,21,32062,1,2,0:0:0:0:
19,174,32224,1,8,0:0:0:0:
127,59,32386,5,8,0:0:0:0:
99,173,32548,1,4,0:3:0:0:
13,92,32710,1,4,0:3:0:0:
124,245,32873,6,0,P|131:270|136:290,3,29.3333342285157,8|2|2|2,0:0|0:0|0:0|0:0,0:0:0:0:
26,162,33197,1,2,0:0:0:0:
51,265,33359,1,4,0:3:0:0:
57,286,33440,1,4,0:3:0:0:
62,307,33521,1,8,0:0:0:0:
12,370,33683,1,8,0:0:0:0:
203,322,33846,5,8,0:3:0:0:
224,328,33927,1,8,0:3:0:0:
245,334,34008,1,8,0:3:0:0:
266,340,34089,1,8,0:3:0:0:
286,346,34170,1,8,0:0:0:0:
426,348,34332,1,4,0:0:0:0:
444,352,34656,5,4,0:3:0:0:
308,274,34819,5,10,0:0:0:0:
287,268,34900,1,2,0:0:0:0:
266,262,34981,1,10,0:0:0:0:
245,256,35062,1,2,0:0:0:0:
225,250,35143,2,0,P|216:205|204:150,2,88.000002685547,4|4|8,0:3|0:3|0:0,0:0:0:0:
85,248,35629,1,4,0:0:0:0:
67,244,35954,5,4,0:3:0:0:
125,81,36116,1,10,0:0:0:0:
150,96,36197,1,2,0:0:0:0:
134,122,36278,1,10,0:0:0:0:
109,106,36359,1,2,0:0:0:0:
128,100,36440,1,4,0:3:0:0:
52,46,36602,1,4,0:3:0:0:
183,20,36764,6,0,P|214:12|247:6,3,44.0000013427735,8|4|4|4,0:0|0:3|0:3|0:3,0:0:0:0:
210,34,37089,5,4,0:0:0:0:
368,11,37251,1,0,0:0:0:0:
308,114,37413,1,8,0:0:0:0:
387,6,37575,5,8,0:0:0:0:
471,42,37737,1,4,0:3:0:0:
381,82,37900,1,4,0:3:0:0:
493,139,38062,6,0,P|491:153|489:168,3,29.3333342285157,8|2|2|2,0:0|0:0|0:0|0:0,0:0:0:0:
492,35,38386,1,0,0:0:0:0:
417,155,38548,5,4,0:3:0:0:
417,185,38629,1,4,0:3:0:0:
419,215,38710,1,8,0:0:0:0:
491,244,38873,1,8,0:0:0:0:
385,297,39035,5,8,0:3:0:0:
368,271,39116,1,8,0:3:0:0:
342,253,39197,1,8,0:3:0:0:
312,244,39278,1,8,0:3:0:0:
281,246,39359,1,8,0:0:0:0:
390,372,39521,1,4,0:0:0:0:
413,368,39846,5,0,0:0:0:0:
281,246,40008,5,10,0:0:0:0:
274,276,40089,1,2,0:0:0:0:
256,302,40170,1,10,0:0:0:0:
231,321,40251,1,2,0:0:0:0:
202,330,40332,2,0,P|139:309|97:299,2,88.000002685547,4|4|8,0:3|0:3|0:0,0:0:0:0:
286,170,40819,1,4,0:0:0:0:
309,174,41144,5,4,0:3:0:0:
202,244,41305,1,8,0:0:0:0:
208,213,41386,1,8,0:0:0:0:
186,190,41467,1,8,0:0:0:0:
180,221,41548,1,8,0:0:0:0:
202,244,41629,1,4,3:0:0:0:
118,303,41792,6,0,P|111:263|113:229,1,44.0000013427735,8|8,0:0|0:0,0:0:0:0:
36,209,41954,2,0,P|27:180|5:153,1,44.0000013427735,8|8,0:0|3:0,0:0:0:0:
66,112,42116,2,0,P|70:80|77:64,1,44.0000013427735,4|4,3:0|3:0,0:0:0:0:
60,37,42278,5,6,1:2:0:0:
138,100,42440,2,0,P|208:86|242:80,1,80,2|8,0:0|0:0,0:0:0:0:
272,43,42764,2,0,L|205:53,1,40,2|2,0:0|0:0,0:0:0:0:
180,173,42927,1,0,0:0:0:0:
317,148,43089,6,0,P|325:108|335:70,1,80,2|8,0:0|0:0,0:0:0:0:
353,0,43413,1,2,0:0:0:0:
502,120,43575,1,0,0:0:0:0:
385,171,43737,6,0,P|455:185|489:191,1,80,2|8,0:0|0:0,0:0:0:0:
512,234,44062,2,0,L|455:223,1,40,2|2,0:0|0:0,0:0:0:0:
400,100,44224,1,2,0:0:0:0:
352,252,44386,1,2,0:0:0:0:
282,147,44548,1,8,0:0:0:0:
252,227,44710,1,2,0:0:0:0:
170,68,44873,5,4,3:2:0:0:
147,144,45035,2,0,P|103:177|49:165,1,80,2|8,0:0|0:0,0:0:0:0:
13,111,45359,1,2,0:0:0:0:
32,106,45440,1,2,0:0:0:0:
51,108,45521,1,0,0:0:0:0:
27,247,45683,6,0,P|76:270|97:326,1,80,2|8,0:0|0:0,0:0:0:0:
95,365,46008,1,2,0:0:0:0:
169,244,46170,6,0,P|234:260|272:270,1,80,0|2,0:0|0:0,0:0:0:0:
369,294,46494,1,8,0:0:0:0:
149,240,46656,1,6,0:3:0:0:
132,235,46981,5,8,0:0:0:0:
246,383,47143,1,0,1:0:0:0:
252,184,47305,1,4,3:0:0:0:
323,353,47467,5,6,1:2:0:0:
366,296,47629,2,0,P|423:288|481:281,1,80,2|8,0:0|0:0,0:0:0:0:
510,252,47954,2,0,L|444:262,1,40,2|2,0:0|0:0,0:0:0:0:
326,204,48116,1,2,0:0:0:0:
414,83,48278,6,0,P|405:121|395:160,1,80,2|8,0:0|0:0,0:0:0:0:
371,267,48602,1,2,0:0:0:0:
506,161,48764,1,0,0:0:0:0:
458,3,48927,6,0,P|418:8|378:13,1,80,2|8,0:0|0:0,0:0:0:0:
312,41,49251,2,0,L|370:33,1,40,2|2,0:0|0:0,0:0:0:0:
425,86,49413,1,0,0:0:0:0:
226,28,49575,6,0,P|260:96|276:124,1,80,2|8,0:0|0:0,0:0:0:0:
295,165,49900,1,2,0:0:0:0:
154,37,50062,1,4,0:2:0:0:
38,158,50224,6,0,P|96:153|128:110,1,80,2|8,0:0|0:0,0:0:0:0:
147,52,50548,1,2,0:0:0:0:
127,53,50629,1,2,0:0:0:0:
110,64,50710,1,2,0:0:0:0:
1,218,50873,6,0,P|5:276|48:308,1,80,2|8,0:0|0:0,0:0:0:0:
84,326,51197,1,2,0:0:0:0:
187,221,51359,1,4,0:3:0:0:
72,240,51521,1,6,0:3:0:0:
198,374,51683,5,8,0:0:0:0:
326,247,51846,2,0,P|312:196|300:152,1,80,4|0,1:2|0:0,0:0:0:0:
201,359,52170,5,8,0:0:0:0:
144,290,52332,1,8,0:0:0:0:
202,223,52494,2,0,L|253:213,1,40,8|8,0:0|0:0,0:0:0:0:
375,332,52656,5,4,1:0:0:0:
375,332,52819,2,0,P|410:272|479:273,1,143.999995605469,8|0,0:0|0:0,0:0:0:0:
450,336,53305,1,8,0:0:0:0:
468,196,53467,2,0,P|464:168|462:151,3,35.9999989013672,8|8|0|0,0:0|0:0|1:0|0:0,0:0:0:0:
472,144,53792,6,0,P|485:110|507:75,1,71.9999978027344,8|0,0:0|1:0,0:0:0:0:
405,94,54116,2,0,P|399:58|400:16,1,71.9999978027344,8|0,0:0|1:0,0:0:0:0:
281,24,54440,1,0,1:0:0:0:
281,24,54602,2,0,P|298:56|321:84,1,71.9999978027344,8|4,0:0|0:3,0:0:0:0:
352,159,54927,2,0,P|344:181|353:159,1,71.9999978027344,0|8,1:0|0:0,0:0:0:0:
157,88,55251,6,0,P|112:63|105:25,2,71.9999978027344,4|8|0,1:2|0:0|1:0,0:0:0:0:
264,12,55737,1,8,0:0:0:0:
188,21,55900,2,0,P|180:86|169:167,1,143.999995605469,8|4,0:0|0:3,0:0:0:0:
46,246,56305,1,4,0:3:0:0:
29,238,56386,6,0,P|17:194|39:161,1,71.9999978027344,8|0,0:0|0:0,0:0:0:0:
112,197,56710,2,0,P|144:165|183:167,1,71.9999978027344,8|0,0:0|1:0,0:0:0:0:
187,247,57035,2,0,P|230:259|248:294,1,71.9999978027344,0|8,1:0|0:0,0:0:0:0:
181,338,57359,5,0,1:0:0:0:
77,366,57521,2,0,L|124:358,1,35.9999989013672,8|0,0:0|1:0,0:0:0:0:
188,354,57683,1,0,1:0:0:0:
274,384,57846,6,0,P|301:334|354:328,1,92.0000017547608,4|0,1:2|1:0,0:0:0:0:
510,343,58170,2,0,B|431:337|478:264|388:257,1,138.000002632141,8|0,0:0|0:0,0:0:0:0:
385,260,58494,1,0,0:0:0:0:
488,207,58656,1,0,1:0:0:0:
320,215,58819,1,8,0:0:0:0:
505,133,58981,6,0,P|437:78|393:18,1,138.000002632141,4|0,1:2|0:0,0:0:0:0:
411,16,59305,2,0,P|369:48|321:70,1,92.0000017547608,0|8,1:0|0:0,0:0:0:0:
257,170,59629,1,0,0:0:0:0:
368,129,59792,1,0,1:0:0:0:
224,34,59954,1,0,1:0:0:0:
383,122,60116,1,8,0:0:0:0:
191,213,60278,6,0,P|174:137|148:15,1,184.000003509522,4|0,1:2|1:0,0:0:0:0:
61,90,60683,1,0,0:0:0:0:
49,109,60764,2,0,P|115:120|163:125,1,92.0000017547608,8|0,0:0|0:0,0:0:0:0:
296,59,61089,5,0,1:0:0:0:
173,212,61251,1,0,1:0:0:0:
368,243,61413,1,8,0:0:0:0:
203,87,61575,6,0,B|228:56|219:19|219:19|290:50|298:125|258:172,1,240,4|0,1:2|0:0,0:0:0:0:
195,198,61900,2,0,P|235:181|270:172,1,60.0000022888184,0|0,1:0|1:0,0:0:0:0:
365,58,62062,6,0,P|356:104|348:148,1,80,12|0,0:0|0:0,0:0:0:0:
315,296,62224,1,12,0:0:0:0:
313,311,62548,6,0,P|353:310|366:240,1,120.000004577637,2|2,0:0|0:0,0:0:0:0:
353,36,63035,6,0,B|326:23|312:10|312:10|337:81|355:158,1,180.000006866455,6|0,3:2|0:0,0:0:0:0:
348,165,63359,1,8,0:0:0:0:
466,56,63521,1,4,0:3:0:0:
449,49,63602,1,8,0:0:0:0:
431,44,63683,1,2,0:0:0:0:
498,139,63846,1,4,0:3:0:0:
352,256,64008,1,8,0:0:0:0:
505,283,64170,6,0,B|464:230|370:282|439:378|332:345,1,180.000006866455,4|0,0:0|0:0,0:0:0:0:
357,339,64494,2,0,P|329:328|274:314,1,60.0000022888184,4|4,0:3|0:3,0:0:0:0:
178,303,64656,1,8,0:0:0:0:
278,213,64819,1,4,0:3:0:0:
298,183,64900,1,8,0:0:0:0:
301,147,64981,1,4,0:3:0:0:
283,115,65062,1,8,0:0:0:0:
251,97,65143,1,0,0:0:0:0:
102,191,65305,1,8,0:0:0:0:
231,162,65467,2,0,P|201:168|159:179,1,60.0000022888184,4|0,0:3|0:0,0:0:0:0:
11,270,65629,5,4,0:0:0:0:
82,63,65792,1,4,0:3:0:0:
173,201,65954,1,8,0:0:0:0:
21,140,66116,1,4,0:3:0:0:
38,136,66197,1,8,0:0:0:0:
55,133,66278,1,2,0:0:0:0:
100,202,66440,1,0,0:0:0:0:
10,37,66602,1,8,0:0:0:0:
172,111,66764,6,0,B|233:146|306:88|292:17|241:27|275:94,1,180.000006866455,4|0,0:0|0:0,0:0:0:0:
345,50,67089,2,0,P|342:18|317:-7,1,60.0000022888184,4|4,0:3|0:3,0:0:0:0:
193,35,67251,1,8,0:0:0:0:
337,121,67413,1,4,0:3:0:0:
354,122,67494,1,8,0:0:0:0:
371,116,67575,1,2,0:0:0:0:
422,53,67737,1,4,0:3:0:0:
389,237,67900,1,8,0:0:0:0:
425,36,68062,1,8,0:0:0:0:
512,205,68224,6,0,P|460:175|370:246,1,180.000006866455,4|0,3:2|0:0,0:0:0:0:
380,252,68548,2,0,P|367:289|296:283,1,120.000004577637,8|4,0:0|0:3,0:0:0:0:
190,137,68873,1,2,0:0:0:0:
271,131,69035,1,4,0:3:0:0:
271,154,69116,1,4,0:3:0:0:
262,176,69197,1,8,0:0:0:0:
16,159,69359,6,0,P|91:140|200:110,1,180.000006866455,4|0,0:0|0:0,0:0:0:0:
200,91,69683,2,0,P|204:60|209:19,1,60.0000022888184,4|4,0:3|0:3,0:0:0:0:
39,0,69846,1,8,0:0:0:0:
132,24,70008,2,0,P|128:53|124:83,2,60.0000022888184,4|8|2,0:3|0:0|0:0,0:0:0:0:
26,16,70332,1,4,0:3:0:0:
163,156,70494,1,8,0:0:0:0:
97,222,70656,1,4,0:3:0:0:
212,295,70819,6,0,B|247:327|247:376|247:376|254:325|299:302,1,180.000006866455,4|0,3:2|0:0,0:0:0:0:
317,296,71143,1,8,0:0:0:0:
257,234,71305,2,0,P|301:225|327:217,1,60.0000022888184,4|8,0:3|0:0,0:0:0:0:
444,203,71467,1,2,0:0:0:0:
394,270,71629,1,4,0:3:0:0:
478,280,71792,1,8,0:0:0:0:
377,160,71954,6,0,B|313:111|331:-4|453:8|431:91,1,240,4|0,3:2|0:0,0:0:0:0:
434,100,72278,1,4,0:3:0:0:
274,104,72440,2,0,B|218:102|236:62|277:109,1,80,8|0,0:0|0:0,0:0:0:0:
501,104,72602,6,0,P|367:138|279:200,1,240,8|0,0:0|0:0,0:0:0:0:
231,247,72927,1,4,3:0:0:0:
44,149,73089,1,8,0:0:0:0:
18,107,73170,1,8,0:0:0:0:
19,65,73251,1,8,0:0:0:0:
39,39,73332,1,8,0:0:0:0:
59,27,73413,6,0,P|88:69|156:77,1,120.000004577637,6|4,3:2|0:3,0:0:0:0:
317,17,73737,2,0,P|240:73|204:174,1,180.000006866455,8|8,0:0|0:0,0:0:0:0:
202,172,74062,1,2,0:0:0:0:
132,8,74224,1,4,0:3:0:0:
155,4,74305,1,0,0:0:0:0:
178,1,74386,1,8,0:0:0:0:
202,172,74548,6,0,B|213:194|227:210|227:210|145:184|83:168,1,180.000006866455,4|0,0:0|0:0,0:0:0:0:
21,212,74873,2,0,P|49:201|85:184,1,60.0000022888184,4|4,0:3|0:3,0:0:0:0:
147,103,75035,1,8,0:0:0:0:
307,182,75197,1,8,0:0:0:0:
342,188,75278,1,8,0:0:0:0:
372,169,75359,1,0,0:0:0:0:
407,169,75440,1,8,0:0:0:0:
431,142,75521,1,4,0:3:0:0:
367,90,75683,1,8,0:0:0:0:
487,29,75846,1,4,0:3:0:0:
487,196,76008,6,0,B|459:254|475:315|475:315|441:260|359:237,1,240.000009155274,6|8,0:0|0:0,0:0:0:0:
282,137,76494,1,4,0:3:0:0:
260,130,76575,1,8,0:0:0:0:
237,128,76656,1,2,0:0:0:0:
248,204,76819,1,0,0:0:0:0:
272,57,76981,1,8,0:0:0:0:
316,220,77143,6,0,P|236:237|204:336,1,180.000006866455,4|0,0:0|0:0,0:0:0:0:
213,341,77467,2,0,P|254:329|301:310,1,60.0000022888184,4|4,0:3|0:3,0:0:0:0:
175,183,77629,2,0,P|132:177|85:167,1,60.0000022888184,8|0,0:0|0:0,0:0:0:0:
46,212,77792,1,4,0:3:0:0:
24,220,77873,1,8,0:0:0:0:
24,244,77954,1,2,0:0:0:0:
46,251,78035,1,8,0:0:0:0:
61,232,78116,1,4,0:3:0:0:
107,157,78278,2,0,P|89:115|81:75,1,60.0000022888184,8|8,0:0|0:3,0:0:0:0:
39,18,78440,5,8,0:3:0:0:
55,35,78521,1,8,0:3:0:0:
32,40,78602,1,8,0:0:0:0:
221,0,78764,1,4,0:3:0:0:
162,89,78927,1,4,0:3:0:0:
371,62,79089,5,8,0:0:0:0:
195,187,79251,1,4,0:3:0:0:
179,81,79413,1,4,0:3:0:0:
407,189,79575,5,8,0:0:0:0:
120,154,79737,1,8,0:0:0:0:
24,120,81197,5,4,3:2:0:0:
192,87,81359,1,8,0:0:0:0:
48,132,81521,1,0,1:0:0:0:
174,107,81683,1,0,0:0:0:0:
90,11,81846,2,0,P|102:74|111:121,1,95.9999970703126,8|4,0:0|0:3,0:0:0:0:
125,173,82089,1,4,0:3:0:0:
128,186,82170,1,4,0:3:0:0:
0,225,82332,6,0,P|72:245|118:257,1,95.9999970703126,8|0,0:0|1:0,0:0:0:0:
243,290,82656,1,8,0:0:0:0:
98,267,82819,1,0,1:0:0:0:
210,355,82981,1,0,0:0:0:0:
144,384,83143,2,0,P|143:327|177:289,1,95.9999970703126,8|0,0:0|0:0,0:0:0:0:
269,216,83467,1,0,1:0:0:0:
269,216,83629,1,8,0:0:0:0:
351,375,83792,5,0,1:0:0:0:
250,297,83954,2,0,P|320:276|371:267,1,95.9999970703126,8|0,0:0|1:0,0:0:0:0:
411,317,84278,1,0,0:0:0:0:
431,173,84440,1,8,0:0:0:0:
311,138,84602,1,4,0:3:0:0:
313,123,84683,1,4,0:3:0:0:
315,108,84764,1,4,0:3:0:0:
246,175,84927,1,8,0:0:0:0:
268,44,85089,5,0,0:0:0:0:
419,73,85251,2,0,P|372:84|327:98,1,95.9999970703126,8|0,0:0|1:0,0:0:0:0:
192,99,85575,1,0,1:0:0:0:
249,54,85737,2,0,P|210:27|164:36,1,95.9999970703126,8|8,0:0|3:2,0:0:0:0:
141,53,85981,1,8,3:2:0:0:
127,78,86062,1,8,3:2:0:0:
119,105,86143,1,8,3:2:0:0:
103,129,86224,1,8,3:2:0:0:
78,143,86305,1,8,3:2:0:0:
49,145,86386,6,0,P|69:206|81:248,1,95.9999970703126,4|0,1:2|1:0,0:0:0:0:
0,362,86710,2,0,P|41:319|108:322,1,95.9999970703126,8|0,0:0|1:0,0:0:0:0:
270,366,87035,1,0,1:0:0:0:
144,274,87197,1,4,0:3:0:0:
169,286,87278,1,4,0:3:0:0:
197,283,87359,2,0,P|237:259|256:215,1,95.9999970703126,8|0,0:0|1:0,0:0:0:0:
333,48,87683,6,0,B|380:37|380:37|426:65,1,95.9999970703126,0|0,1:0|1:0,0:0:0:0:
408,137,88008,2,0,B|361:148|361:148|315:120,1,95.9999970703126,8|0,0:0|1:0,0:0:0:0:
139,21,88332,1,0,0:0:0:0:
262,8,88494,1,4,0:3:0:0:
258,36,88575,1,4,0:3:0:0:
253,64,88656,2,0,P|242:126|233:184,1,95.9999970703126,8|0,0:0|0:0,0:0:0:0:
22,131,88981,5,4,1:2:0:0:
173,93,89143,1,0,1:0:0:0:
173,93,89305,2,0,P|140:132|94:129,1,95.9999970703126,8|0,0:0|1:0,0:0:0:0:
0,230,89629,2,0,P|42:212|83:234,1,95.9999970703126,0|0,0:0|1:0,0:0:0:0:
96,260,89873,1,0,1:0:0:0:
92,288,89954,1,8,0:0:0:0:
156,359,90116,1,0,1:0:0:0:
156,210,90278,6,0,P|213:195|264:187,1,95.9999970703126,0|0,1:0|1:0,0:0:0:0:
484,150,90602,1,8,0:0:0:0:
484,150,90764,1,0,1:0:0:0:
414,207,90927,6,0,P|368:163|379:106,1,95.9999970703126,8|0,0:0|0:0,0:0:0:0:
426,56,91170,6,0,P|410:117|356:136,1,95.9999970703126,8|0,0:0|0:0,0:0:0:0:
318,85,91413,6,0,P|336:69|359:67,1,47.9999985351563,8|0,0:0|0:0,0:0:0:0:
256,192,91575,1,4,1:0:0:0:
256,192,91737,12,4,94170,0:3:0:0:
42,373,96440,5,8,0:0:0:0:
43,365,96521,1,8,0:0:0:0:
44,357,96602,1,8,0:0:0:0:
45,349,96683,1,8,0:0:0:0:
47,340,96764,5,6,1:2:0:0:
0,276,96927,2,0,P|67:267|110:262,1,88.000002685547,2|8,0:0|0:0,0:0:0:0:
158,241,97251,2,0,L|98:248,1,44.0000013427735,2|2,0:0|0:0,0:0:0:0:
10,193,97413,1,2,0:0:0:0:
164,153,97575,6,0,P|97:162|54:167,1,88.000002685547,2|8,0:0|0:0,0:0:0:0:
0,178,97900,1,2,0:0:0:0:
131,16,98062,1,0,0:0:0:0:
131,16,98224,6,0,P|160:74|217:92,1,88.000002685547,2|8,0:0|0:0,0:0:0:0:
259,109,98548,1,2,0:0:0:0:
263,91,98629,1,2,0:0:0:0:
259,73,98710,1,0,0:0:0:0:
239,255,98873,6,0,P|268:197|325:179,1,88.000002685547,2|8,0:0|0:0,0:0:0:0:
364,186,99197,1,2,0:0:0:0:
472,17,99359,1,4,0:2:0:0:
502,89,99521,6,0,P|408:77|374:71,1,88.000002685547,2|8,0:0|0:0,0:0:0:0:
337,58,99845,2,0,L|397:65,1,44.0000013427735,2|2,0:0|0:0,0:0:0:0:
497,164,100008,1,2,0:0:0:0:
332,159,100170,6,0,P|426:171|460:177,1,88.000002685547,2|8,0:0|0:0,0:0:0:0:
506,178,100494,1,2,0:0:0:0:
413,246,100656,1,4,0:3:0:0:
374,87,100819,1,6,0:3:0:0:
447,98,100981,1,8,0:0:0:0:
332,159,101143,2,0,B|266:114|308:35|308:35|284:51|249:39,1,180.000006866455,4|0,1:2|0:0,0:0:0:0:
247,49,101467,1,8,0:0:0:0:
119,5,101629,1,8,0:0:0:0:
185,119,101792,2,0,P|125:104|80:89,1,60.0000022888184,8|8,0:0|0:0,0:0:0:0:
13,64,101954,5,4,1:0:0:0:
124,24,102116,2,0,P|68:50|61:168,1,160,8|0,0:0|0:0,0:0:0:0:
20,266,102602,1,8,0:0:0:0:
105,219,102764,2,0,P|75:210|46:205,3,40,8|8|0|0,0:0|0:0|1:0|0:0,0:0:0:0:
127,226,103089,1,8,0:0:0:0:
247,273,103251,1,0,1:0:0:0:
181,362,103413,1,8,0:0:0:0:
156,293,103575,6,0,P|215:277|257:270,1,80,0|0,1:0|1:0,0:0:0:0:
339,363,103900,2,0,P|280:347|238:340,1,80,8|4,0:0|0:3,0:0:0:0:
257,203,104224,2,0,P|296:211|334:222,1,80,0|8,1:0|0:0,0:0:0:0:
494,288,104548,6,0,P|502:334|511:381,2,80,4|8|0,1:2|0:0|1:0,0:0:0:0:
479,216,105035,1,0,0:0:0:0:
434,362,105197,2,0,P|419:290|402:194,1,160,8|4,0:0|0:3,0:0:0:0:
483,104,105602,1,4,0:3:0:0:
491,90,105683,6,0,P|446:70|429:20,1,80,8|0,0:0|0:0,0:0:0:0:
355,2,106008,2,0,P|362:40|344:76,1,80,8|0,0:0|1:0,0:0:0:0:
346,163,106332,2,0,P|376:138|415:135,1,80,0|8,1:0|0:0,0:0:0:0:
403,204,106656,1,0,1:0:0:0:
252,82,106819,1,8,0:0:0:0:
239,71,106900,1,0,1:0:0:0:
224,65,106981,1,0,1:0:0:0:
208,64,107062,1,0,1:0:0:0:
192,67,107143,6,0,P|152:80|89:96,1,95.9999970703126,4|0,1:2|1:0,0:0:0:0:
39,16,107467,2,0,P|65:106|84:198,1,143.999995605469,8|0,0:0|0:0,0:0:0:0:
82,173,107792,1,0,0:0:0:0:
27,236,107954,1,0,1:0:0:0:
189,282,108116,1,8,0:0:0:0:
21,370,108278,6,0,P|42:312|118:302,1,143.999995605469,4|0,1:2|0:0,0:0:0:0:
123,319,108602,2,0,P|156:359|212:342,1,95.9999970703126,0|8,1:0|0:0,0:0:0:0:
328,189,108927,1,0,0:0:0:0:
179,207,109089,1,0,1:0:0:0:
275,332,109251,1,0,1:0:0:0:
334,172,109413,1,8,0:0:0:0:
345,304,109575,6,0,B|382:337|382:389|382:389|389:335|437:311,1,191.999994140625,4|0,1:2|1:0,0:0:0:0:
399,96,110062,2,0,P|418:170|444:259,1,143.999995605469,8|0,0:0|0:0,0:0:0:0:
454,242,110386,1,0,1:0:0:0:
343,190,110548,1,0,1:0:0:0:
483,25,110710,1,8,0:0:0:0:
378,114,110873,6,0,B|299:117|253:37|309:-34|367:11,1,215.999993408203,4|0,1:2|0:0,0:0:0:0:
379,24,111197,2,0,P|327:37|288:50,1,71.9999978027344,0|0,1:0|1:0,0:0:0:0:
196,7,111359,2,0,P|220:58|216:94,1,71.9999978027344,12|0,0:0|0:0,0:0:0:0:
201,202,111521,2,0,P|177:151|181:115,1,71.9999978027344,12|0,0:0|0:0,0:0:0:0:
119,34,111683,5,8,0:3:0:0:
77,22,111764,1,8,0:3:0:0:
42,33,111846,1,8,0:3:0:0:
25,56,111927,1,8,0:3:0:0:
23,77,112008,2,0,P|48:81|82:94,3,40,4|4|4|4,0:3|0:3|0:3|0:3,0:0:0:0:
33,153,112332,6,0,B|18:176|18:176|79:155|133:137,1,120.000004577637,6|4,3:2|0:3,0:0:0:0:
296,66,112656,1,8,0:0:0:0:
166,33,112819,1,4,0:3:0:0:
183,38,112900,1,8,0:0:0:0:
200,41,112981,1,2,0:0:0:0:
276,61,113143,1,4,0:3:0:0:
169,182,113305,1,8,0:0:0:0:
358,155,113467,6,0,B|308:118|225:164|301:264|196:235,1,180.000006866455,4|0,0:0|0:0,0:0:0:0:
213,241,113792,2,0,P|179:208|188:172,1,60.0000022888184,4|4,0:3|0:3,0:0:0:0:
262,70,113954,1,8,0:0:0:0:
336,221,114116,1,4,0:3:0:0:
352,228,114197,1,8,0:0:0:0:
369,226,114278,1,4,0:3:0:0:
363,145,114440,1,0,0:0:0:0:
291,288,114602,2,0,P|347:307|406:296,1,120.000004577637,8|4,0:0|0:3,0:0:0:0:
118,382,114927,5,4,0:0:0:0:
218,268,115089,1,4,0:3:0:0:
48,332,115251,1,8,0:0:0:0:
199,274,115413,1,4,0:3:0:0:
44,253,115575,1,2,0:0:0:0:
56,232,115656,1,8,0:0:0:0:
59,208,115737,1,4,0:3:0:0:
197,199,115900,1,8,0:0:0:0:
54,187,116062,6,0,B|-10:160|-17:74|27:47|44:88|4:114,1,180.000006866455,4|0,0:0|0:0,0:0:0:0:
42,13,116386,2,0,P|78:32|90:73,1,60.0000022888184,4|4,0:3|0:3,0:0:0:0:
122,229,116548,1,8,0:0:0:0:
156,73,116710,1,4,0:3:0:0:
187,53,116792,1,8,0:0:0:0:
222,53,116873,1,2,0:0:0:0:
249,30,116954,1,8,0:0:0:0:
284,32,117035,1,4,0:3:0:0:
267,193,117197,1,8,0:0:0:0:
216,129,117359,2,0,P|267:115|303:101,1,60.0000022888184,8|2,0:0|0:0,0:0:0:0:
507,55,117521,6,0,B|463:64|422:29|422:29|459:75|445:128,1,180.000006866455,4|0,3:2|0:0,0:0:0:0:
457,127,117846,2,0,P|395:103|316:75,1,120.000004577637,8|4,0:0|0:3,0:0:0:0:
284,36,118170,1,2,0:0:0:0:
370,171,118332,1,4,0:3:0:0:
391,180,118413,1,4,0:3:0:0:
412,189,118494,1,8,0:0:0:0:
279,375,118656,6,0,P|275:300|370:252,1,180.000006866455,4|0,0:0|0:0,0:0:0:0:
379,258,118981,2,0,P|413:273|454:285,1,60.0000022888184,4|4,0:3|0:3,0:0:0:0:
508,319,119143,1,8,0:0:0:0:
382,370,119305,2,0,P|356:355|348:327,2,60.0000022888184,4|8|2,0:3|0:0|0:0,0:0:0:0:
288,227,119629,1,4,0:3:0:0:
189,370,119792,1,8,0:0:0:0:
115,346,119954,1,4,0:3:0:0:
208,197,120116,6,0,B|258:148|238:63|156:66|160:145,1,180.000006866455,4|0,3:2|0:0,0:0:0:0:
138,121,120440,1,8,0:0:0:0:
0,245,120602,2,0,P|40:233|76:224,1,60.0000022888184,4|8,0:3|0:0,0:0:0:0:
134,194,120764,1,2,0:0:0:0:
23,92,120927,1,4,0:3:0:0:
92,56,121089,1,8,0:0:0:0:
208,197,121251,6,0,B|277:266|363:208|363:208|309:195|311:140,1,240,4|0,3:2|0:0,0:0:0:0:
390,55,121575,2,0,P|381:113|378:158,1,80,4|4,0:3|0:3,0:0:0:0:
324,304,121737,6,0,B|396:318|427:235|387:229|428:148|493:168,1,240,8|0,0:0|0:0,0:0:0:0:
510,174,122062,1,12,3:0:0:0:
481,265,122224,2,0,P|440:256|396:251,1,60.0000022888184,12|0,3:0|0:0,0:0:0:0:
314,167,122386,1,8,0:0:0:0:
289,133,122467,1,8,0:0:0:0:
254,122,122548,1,8,0:0:0:0:
224,128,122629,1,8,0:0:0:0:
205,143,122710,6,0,P|142:129|78:114,1,120.000004577637,6|4,3:2|0:3,0:0:0:0:
0,38,123035,2,0,B|25:29|25:29|46:127|62:207,1,180.000006866455,8|0,0:0|0:0,0:0:0:0:
62,202,123359,1,10,0:0:0:0:
228,226,123521,1,4,0:3:0:0:
204,220,123602,1,4,0:3:0:0:
180,214,123683,1,8,0:0:0:0:
6,324,123846,6,0,B|15:360|-21:366|-27:309|40:242|101:297,1,180.000006866455,4|0,0:0|0:0,0:0:0:0:
115,315,124170,2,0,P|119:352|93:381,1,60.0000022888184,4|4,0:3|0:3,0:0:0:0:
126,158,124332,1,8,0:0:0:0:
188,290,124494,1,4,0:3:0:0:
203,308,124575,1,4,0:3:0:0:
226,314,124656,1,8,0:0:0:0:
299,274,124819,1,4,0:3:0:0:
441,217,124981,1,8,0:0:0:0:
493,273,125143,1,4,0:3:0:0:
295,349,125305,6,0,B|333:359|348:386|348:386|405:325|386:251|356:226,1,240.000009155274,6|8,0:0|0:0,0:0:0:0:
325,76,125792,1,4,0:3:0:0:
348,81,125873,1,8,0:0:0:0:
371,86,125954,1,2,0:0:0:0:
332,156,126116,1,4,0:3:0:0:
366,2,126278,1,8,0:0:0:0:
512,68,126440,6,0,P|449:87|350:175,1,180.000006866455,4|0,0:0|0:0,0:0:0:0:
371,179,126764,2,0,P|406:197|446:180,1,60.0000022888184,4|4,0:3|0:3,0:0:0:0:
330,5,126927,2,0,P|300:4|275:20,1,60.0000022888184,8|0,0:0|0:0,0:0:0:0:
191,123,127089,1,4,0:3:0:0:
174,140,127170,1,8,0:0:0:0:
169,163,127251,1,0,0:0:0:0:
151,145,127332,1,8,0:0:0:0:
129,138,127413,1,4,0:3:0:0:
301,192,127575,2,0,P|272:182|243:173,1,60.0000022888184,8|8,0:0|0:3,0:0:0:0:
139,42,127737,5,8,0:3:0:0:
132,66,127819,1,8,0:3:0:0:
156,61,127900,1,8,0:0:0:0:
25,90,128062,1,4,0:3:0:0:
164,135,128224,1,4,0:3:0:0:
16,221,128386,5,8,0:0:0:0:
180,129,128548,1,4,0:3:0:0:
137,239,128710,1,4,0:3:0:0:
198,122,128873,5,8,0:0:0:0:
208,354,129035,1,8,0:0:0:0:
272,382,129846,5,8,0:0:0:0:
442,271,130008,2,0,P|472:277|506:285,2,60.0000022888184,0|0|0,1:0|1:0|1:0,0:0:0:0:
374,255,130494,6,0,P|381:197|388:157,1,88.000002685547,4|8,1:2|0:0,0:0:0:0:
306,242,130819,2,0,P|312:183|319:143,1,88.000002685547,0|0,1:0|0:0,0:0:0:0:
495,0,131143,1,8,0:0:0:0:
430,90,131305,1,0,0:0:0:0:
362,99,131467,1,0,1:0:0:0:
335,82,131629,6,0,P|294:56|195:116,1,176.000005371094,12|8,0:0|0:0,0:0:0:0:
53,175,132116,1,0,1:0:0:0:
126,159,132278,1,0,1:0:0:0:
68,15,132440,2,0,P|56:98|44:206,1,176.000005371094,8|4,0:0|0:3,0:0:0:0:
35,264,132927,1,8,0:0:0:0:
112,365,133089,5,4,1:2:0:0:
128,242,133251,1,8,0:0:0:0:
127,356,133413,1,0,1:0:0:0:
220,288,133575,1,0,0:0:0:0:
210,374,133737,5,8,0:0:0:0:
292,251,133900,2,0,P|241:242|210:283,1,88.000002685547,0|4,1:0|0:3,0:0:0:0:
293,333,134224,2,0,P|359:317|449:298,1,132.00000402832,4|0,0:0|0:0,0:0:0:0:
439,301,134548,1,8,0:0:0:0:
306,247,134710,2,0,P|314:189|323:144,1,88.000002685547,0|0,1:0|1:0,0:0:0:0:
507,81,135035,6,0,P|465:110|423:92,1,88.000002685547,8|4,0:0|0:3,0:0:0:0:
348,3,135359,2,0,P|290:0|267:83,1,132.00000402832,4|0,0:3|0:0,0:0:0:0:
262,76,135683,2,0,P|205:67|160:60,1,88.000002685547,4|8,1:2|0:0,0:0:0:0:
250,152,136008,2,0,P|193:143|148:136,1,88.000002685547,0|8,1:0|0:0,0:0:0:0:
29,21,136332,1,8,0:0:0:0:
109,90,136494,1,4,0:3:0:0:
71,152,136656,1,4,0:3:0:0:
92,173,136819,6,0,P|103:239|122:346,1,176.000005371094,12|8,0:0|0:0,0:0:0:0:
38,348,137305,2,0,P|96:361|149:377,1,88.000002685547,0|0,1:0|1:0,0:0:0:0:
312,235,137629,2,0,P|263:216|195:306,1,176.000005371094,8|0,0:0|0:0,0:0:0:0:
228,371,138116,1,8,0:0:0:0:
367,378,138278,5,4,1:2:0:0:
376,295,138440,1,8,0:0:0:0:
445,384,138602,1,0,1:0:0:0:
454,301,138764,1,8,0:0:0:0:
506,225,138927,5,8,0:0:0:0:
417,217,139089,2,0,P|421:160|423:115,1,88.000002685547,0|4,1:0|0:3,0:0:0:0:
492,14,139413,2,0,B|392:-9|429:99|324:61,1,176.000005371094,12|8,0:0|0:0,0:0:0:0:
269,0,139900,2,0,P|307:35|300:88,1,88.000002685547,0|0,1:0|1:0,0:0:0:0:
111,106,140224,2,0,P|181:94|208:91,1,88.000002685547,8|0,0:0|1:0,0:0:0:0:
185,18,140548,5,8,0:0:0:0:
158,21,140629,1,8,0:0:0:0:
131,24,140710,1,4,0:3:0:0:
104,28,140792,1,4,0:3:0:0:
77,32,140873,5,4,1:2:0:0:
18,193,141035,2,0,P|30:170|47:128,1,47.9999985351563,0|0,1:0|0:0,0:0:0:0:
100,107,141197,1,10,0:0:0:0:
97,223,141359,1,0,1:0:0:0:
191,177,141521,1,10,0:0:0:0:
182,281,141683,1,0,1:0:0:0:
89,220,141846,1,10,0:0:0:0:
179,102,142008,6,0,B|224:98|224:98|260:130|260:130|334:122,1,143.999995605469,4|0,0:0|0:0,0:0:0:0:
381,135,142332,1,0,1:0:0:0:
382,120,142413,1,0,1:0:0:0:
380,105,142494,1,8,0:0:0:0:
282,50,142656,1,0,0:0:0:0:
390,14,142819,2,0,P|444:25|484:35,1,95.9999970703126,8|0,0:0|1:0,0:0:0:0:
374,92,143143,2,0,P|428:103|468:113,1,95.9999970703126,8|0,0:0|1:0,0:0:0:0:
468,281,143467,5,14,0:0:0:0:
308,254,143629,1,0,1:0:0:0:
401,187,143792,1,10,0:0:0:0:
374,347,143954,1,0,1:0:0:0:
302,242,144116,1,10,0:0:0:0:
478,272,144278,1,0,1:0:0:0:
325,166,144440,1,10,0:0:0:0:
239,292,144602,6,0,B|212:323|222:382|222:382|194:324|142:321,1,191.999994140625,4|0,1:2|1:0,0:0:0:0:
80,318,145008,1,0,1:0:0:0:
85,299,145089,1,8,0:0:0:0:
177,246,145251,1,0,1:0:0:0:
30,246,145413,2,0,P|16:181|4:131,1,95.9999970703126,8|0,0:0|1:0,0:0:0:0:
170,53,145737,1,8,0:0:0:0:
170,53,145900,1,8,0:0:0:0:
94,138,146062,5,14,0:2:0:0:
234,162,146224,1,0,0:0:0:0:
160,36,146386,1,10,0:0:0:0:
304,24,146548,1,0,1:0:0:0:
239,146,146710,1,10,0:0:0:0:
318,109,146873,1,0,1:0:0:0:
394,150,147035,1,10,0:0:0:0:
394,0,147197,6,0,P|405:81|415:150,1,143.999995605469,4|0,1:2|0:0,0:0:0:0:
464,198,147521,1,0,1:0:0:0:
475,182,147602,1,0,1:0:0:0:
482,164,147683,1,8,0:0:0:0:
318,182,147846,1,0,1:0:0:0:
391,322,148008,2,0,P|433:351|490:328,1,95.9999970703126,10|0,0:0|1:0,0:0:0:0:
491,267,148332,2,0,P|449:238|392:261,1,95.9999970703126,10|0,0:0|1:0,0:0:0:0:
288,347,148656,5,14,0:0:0:0:
188,221,148819,1,0,1:0:0:0:
129,371,148981,1,10,0:0:0:0:
201,311,149143,1,0,1:0:0:0:
0,317,149305,1,10,0:0:0:0:
185,238,149467,1,0,1:0:0:0:
2,299,149629,1,8,0:0:0:0:
16,198,149792,6,0,P|62:211|116:226,2,95.9999970703126,4|0|8,1:2|0:0|0:0,0:0:0:0:
104,15,150278,1,8,0:0:0:0:
161,170,150440,1,8,0:0:0:0:
234,133,150602,2,0,P|224:104|222:71,3,47.9999985351563,0|0|0|0,1:0|1:0|1:0|1:0,0:0:0:0:
250,22,150927,5,8,0:0:0:0:
297,14,151008,1,8,0:0:0:0:
341,30,151089,1,8,0:0:0:0:
364,71,151170,1,8,0:0:0:0:
364,118,151251,6,0,P|384:148|426:157,1,54.0000002059937,2|2,1:2|0:0,0:0:0:0:
512,280,151413,5,2,1:2:0:0:
503,248,151494,1,2,0:0:0:0:
478,227,151575,2,0,P|442:229|413:261,1,54.0000002059937,10|2,0:0|0:0,0:0:0:0:
317,285,151737,5,2,1:2:0:0:
301,279,151819,1,10,0:0:0:0:
301,263,151900,1,2,0:0:0:0:
317,258,151981,1,10,0:0:0:0:
326,271,152062,2,0,P|341:238|328:197,1,54.0000002059937,2|2,1:2|0:0,0:0:0:0:
275,96,152224,6,0,P|234:89|198:81,1,54.0000002059937,10|2,0:0|0:0,0:0:0:0:
23,44,152386,5,2,1:2:0:0:
41,70,152467,1,2,0:0:0:0:
52,100,152548,1,2,0:0:0:0:
54,132,152629,1,2,0:0:0:0:
49,164,152710,2,0,P|40:192|26:224,1,54.0000002059937,2|2,1:2|1:0,0:0:0:0:
137,26,152873,5,10,0:0:0:0:
126,55,152954,1,2,0:0:0:0:
123,87,153035,1,2,1:2:0:0:
129,119,153116,1,10,0:0:0:0:
142,148,153197,2,0,P|157:172|179:200,1,54.0000002059937,2|10,0:0|0:0,0:0:0:0:
189,310,153359,6,0,P|202:283|215:251,1,54.0000002059937,2|2,1:2|0:0,0:0:0:0:
306,189,153521,2,0,P|276:190|242:195,3,54.0000002059937,10|2|2|2,0:0|0:0|1:2|0:0,0:0:0:0:
285,264,153846,6,0,P|314:262|348:257,1,54.0000002059937,4|0,1:0|0:0,0:0:0:0:
427,375,154008,1,2,0:0:0:0:
459,373,154089,1,2,0:0:0:0:
481,350,154170,1,8,0:0:0:0:
481,317,154251,1,2,0:0:0:0:
457,295,154332,1,2,1:2:0:0:
430,276,154413,1,10,0:0:0:0:
406,254,154494,1,2,0:0:0:0:
406,221,154575,1,10,0:0:0:0:
428,198,154656,1,2,1:2:0:0:
460,196,154737,1,2,0:0:0:0:
487,213,154819,2,0,P|494:166|502:130,1,54.0000002059937,10|2,0:0|0:0,0:0:0:0:
449,15,154981,6,0,P|453:44|469:86,3,54.0000002059937,2|0|2|2,1:2|0:0|0:0|0:0,0:0:0:0:
411,128,155305,5,2,1:2:0:0:
392,101,155386,1,2,1:2:0:0:
373,74,155467,2,0,P|349:69|293:65,1,54.0000002059937,10|2,0:0|0:0,0:0:0:0:
240,6,155629,5,2,1:2:0:0:
232,37,155710,1,10,0:0:0:0:
215,65,155792,1,2,0:0:0:0:
191,86,155873,1,10,0:0:0:0:
162,100,155954,2,0,P|129:105|87:119,1,54.0000002059937,2|2,1:2|0:0,0:0:0:0:
22,80,156116,6,0,P|17:53|14:26,3,54.0000002059937,10|2|10|0,0:0|0:0|0:0|0:0,0:0:0:0:
22,154,156440,6,0,P|65:142|81:112,1,54.0000002059937,2|2,1:2|0:0,0:0:0:0:
131,182,156602,5,2,1:2:0:0:
146,179,156683,1,0,0:0:0:0:
161,175,156764,2,0,P|172:131|154:102,1,54.0000002059937,10|2,0:0|0:0,0:0:0:0:
239,94,156927,5,2,1:2:0:0:
244,80,157008,1,10,0:0:0:0:
248,65,157089,2,0,P|216:33|182:34,1,54.0000002059937,2|10,0:0|0:0,0:0:0:0:
22,154,157250,5,2,1:2:0:0:
17,168,157331,1,0,0:0:0:0:
12,184,157412,2,0,P|43:215|77:214,1,54.0000002059937,10|2,0:0|0:0,0:0:0:0:
44,291,157575,5,6,1:2:0:0:
53,302,157656,1,2,0:0:0:0:
64,313,157737,2,0,P|107:300|123:270,1,54.0000002059937,2|2,0:0|0:0,0:0:0:0:
173,340,157900,5,2,1:2:0:0:
187,338,157981,1,2,1:2:0:0:
202,334,158062,2,0,P|213:290|195:261,1,54.0000002059937,10|2,0:0|0:0,0:0:0:0:
279,252,158224,5,2,1:2:0:0:
285,239,158305,1,10,0:0:0:0:
289,224,158386,2,0,P|273:202|249:190,3,54.0000002059937,2|10|0|2,0:0|0:0|1:2|0:0,0:0:0:0:
251,117,158710,6,0,P|224:119|202:134,1,54.0000002059937,10|2,0:0|0:0,0:0:0:0:
122,213,158873,2,0,P|154:206|176:205,1,54.0000002059937,2|2,1:2|0:0,0:0:0:0:
363,162,159035,5,6,1:2:0:0:
372,134,159116,1,2,0:0:0:0:
377,105,159197,1,2,1:2:0:0:
379,76,159278,1,2,0:0:0:0:
379,47,159359,2,0,P|349:38|311:34,3,47.9999985351563,10|2|2|10,0:0|0:0|1:2|0:0,0:0:0:0:
452,19,159683,5,2,0:0:0:0:
457,47,159764,1,10,0:0:0:0:
465,75,159846,2,0,P|477:108|490:132,1,47.9999985351563,2|2,1:2|0:2,0:0:0:0:
508,211,160008,2,0,P|462:199|432:196,1,47.9999985351563,10|2,0:0|0:0,0:0:0:0:
288,155,160170,6,0,P|300:110|304:88,3,47.9999985351563,2|0|2|2,1:2|0:0|0:0|0:0,0:0:0:0:
233,80,160494,1,2,1:2:0:0:
225,107,160575,1,2,1:2:0:0:
215,134,160656,2,0,P|178:124|152:115,1,47.9999985351563,10|0,0:0|0:0,0:0:0:0:
21,61,160819,2,0,P|57:50|84:42,1,47.9999985351563,10|0,0:0|0:0,0:0:0:0:
176,7,160981,6,0,P|166:46|155:75,1,47.9999985351563,0|0,1:0|0:0,0:0:0:0:
157,0,161143,2,0,P|147:39|136:68,1,47.9999985351563,0|0,1:0|0:0,0:0:0:0:
10,176,161305,5,8,0:0:0:0:
43,156,161386,1,8,0:0:0:0:
81,153,161467,1,8,0:0:0:0:
116,168,161548,1,8,0:0:0:0:
135,201,161629,5,6,0:0:0:0:
14,261,161792,1,2,0:0:0:0:
191,365,161954,5,10,0:0:0:0:
20,279,162116,1,2,0:0:0:0:
168,373,162278,6,0,P|189:332|197:300,1,54.0000002059937,2|8,0:0|0:0,0:0:0:0:
200,149,162440,1,2,0:0:0:0:
125,280,162602,1,8,0:0:0:0:
376,256,162764,6,0,B|315:234|254:206|254:206|276:250,1,162.000000617981,6|0,0:0|0:0,0:0:0:0:
266,303,163089,2,0,P|268:276|276:250,1,54.0000002059937,2|2,1:2|1:2,0:0:0:0:
402,95,163251,1,8,0:0:0:0:
452,207,163413,1,4,0:3:0:0:
414,96,163575,5,2,0:0:0:0:
230,57,163737,1,4,0:3:0:0:
412,14,163900,1,10,0:0:0:0:
379,16,163981,1,2,0:0:0:0:
353,35,164062,1,2,1:2:0:0:
461,195,164224,6,0,P|408:181|357:165,1,108.000000411987,6|2,1:2|1:2,0:0:0:0:
170,9,164548,1,10,0:0:0:0:
204,189,164710,1,0,1:0:0:0:
247,57,164873,1,2,0:0:0:0:
264,83,164954,1,8,0:0:0:0:
260,115,165035,1,2,1:2:0:0:
186,101,165197,1,8,0:0:0:0:
4,54,165359,6,0,B|36:44|55:25|55:25|17:87|40:145,1,162.000000617981,6|0,0:0|0:0,0:0:0:0:
58,196,165683,2,0,P|40:154|39:114,1,54.0000002059937,2|0,1:2|1:0,0:0:0:0:
130,25,165846,1,10,0:0:0:0:
116,243,166008,1,4,0:3:0:0:
121,153,166170,2,0,P|137:110|165:81,2,54.0000002059937,2|8|4,0:0|0:0|0:3,0:0:0:0:
11,301,166494,2,0,P|64:281|128:252,1,108.000000411987,8|8,0:0|0:0,0:0:0:0:
339,163,166819,6,0,B|301:151|286:104|286:104|295:159|261:189,1,162.000000617981,6|0,0:0|0:0,0:0:0:0:
248,202,167143,1,8,0:0:0:0:
293,343,167305,1,4,0:3:0:0:
322,355,167386,1,8,0:0:0:0:
354,357,167467,1,2,0:0:0:0:
412,210,167629,1,4,0:3:0:0:
338,280,167792,1,10,0:0:0:0:
504,367,167954,6,0,P|478:320|500:201,1,162.000000617981,6|0,0:0|0:0,0:0:0:0:
508,130,168278,1,2,1:0:0:0:
489,141,168359,1,2,1:2:0:0:
467,138,168440,1,10,0:0:0:0:
280,60,168602,2,0,P|332:16|396:120,1,216.000000823975,4|4,0:3|0:3,0:0:0:0:
345,171,169089,1,8,0:0:0:0:
270,138,169251,1,4,0:3:0:0:
132,1,169413,5,6,1:2:0:0:
275,54,169575,1,0,1:0:0:0:
157,151,169737,1,8,0:0:0:0:
117,6,169900,5,2,1:2:0:0:
101,104,170062,1,2,0:0:0:0:
24,41,170224,1,2,1:2:0:0:
194,69,170386,1,8,0:0:0:0:
8,140,170548,6,0,B|100:164|32:239|109:263,1,162.000000617981,6|0,1:2|0:0,0:0:0:0:
176,228,170873,2,0,P|131:235|106:276,1,54.0000002059937,2|2,1:2|1:2,0:0:0:0:
41,348,171035,1,10,0:0:0:0:
220,384,171197,1,10,0:0:0:0:
176,301,171359,5,8,1:3:0:0:
162,271,171440,1,2,1:2:0:0:
160,238,171521,1,8,1:3:0:0:
176,210,171602,1,2,1:2:0:0:
201,190,171683,2,0,P|219:159|219:119,3,54.0000002059937,8|8|8|8,0:0|0:0|0:0|0:0,0:0:0:0:
187,72,172008,5,4,1:0:0:0:
187,72,172170,2,0,P|250:62|302:142,1,160,8|0,0:0|0:0,0:0:0:0:
396,16,172656,1,8,0:0:0:0:
453,74,172819,2,0,P|478:71|506:63,2,40,8|8|0,0:0|0:0|1:0,0:0:0:0:
380,95,173143,2,0,P|392:151|397:189,1,80,8|0,0:0|1:0,0:0:0:0:
480,208,173467,1,8,0:0:0:0:
480,208,173629,2,0,P|468:264|463:302,1,80,0|0,1:0|1:0,0:0:0:0:
423,357,173954,6,0,P|381:356|368:308,1,80,8|0,0:0|0:0,0:0:0:0:
356,247,174278,2,0,P|314:248|301:296,1,80,0|8,1:0|0:0,0:0:0:0:
171,338,174602,2,0,P|120:347|78:356,2,80,4|8|0,1:2|0:0|0:0,0:0:0:0:
198,359,175251,6,0,P|185:289|178:173,1,160,8|4,0:0|0:3,0:0:0:0:
203,131,175656,1,4,0:3:0:0:
224,142,175737,2,0,P|262:152|302:123,1,80,8|0,0:0|0:0,0:0:0:0:
368,124,176062,2,0,P|357:86|312:65,1,80,8|0,0:0|1:0,0:0:0:0:
280,8,176386,2,0,P|252:35|257:85,1,80,0|8,1:0|0:0,0:0:0:0:
346,204,176710,5,0,1:0:0:0:
496,159,176873,2,0,L|434:169,1,40,8|8,0:0|0:3,0:0:0:0:
364,201,177035,1,8,0:3:0:0:
483,261,177197,6,0,P|498:297|477:342,1,92.0000017547608,4|0,1:2|1:0,0:0:0:0:
340,384,177521,2,0,P|308:346|314:240,1,138.000002632141,8|0,0:0|0:0,0:0:0:0:
318,237,177846,1,0,0:0:0:0:
228,350,178008,2,0,P|196:363|148:331,1,92.0000017547608,0|8,1:0|0:0,0:0:0:0:
23,167,178332,6,0,P|78:191|96:275,1,138.000002632141,4|0,1:2|0:0,0:0:0:0:
97,279,178656,2,0,P|156:256|188:271,1,92.0000017547608,0|8,1:0|0:0,0:0:0:0:
150,335,178981,1,0,0:0:0:0:
16,246,179143,1,0,1:0:0:0:
165,179,179305,2,0,P|177:135|190:78,1,92.0000017547608,0|8,1:0|0:0,0:0:0:0:
397,41,179629,6,0,B|327:29|262:0|262:0|296:60,1,184.000003509522,4|0,1:2|1:0,0:0:0:0:
409,120,180035,1,0,0:0:0:0:
426,116,180116,2,0,P|477:95|519:80,1,92.0000017547608,8|0,0:0|0:0,0:0:0:0:
474,7,180440,1,0,1:0:0:0:
335,102,180602,2,0,B|327:146|327:146|364:191,1,92.0000017547608,0|8,1:0|0:0,0:0:0:0:
486,283,180927,6,0,B|492:263|512:245|512:245|416:194|364:290,1,215.999993408203,4|0,1:2|0:0,0:0:0:0:
365,311,181251,2,0,P|332:316|278:330,1,71.9999978027344,0|0,1:0|1:0,0:0:0:0:
170,348,181413,1,8,0:0:0:0:
301,246,181575,5,0,1:0:0:0:
148,157,181737,1,8,0:0:0:0:
278,325,181900,5,0,1:0:0:0:
108,384,182062,1,8,0:0:0:0:
158,253,182224,1,0,1:0:0:0:
21,179,182386,6,0,P|17:147|14:112,3,40,8|8|4|4,0:0|0:0|0:3|0:3,0:0:0:0:
5,71,182710,1,8,0:0:0:0:
87,216,182873,1,8,0:0:0:0:
155,81,183035,6,0,P|157:61|161:42,3,40,4|4|4|4,0:3|0:3|0:3|0:3,0:0:0:0:
146,156,183359,1,4,0:3:0:0:
161,153,183440,1,4,0:3:0:0:
176,150,183521,1,8,0:0:0:0:
191,147,183602,1,8,0:0:0:0:
206,144,183683,5,4,1:2:0:0:
59,345,193575,6,0,P|26:340|-12:338,2,60.0000022888184,8|8|8,1:3|1:3|1:3,0:0:0:0:
143,358,194062,1,2,0:3:0:0:
188,303,194224,1,0,0:0:0:0:
258,317,194386,5,2,0:3:0:0:
269,315,194710,1,2,0:3:0:0:
280,313,195035,5,2,0:3:0:0:
350,299,195197,1,0,1:0:0:0:
391,240,195359,1,2,0:3:0:0:
370,171,195521,1,0,0:0:0:0:
306,136,195683,5,2,0:3:0:0:
304,124,196008,1,2,0:3:0:0:
302,112,196332,1,2,0:3:0:0:
300,100,196656,5,2,0:3:0:0:
229,85,196819,1,0,0:0:0:0:
191,23,196981,5,2,0:3:0:0:
179,25,197305,1,2,0:3:0:0:
167,27,197629,5,2,0:3:0:0:
94,33,197792,1,0,1:0:0:0:
77,104,197954,1,2,0:3:0:0:
139,142,198116,1,0,0:0:0:0:
122,213,198278,5,2,0:3:0:0:
124,224,198602,1,2,0:3:0:0:
126,235,198927,1,2,0:3:0:0:
128,246,199251,5,2,0:3:0:0:
95,310,199413,1,0,0:0:0:0:
140,365,199575,5,2,0:3:0:0:
151,363,199900,1,2,0:3:0:0:
162,361,200224,5,8,0:0:0:0:
256,192,200386,1,8,0:0:0:0:
430,331,201197,6,3,L|435:358,11,20.0000007629395,2|0|0|0|0|0|0|0|0|0|0|0,0:0|0:0|0:0|0:0|0:0|0:0|0:0|0:0|0:0|0:0|0:0|0:0,0:2:0:0:
499,322,201846,5,6,3:2:0:0:
319,204,202008,1,0,0:0:0:0:
387,166,202170,1,8,0:0:0:0:
362,293,202332,1,4,0:3:0:0:
338,290,202413,1,4,0:3:0:0:
314,287,202494,1,2,0:0:0:0:
424,343,202656,1,4,0:3:0:0:
251,238,202819,1,8,0:0:0:0:
150,349,202981,6,0,B|119:370|119:370|49:314|94:223,1,180.000006866455,4|0,0:0|0:0,0:0:0:0:
162,210,203305,2,0,P|134:219|106:230,1,60.0000022888184,4|4,0:3|0:3,0:0:0:0:
15,195,203467,1,8,0:0:0:0:
120,40,203629,1,4,0:3:0:0:
147,62,203710,1,8,0:0:0:0:
183,57,203792,1,4,0:3:0:0:
210,79,203873,1,8,0:0:0:0:
245,73,203954,1,0,0:0:0:0:
305,18,204116,1,8,0:0:0:0:
161,135,204278,1,4,0:3:0:0:
308,221,204440,5,4,0:0:0:0:
317,5,204602,1,4,0:3:0:0:
257,152,204764,1,8,0:0:0:0:
365,70,204927,2,0,P|394:63|423:54,1,60.0000022888184,4|8,0:3|0:0,0:0:0:0:
498,89,205089,1,2,0:0:0:0:
388,144,205251,1,4,0:3:0:0:
455,186,205413,1,8,0:0:0:0:
296,311,205575,6,0,P|310:255|427:271,1,180.000006866455,4|0,0:0|0:0,0:0:0:0:
439,326,205900,1,4,0:3:0:0:
460,316,205981,1,4,0:3:0:0:
475,297,206062,1,8,0:0:0:0:
323,157,206224,2,0,P|335:194|340:238,1,60.0000022888184,4|8,0:3|0:0,0:0:0:0:
330,382,206386,2,0,P|318:345|313:301,1,60.0000022888184,2|8,0:0|0:0,0:0:0:0:
237,224,206548,1,4,0:3:0:0:
152,375,206710,1,8,0:0:0:0:
200,316,206873,2,0,P|178:301|121:311,1,60.0000022888184,8|0,0:0|0:0,0:0:0:0:
19,375,207035,6,0,B|-5:286|101:310|75:197,1,180.000006866455,4|0,3:2|0:0,0:0:0:0:
67,194,207359,2,0,P|18:173|7:98,1,120.000004577637,8|4,0:0|0:3,0:0:0:0:
175,13,207683,1,2,0:0:0:0:
73,122,207846,1,4,0:3:0:0:
96,116,207927,1,4,0:3:0:0:
119,111,208008,1,8,0:0:0:0:
161,227,208170,6,0,P|183:156|270:73,1,180.000006866455,4|0,0:0|0:0,0:0:0:0:
276,70,208494,2,0,P|267:29|237:5,1,60.0000022888184,4|4,0:3|0:3,0:0:0:0:
335,197,208656,1,8,0:0:0:0:
341,113,208819,2,0,P|365:95|378:69,2,60.0000022888184,4|8|2,0:3|0:0|0:0,0:0:0:0:
495,18,209143,1,4,0:3:0:0:
410,154,209305,1,8,0:0:0:0:
493,190,209467,1,4,0:3:0:0:
304,314,209629,6,0,B|350:267|338:205|338:205|353:269|426:295,1,240.000009155274,4|8,3:2|0:0,0:0:0:0:
512,374,210116,2,0,P|465:365|439:362,1,60.0000022888184,4|8,0:3|0:0,0:0:0:0:
376,354,210278,1,2,0:0:0:0:
479,254,210440,1,4,0:3:0:0:
287,318,210602,1,8,0:0:0:0:
184,270,210764,6,0,B|152:213|215:121|292:139|311:228|246:237,1,240,4|0,3:2|0:0,0:0:0:0:
261,250,211089,1,4,0:3:0:0:
93,211,211251,2,0,B|94:158|130:174|93:211,1,80,8|0,0:0|0:0,0:0:0:0:
88,367,211413,6,0,B|109:303|67:263|57:287|-75:266|-58:109|60:112|17:197,1,320,8|4,0:0|3:0,0:0:0:0:
175,12,211900,5,8,0:0:0:0:
127,17,211981,1,8,0:0:0:0:
98,44,212062,1,8,0:0:0:0:
92,75,212143,1,8,0:0:0:0:
98,97,212224,2,0,P|165:84|243:73,1,120.000004577637,6|4,3:2|0:3,0:0:0:0:
313,6,212548,2,0,B|269:4|269:4|290:72|311:150,1,180.000006866455,8|8,0:0|0:0,0:0:0:0:
310,152,212873,1,2,0:0:0:0:
375,54,213035,1,4,0:3:0:0:
396,68,213116,1,4,0:3:0:0:
420,70,213197,1,8,0:0:0:0:
483,188,213359,6,0,B|391:166|422:276|315:243,1,180.000006866455,4|0,0:0|0:0,0:0:0:0:
317,223,213683,2,0,P|276:230|245:235,1,60.0000022888184,4|4,0:3|0:3,0:0:0:0:
112,261,213846,1,8,0:0:0:0:
183,223,214008,1,8,0:0:0:0:
187,247,214089,1,8,0:0:0:0:
190,270,214170,1,0,0:0:0:0:
137,335,214332,1,8,0:0:0:0:
118,180,214494,1,8,0:0:0:0:
186,144,214656,1,4,0:3:0:0:
57,132,214819,6,0,B|-4:103|1:15|56:-13|56:-13|100:10|90:60,1,240.000009155274,6|8,0:0|0:0,0:0:0:0:
236,66,215305,1,4,0:3:0:0:
258,61,215386,1,8,0:0:0:0:
278,47,215467,1,2,0:0:0:0:
131,99,215629,1,4,0:3:0:0:
265,182,215792,1,8,0:0:0:0:
345,10,215954,6,0,P|409:-4|481:91,1,180.000006866455,4|0,0:0|0:0,0:0:0:0:
496,90,216278,2,0,P|467:97|417:107,1,60.0000022888184,4|4,0:3|0:3,0:0:0:0:
276,168,216440,2,0,P|304:175|354:185,1,60.0000022888184,8|0,0:0|0:0,0:0:0:0:
477,225,216602,1,4,0:3:0:0:
499,233,216683,1,8,0:0:0:0:
499,257,216764,1,2,0:0:0:0:
477,264,216845,1,8,0:0:0:0:
462,245,216926,1,4,0:3:0:0:
422,185,217089,6,0,P|400:205|393:234,1,60.0000022888184,8|8,0:0|0:3,0:0:0:0:
392,360,217251,1,8,0:3:0:0:
415,355,217332,1,8,0:3:0:0:
438,349,217413,5,8,0:0:0:0:
313,240,217575,1,4,0:3:0:0:
252,300,217737,1,4,0:3:0:0:
399,238,217900,5,8,0:0:0:0:
236,141,218062,1,4,0:3:0:0:
237,222,218224,1,4,0:3:0:0:
395,70,218386,5,8,0:0:0:0:
164,184,218548,1,8,0:0:0:0:
248,28,219359,5,8,0:0:0:0:
59,54,219521,2,0,P|10:63|-20:71,2,60.0000022888184,0|0|0,1:0|1:0|1:0,0:0:0:0:
130,38,220008,5,4,0:0:0:0:
38,140,220170,1,2,0:0:0:0:
172,168,220332,1,8,0:0:0:0:
115,112,220494,5,8,0:0:0:0:
81,210,220656,1,4,0:3:0:0:
187,173,220819,1,4,0:3:0:0:
65,289,220981,6,0,P|41:282|22:275,3,29.3333342285157,8|2|2|2,0:0|0:0|0:0|0:0,0:0:0:0:
139,258,221305,1,2,0:0:0:0:
195,384,221467,1,4,0:3:0:0:
215,375,221548,1,4,0:3:0:0:
236,372,221629,1,8,0:0:0:0:
132,334,221792,1,8,0:0:0:0:
258,290,221954,5,8,3:0:0:0:
281,302,222035,1,8,3:0:0:0:
306,310,222116,1,8,3:0:0:0:
331,314,222197,1,8,3:0:0:0:
357,315,222278,1,8,0:0:0:0:
203,241,222440,1,4,0:0:0:0:
429,290,222764,5,4,0:3:0:0:
421,105,222927,1,10,0:0:0:0:
409,128,223008,1,2,0:0:0:0:
401,153,223089,1,10,0:0:0:0:
397,178,223170,1,2,0:0:0:0:
396,204,223251,2,0,P|465:220|505:230,2,88.000002685547,4|4|8,0:3|0:3|0:0,0:0:0:0:
480,60,223737,1,4,0:0:0:0:
322,182,224062,5,4,0:3:0:0:
326,40,224224,5,10,0:0:0:0:
306,29,224305,1,2,0:0:0:0:
291,12,224387,1,10,0:0:0:0:
285,33,224468,1,2,0:0:0:0:
271,50,224549,1,4,0:3:0:0:
114,21,224710,1,4,0:3:0:0:
194,8,224873,2,0,P|189:44|183:75,3,44.0000013427735,8|4|4|4,0:0|0:3|0:3|0:3,0:0:0:0:
194,79,225197,5,4,0:0:0:0:
32,121,225359,1,0,0:0:0:0:
220,92,225521,1,8,0:0:0:0:
102,168,225683,5,8,0:0:0:0:
221,206,225846,1,4,0:3:0:0:
87,182,226008,1,4,0:3:0:0:
150,271,226170,6,0,P|155:297|163:322,3,29.3333342285157,8|2|2|2,0:0|0:0|0:0|0:0,0:0:0:0:
228,280,226494,1,0,0:0:0:0:
85,328,226656,1,4,0:3:0:0:
90,349,226737,1,4,0:3:0:0:
98,369,226819,1,8,0:0:0:0:
206,354,226981,1,8,0:0:0:0:
323,362,227143,5,8,0:3:0:0:
330,336,227224,1,8,0:3:0:0:
341,312,227305,1,8,0:3:0:0:
354,289,227386,1,8,0:3:0:0:
370,268,227467,1,8,0:0:0:0:
457,363,227629,1,4,0:0:0:0:
302,171,227954,5,0,0:0:0:0:
428,219,228116,1,10,0:0:0:0:
430,192,228197,1,2,0:0:0:0:
429,165,228278,1,10,0:0:0:0:
425,139,228359,1,2,0:0:0:0:
417,114,228440,2,0,P|400:76|399:17,2,88.000002685547,4|4|8,0:3|0:3|0:0,0:0:0:0:
441,291,228927,1,4,0:0:0:0:
302,155,229251,5,4,0:3:0:0:
157,242,229413,1,10,0:0:0:0:
178,235,229494,1,2,0:0:0:0:
178,213,229575,1,10,0:0:0:0:
157,206,229656,1,2,0:0:0:0:
145,224,229737,1,0,0:0:0:0:
97,166,229900,1,8,0:0:0:0:
83,283,230062,2,0,P|71:242|58:214,1,44.0000013427735,8|0,0:0|1:0,0:0:0:0:
10,126,230224,1,0,1:0:0:0:
208,17,230386,5,8,0:0:0:0:
64,63,230548,1,0,1:0:0:0:
227,9,230710,1,8,0:0:0:0:
251,196,230873,1,0,1:0:0:0:
334,82,231035,5,8,0:0:0:0:
355,43,231116,1,0,1:0:0:0:
395,26,231197,1,0,1:0:0:0:
438,34,231278,1,0,1:0:0:0:
469,65,231359,1,0,1:0:0:0:
259,219,231521,6,0,B|253:123|193:145|184:43|184:43|195:53|195:53|239:20|302:23|328:84|328:84|273:42|212:76,1,479.999985351563,12|0,0:0|0:0,0:0:0:0:
