osu file format v14

[General]
AudioFilename: audio.mp3
AudioLeadIn: 1500
PreviewTime: 62427
Countdown: 1
SampleSet: Soft
StackLeniency: 0.7
Mode: 0
LetterboxInBreaks: 0
WidescreenStoryboard: 1

[Editor]
DistanceSpacing: 1.2
BeatDivisor: 4
GridSize: 4
TimelineZoom: 2.699999

[Metadata]
Title:Mukiryoku Coup D'Etat
TitleUnicode:無気力クーデター
Artist:Last Note.
ArtistUnicode:Last Note.
Creator:Ryuusei Aika
Version:Narcissu's Insane
Source:
Tags:no_gu addy2607 kaedeharakazuha narcissu klaksoncakfish japanese rock j-rock jrock the perennial 2022 gf hd2 grand winner loser finals d'État メグッポイド グミ megpoid gumi vocaloid ボーカロイド ボカロ ミカグラ学園組曲 赤間 遊兎 もやし メリケン 色白 明菜
BeatmapID:3710645
BeatmapSetID:1789331

[Difficulty]
HPDrainRate:5
CircleSize:4
OverallDifficulty:8
ApproachRate:9
SliderMultiplier:0.999999999999999
SliderTickRate:1

[Events]
//Background and Video events
0,0,"BG.jpg",0,0
//Break Periods
2,83829,90327
2,183883,192975
//Storyboard Layer 0 (Background)
//Storyboard Layer 1 (Fail)
//Storyboard Layer 2 (Pass)
//Storyboard Layer 3 (Foreground)
//Storyboard Layer 4 (Overlay)
//Storyboard Sound Samples

[TimingPoints]
765,324.324324324324,4,2,1,55,1,0
765,-71.4285714285714,4,2,1,55,0,0
11143,-66.6666666666667,4,2,1,70,0,0
21521,-71.4285714285714,4,2,1,55,0,0
31575,-71.4285714285714,4,2,1,60,0,0
31900,-66.6666666666667,4,2,1,70,0,0
42278,-71.4285714285714,4,2,1,55,0,0
52008,-71.4285714285714,4,2,1,60,0,0
52656,-83.3333333333333,4,2,1,60,0,0
57359,-71.4285714285714,4,2,1,60,0,0
57846,-71.4285714285714,4,2,1,65,0,0
62062,-71.4285714285714,4,2,1,75,0,0
62548,-83.3333333333333,4,2,1,75,0,0
63035,-62.5,4,2,1,80,0,1
79737,-62.5,4,2,1,70,0,0
90927,-100,4,2,1,70,0,0
91575,-166.666666666667,4,2,1,40,0,0
94008,-166.666666666667,4,2,1,50,0,0
94170,-71.4285714285714,4,2,1,50,0,0
96278,-71.4285714285714,4,2,1,5,0,0
96359,-71.4285714285714,4,2,1,50,0,0
96440,-71.4285714285714,4,2,1,70,0,0
96764,-71.4285714285714,4,2,1,55,0,0
101305,-71.4285714285714,4,2,1,60,0,0
101954,-83.3333333333333,4,2,1,60,0,0
106656,-71.4285714285714,4,2,1,60,0,0
107143,-71.4285714285714,4,2,1,70,0,0
112332,-60.6060606060606,4,2,1,80,0,1
129035,-71.4285714285714,4,2,1,70,0,0
140873,-62.5,4,2,1,70,0,0
151251,-58.8235294117647,4,2,1,70,0,1
151413,-58.8235294117647,4,2,1,70,0,0
161629,-58.8235294117647,4,2,1,85,0,0
170548,-58.8235294117647,4,2,1,70,0,0
172008,-71.4285714285714,4,2,1,70,0,0
173305,-71.4285714285714,4,2,1,65,0,0
173954,-71.4285714285714,4,2,1,60,0,0
174602,-71.4285714285714,4,2,1,55,0,0
177197,-62.5,4,2,1,60,0,0
179629,-62.5,4,2,1,65,0,0
182386,-62.5,4,2,1,50,0,0
183683,-83.3333333333333,4,2,1,50,0,0
201846,-58.1395348837209,4,2,1,80,0,1
218548,-58.1395348837209,4,2,1,70,0,0
219359,-71.4285714285714,4,2,1,70,0,0
220008,-62.5,4,2,1,70,0,0
231521,-100,4,2,1,70,0,0
231683,-100,4,2,1,5,0,0
232008,-100,4,2,1,50,0,0

[Colours]
Combo1 : 255,128,64
Combo2 : 0,128,64

[HitObjects]
216,96,765,5,4,1:1:0:0:
216,96,927,1,10,0:0:0:0:
124,136,1089,1,0,1:0:0:0:
124,136,1251,1,2,0:0:0:0:
240,120,1413,2,0,L|312:112,1,69.9999978637695,10|4,0:0|0:3,0:0:0:0:
264,216,1737,2,0,L|195:208,1,69.9999978637695,2|8,1:0|0:0,0:0:0:0:
392,168,2062,5,0,1:0:0:0:
392,168,2224,1,10,0:0:0:0:
324,88,2386,1,0,1:0:0:0:
324,88,2548,1,2,0:0:0:0:
464,100,2710,2,0,P|484:132|492:180,1,69.9999978637695,10|2,0:0|0:0,0:0:0:0:
492,248,3035,2,0,P|483:284|455:324,1,69.9999978637695,2|10,1:0|0:0,0:0:0:0:
292,296,3359,5,0,1:0:0:0:
270,214,3521,1,10,0:0:0:0:
351,192,3683,1,2,1:0:0:0:
373,273,3846,1,0,0:0:0:0:
212,320,4008,2,0,L|128:304,1,69.9999978637695,10|4,0:0|0:3,0:0:0:0:
224,132,4332,2,0,L|240:216,1,69.9999978637695,10|8,0:0|0:0,0:0:0:0:
28,316,4656,6,0,B|44:296|44:296|60:240,1,69.9999978637695,0|10,1:0|0:0,0:0:0:0:
56,96,4981,2,0,B|68:138|68:138|84:158,1,69.9999978637695,0|2,1:0|1:0,0:0:0:0:
260,228,5305,2,0,P|222:216|166:224,1,69.9999978637695,10|0,0:0|1:0,0:0:0:0:
56,96,5629,2,0,P|90:95|123:84,1,69.9999978637695,0|10,1:0|0:0,0:0:0:0:
280,16,5954,5,6,1:1:0:0:
280,16,6116,1,8,0:0:0:0:
224,132,6278,1,0,1:0:0:0:
224,132,6440,1,2,0:0:0:0:
196,32,6602,2,0,L|280:40,1,69.9999978637695,8|4,0:0|0:3,0:0:0:0:
440,112,6927,2,0,L|356:120,1,69.9999978637695,4|10,0:3|0:0,0:0:0:0:
452,16,7251,5,0,0:0:0:0:
512,176,7413,1,10,0:0:0:0:
344,148,7575,2,0,L|352:52,1,69.9999978637695,2|0,1:0|1:0,0:0:0:0:
392,252,7900,1,10,0:0:0:0:
248,204,8062,1,4,0:3:0:0:
248,204,8143,1,4,0:3:0:0:
248,204,8224,2,0,L|228:112,1,69.9999978637695,2|8,1:0|0:0,0:0:0:0:
104,156,8548,5,0,1:0:0:0:
104,156,8710,1,10,0:0:0:0:
132,20,8873,2,0,B|148:44|148:44|160:104,1,69.9999978637695,0|0,1:0|0:0,0:0:0:0:
104,184,9197,1,10,0:0:0:0:
104,184,9359,1,2,1:0:0:0:
32,76,9521,2,0,B|12:100|12:100|4:164,1,69.9999978637695,2|8,0:0|0:0,0:0:0:0:
164,292,9846,5,0,1:0:0:0:
16,256,10008,1,10,0:0:0:0:
228,208,10170,2,0,L|312:188,1,69.9999978637695,0|8,1:0|0:0,0:0:0:0:
184,304,10494,1,8,0:0:0:0:
216,108,10656,1,8,0:0:0:0:
400,168,10819,1,8,0:0:0:0:
404,172,10900,1,8,0:0:0:0:
408,176,10981,1,8,0:0:0:0:
412,180,11062,1,8,0:0:0:0:
416,184,11143,6,0,L|408:272,1,75.000002861023,4|2,0:0|0:0,0:0:0:0:
320,324,11467,1,8,0:0:0:0:
324,212,11629,1,8,0:0:0:0:
436,268,11792,2,0,L|528:260,1,75.000002861023,4|4,0:3|0:3,0:0:0:0:
300,224,12116,1,8,0:0:0:0:
300,224,12197,1,2,0:0:0:0:
300,224,12278,6,0,P|256:224|216:208,1,75.000002861023,2|2,0:0|0:0,0:0:0:0:
456,164,12602,2,0,P|466:128|465:90,1,75.000002861023,4|8,0:3|0:0,0:0:0:0:
384,8,12927,1,8,0:0:0:0:
328,124,13089,1,8,3:0:0:0:
328,124,13170,1,8,3:0:0:0:
328,124,13251,2,0,L|372:120,2,37.5000014305115,8|8|8,3:0|3:0|0:0,0:0:0:0:
128,12,13575,6,0,B|96:36|96:36|68:92|128:144,1,150.000005722046,4|4,0:0|0:3,0:0:0:0:
240,64,14062,1,10,0:0:0:0:
240,64,14143,1,2,0:0:0:0:
240,64,14224,1,10,0:0:0:0:
140,128,14386,2,0,B|124:164|124:164|132:188|132:188|96:224|120:292,1,150.000005722046,4|8,0:3|0:0,0:0:0:0:
0,224,14873,6,0,P|72:210|138:243,1,150.000005722046,4|4,0:0|0:3,0:0:0:0:
248,344,15359,1,10,0:0:0:0:
256,337,15440,1,2,0:0:0:0:
292,345,15521,1,10,0:0:0:0:
296,335,15602,1,2,0:0:0:0:
333,327,15683,2,0,P|342:290|335:240,1,75.000002861023,4|4,0:3|0:3,0:0:0:0:
432,256,16008,2,0,P|422:219|391:179,1,75.000002861023,8|4,0:0|0:3,0:0:0:0:
512,36,16332,6,0,P|503:73|510:123,1,75.000002861023,4|0,0:0|0:0,0:0:0:0:
408,160,16656,1,8,0:0:0:0:
380,32,16818,1,8,0:0:0:0:
292,104,16981,2,0,L|217:100,1,75.000002861023,4|4,0:3|0:3,0:0:0:0:
52,56,17305,1,8,0:0:0:0:
52,56,17386,1,2,0:0:0:0:
52,56,17467,6,0,P|88:56|128:80,1,75.000002861023,2|0,0:0|0:0,0:0:0:0:
216,72,17791,2,0,P|209:35|192:1,1,75.000002861023,4|8,0:3|0:0,0:0:0:0:
196,192,18116,1,8,0:0:0:0:
60,152,18278,1,8,0:3:0:0:
60,152,18359,1,8,0:3:0:0:
60,152,18440,2,0,L|8:156,2,37.5000014305115,8|8|8,0:3|0:3|0:0,0:0:0:0:
304,240,18764,6,0,P|240:196|168:220,1,150.000005722046,4|0,0:0|0:0,0:0:0:0:
228,288,19251,1,10,0:0:0:0:
228,288,19332,1,2,0:0:0:0:
228,288,19413,1,10,0:0:0:0:
152,216,19575,2,0,B|152:176|152:176|184:116|264:124,1,150.000005722046,4|8,0:3|0:0,0:0:0:0:
212,4,20062,6,0,B|196:40|196:40|260:16|312:56,1,150.000005722046,4|4,0:0|0:3,0:0:0:0:
456,28,20548,1,10,0:0:0:0:
448,32,20629,1,2,0:0:0:0:
448,60,20710,1,10,0:0:0:0:
440,64,20791,1,2,0:0:0:0:
444,92,20873,2,0,B|464:112|464:112|472:168,1,75.000002861023,0|8,0:0|0:0,0:0:0:0:
500,244,21197,2,0,B|480:264|480:264|472:320,1,75.000002861023,8|4,0:0|0:3,0:0:0:0:
380,160,21521,5,6,1:2:0:0:
368,244,21683,2,0,L|352:340,1,69.9999978637695,0|8,0:0|0:0,0:0:0:0:
284,176,22008,1,2,0:0:0:0:
284,176,22089,1,2,0:0:0:0:
284,176,22170,1,0,0:0:0:0:
272,260,22332,2,0,L|256:356,1,69.9999978637695,2|8,0:0|0:0,0:0:0:0:
112,352,22656,5,2,0:0:0:0:
192,384,22819,1,0,0:0:0:0:
180,300,22981,2,0,L|164:204,1,69.9999978637695,2|8,0:0|0:0,0:0:0:0:
24,324,23305,1,2,0:0:0:0:
24,324,23386,1,2,0:0:0:0:
24,324,23467,1,2,0:0:0:0:
36,240,23629,2,0,L|52:144,1,69.9999978637695,2|8,0:0|0:0,0:0:0:0:
0,56,23954,5,0,0:0:0:0:
128,108,24116,1,6,0:2:0:0:
196,36,24278,2,0,P|232:28|288:32,1,69.9999978637695,2|8,0:0|0:0,0:0:0:0:
468,56,24602,1,2,0:0:0:0:
340,92,24764,1,0,0:0:0:0:
448,48,24927,2,0,P|456:96|448:144,1,69.9999978637695,2|8,0:0|0:0,0:0:0:0:
328,192,25251,5,2,0:0:0:0:
352,112,25413,1,2,0:0:0:0:
444,208,25575,1,2,0:0:0:0:
392,276,25737,1,8,0:0:0:0:
308,200,25900,2,0,P|276:192|238:190,1,69.9999978637695,2|0,0:0|0:0,0:0:0:0:
104,304,26224,1,10,0:0:0:0:
104,304,26386,2,0,P|136:296|173:294,1,69.9999978637695,4|4,3:0|3:0,0:0:0:0:
244,376,26710,5,6,1:2:0:0:
328,365,26872,2,0,L|424:349,1,69.9999978637695,2|8,0:0|0:0,0:0:0:0:
260,281,27197,1,2,0:0:0:0:
260,281,27278,1,2,0:0:0:0:
260,281,27359,1,0,0:0:0:0:
344,269,27521,2,0,L|440:253,1,69.9999978637695,2|8,0:0|0:0,0:0:0:0:
512,180,27845,5,2,0:0:0:0:
428,168,28008,1,0,0:0:0:0:
344,156,28170,2,0,L|328:60,1,69.9999978637695,2|8,0:0|0:0,0:0:0:0:
480,100,28494,1,2,0:0:0:0:
480,100,28575,1,0,0:0:0:0:
480,100,28656,1,0,0:0:0:0:
352,64,28818,2,0,L|320:-16,1,69.9999978637695,2|8,0:0|0:0,0:0:0:0:
212,168,29143,5,2,0:0:0:0:
240,56,29305,1,6,0:2:0:0:
224,68,29467,2,0,L|146:59,1,69.9999978637695,2|8,0:0|0:0,0:0:0:0:
72,144,29791,1,2,0:0:0:0:
28,24,29953,1,0,0:0:0:0:
88,128,30116,2,0,P|100:164|104:212,1,69.9999978637695,2|8,0:0|0:0,0:0:0:0:
20,304,30440,5,2,0:0:0:0:
104,296,30602,1,0,0:0:0:0:
200,216,30764,1,2,0:0:0:0:
284,228,30926,1,8,0:0:0:0:
224,336,31089,2,0,P|256:320|308:320,1,69.9999978637695,2|0,0:0|0:0,0:0:0:0:
372,340,31413,1,8,0:0:0:0:
512,280,31575,2,0,P|477:278|443:269,1,69.9999978637695,8|0,0:0|0:0,0:0:0:0:
456,264,31819,1,8,0:0:0:0:
468,256,31900,6,0,L|476:168,1,75.000002861023,4|2,0:0|0:0,0:0:0:0:
492,40,32224,1,8,0:0:0:0:
396,148,32386,1,8,0:0:0:0:
309,29,32549,2,0,L|315:103,1,75.000002861023,4|4,0:3|0:3,0:0:0:0:
328,248,32873,1,8,0:0:0:0:
328,248,32954,1,2,0:0:0:0:
328,248,33035,6,0,P|293:231|244:232,1,75.000002861023,2|2,0:0|0:0,0:0:0:0:
100,208,33359,2,0,P|135:196|167:176,1,75.000002861023,4|8,0:3|0:0,0:0:0:0:
208,36,33684,1,8,0:0:0:0:
88,108,33846,1,8,0:3:0:0:
88,108,33927,1,8,0:3:0:0:
88,108,34008,2,0,L|48:104,2,37.5000014305115,8|8|8,0:3|0:3|0:0,0:0:0:0:
104,340,34332,6,0,B|76:320|76:320|64:192,1,150.000005722046,4|4,0:0|0:3,0:0:0:0:
240,252,34819,1,10,0:0:0:0:
240,252,34900,1,2,0:0:0:0:
240,252,34981,1,10,0:0:0:0:
276,176,35143,2,0,P|324:232|300:312,1,150.000005722046,4|8,0:3|0:0,0:0:0:0:
244,168,35630,6,0,P|276:104|196:88,1,150.000005722046,4|4,0:0|0:3,0:0:0:0:
52,40,36116,1,10,0:0:0:0:
59,48,36197,1,2,0:0:0:0:
51,84,36278,1,10,0:0:0:0:
61,88,36359,1,2,0:0:0:0:
69,125,36440,2,0,P|106:134|156:127,1,75.000002861023,4|4,0:3|0:3,0:0:0:0:
68,220,36765,2,0,P|31:230|-9:261,1,75.000002861023,8|4,0:0|0:3,0:0:0:0:
188,344,37089,6,0,L|191:269,1,75.000002861023,4|0,0:0|0:0,0:0:0:0:
264,188,37413,1,8,0:0:0:0:
308,316,37575,1,8,0:0:0:0:
412,252,37738,2,0,L|424:348,1,75.000002861023,4|4,0:3|0:3,0:0:0:0:
512,128,38062,1,8,0:0:0:0:
512,128,38143,1,2,0:0:0:0:
512,128,38224,6,0,P|476:148|428:152,1,75.000002861023,2|0,0:0|0:0,0:0:0:0:
372,28,38548,2,0,P|408:34|441:53,1,75.000002861023,4|8,0:3|0:0,0:0:0:0:
380,244,38873,1,8,0:0:0:0:
312,156,39035,1,8,0:3:0:0:
312,156,39116,1,8,0:3:0:0:
312,156,39197,2,0,L|320:100,2,37.5000014305115,8|8|8,0:3|0:3|0:0,0:0:0:0:
136,48,39521,6,0,P|192:84|192:172,1,150.000005722046,4|0,0:0|0:0,0:0:0:0:
24,112,40008,1,10,0:0:0:0:
24,112,40089,1,2,0:0:0:0:
24,112,40170,1,10,0:0:0:0:
120,136,40332,2,0,B|276:48,1,150.000005722046,4|8,0:3|0:0,0:0:0:0:
24,140,40819,6,0,B|8:180|8:180|4:240|92:268,1,150.000005722046,4|4,0:0|0:3,0:0:0:0:
192,304,41305,1,8,0:0:0:0:
196,296,41386,1,8,0:0:0:0:
224,296,41467,1,8,0:0:0:0:
228,288,41548,1,8,0:0:0:0:
256,292,41630,2,0,B|276:304|276:304|288:372,1,75.000002861023,4|8,3:0|0:0,0:0:0:0:
376,248,41954,2,0,B|387:268|387:268|363:333,1,75.000002861023,8|4,0:0|3:0,0:0:0:0:
472,300,42278,5,6,1:2:0:0:
456,216,42440,2,0,L|444:146,1,69.9999978637695,2|8,0:0|0:0,0:0:0:0:
508,44,42765,1,2,0:0:0:0:
508,44,42846,1,2,0:0:0:0:
508,44,42927,1,0,0:0:0:0:
424,60,43089,2,0,L|328:76,1,69.9999978637695,2|8,0:0|0:0,0:0:0:0:
184,60,43413,5,2,0:0:0:0:
268,48,43576,1,0,0:0:0:0:
284,132,43738,2,0,L|295:201,1,69.9999978637695,2|8,0:0|0:0,0:0:0:0:
176,84,44062,1,2,0:0:0:0:
176,84,44143,1,2,0:0:0:0:
176,84,44224,1,2,0:0:0:0:
92,72,44386,2,0,L|-4:56,1,69.9999978637695,2|8,0:0|0:0,0:0:0:0:
196,184,44711,5,2,0:0:0:0:
40,160,44873,1,4,3:2:0:0:
180,204,45035,2,0,L|192:288,1,69.9999978637695,2|8,0:0|0:0,0:0:0:0:
64,256,45359,1,2,0:0:0:0:
64,256,45440,1,2,0:0:0:0:
64,256,45521,1,0,0:0:0:0:
144,328,45684,2,0,P|176:316|228:308,1,69.9999978637695,2|8,0:0|0:0,0:0:0:0:
328,356,46008,5,2,0:0:0:0:
376,244,46170,1,0,0:0:0:0:
456,272,46332,1,2,0:0:0:0:
408,164,46494,1,8,0:0:0:0:
476,280,46657,2,0,P|487:310|488:364,1,69.9999978637695,6|0,0:3|0:0,0:0:0:0:
392,144,46981,1,8,0:0:0:0:
392,144,47143,2,0,P|356:132|320:108,1,69.9999978637695,0|4,1:0|3:0,0:0:0:0:
356,256,47467,5,6,1:2:0:0:
272,272,47629,2,0,L|176:288,1,69.9999978637695,2|8,0:0|0:0,0:0:0:0:
68,160,47954,1,2,0:0:0:0:
68,160,48035,1,2,0:0:0:0:
68,160,48116,1,2,0:0:0:0:
152,176,48278,2,0,L|248:192,1,69.9999978637695,2|8,0:0|0:0,0:0:0:0:
268,292,48602,5,2,0:0:0:0:
188,312,48765,1,0,0:0:0:0:
104,328,48927,2,0,P|64:312|32:276,1,69.9999978637695,2|8,0:0|0:0,0:0:0:0:
68,176,49251,1,2,0:0:0:0:
68,176,49332,1,2,0:0:0:0:
68,176,49413,1,0,0:0:0:0:
152,176,49575,2,0,P|140:216|116:244,1,69.9999978637695,2|8,0:0|0:0,0:0:0:0:
8,68,49900,5,2,0:0:0:0:
136,88,50062,1,4,0:2:0:0:
220,104,50224,2,0,L|296:68,1,69.9999978637695,2|8,0:0|0:0,0:0:0:0:
432,52,50548,1,2,0:0:0:0:
432,52,50629,1,2,0:0:0:0:
432,52,50710,1,2,0:0:0:0:
304,64,50873,2,0,P|268:52|228:16,1,69.9999978637695,2|8,0:0|0:0,0:0:0:0:
436,72,51197,5,2,0:0:0:0:
412,152,51359,1,4,0:3:0:0:
480,260,51521,1,6,0:3:0:0:
456,340,51683,1,8,0:0:0:0:
320,304,51846,2,0,B|331:292|331:292|383:280,1,69.9999978637695,4|0,1:2|0:0,0:0:0:0:
500,176,52170,1,8,0:0:0:0:
500,176,52332,2,0,B|448:164|448:164|436:152,1,69.9999978637695,8|8,0:0|0:0,0:0:0:0:
420,164,52575,1,8,0:0:0:0:
404,176,52656,6,0,L|328:164,1,59.9999981689453,4|8,1:0|0:0,0:0:0:0:
248,56,53305,2,0,P|276:112|224:148,1,119.999996337891,8|0,0:0|1:0,0:0:0:0:
232,64,53792,6,0,B|196:76|196:76|184:72|184:72|152:84|96:76,1,119.999996337891,8|8,0:0|0:0,0:0:0:0:
44,40,54278,2,0,L|36:124,1,59.9999981689453,0|0,1:0|1:0,0:0:0:0:
32,172,54602,2,0,L|24:256,1,59.9999981689453,8|4,0:0|0:3,0:0:0:0:
20,304,54927,2,0,L|12:388,1,59.9999981689453,0|8,1:0|0:0,0:0:0:0:
108,276,55251,6,0,P|124:340|180:352,1,119.999996337891,4|0,1:2|1:0,0:0:0:0:
348,264,55900,2,0,P|332:328|276:340,1,119.999996337891,8|4,0:0|0:3,0:0:0:0:
224,308,56386,2,0,L|232:240,1,59.9999981689453,8|0,0:0|0:0,0:0:0:0:
240,144,56710,1,8,0:0:0:0:
240,144,56873,1,0,1:0:0:0:
140,200,57035,2,0,L|148:284,1,59.9999981689453,0|8,1:0|0:0,0:0:0:0:
208,120,57359,2,0,L|200:48,2,69.9999978637695,0|8|0,1:0|0:0|1:0,0:0:0:0:
224,132,57764,1,0,0:0:0:0:
240,144,57846,6,0,P|304:116|380:132,1,139.999995727539,4|8,1:2|0:0,0:0:0:0:
504,76,58332,1,0,0:0:0:0:
356,28,58494,2,0,P|320:17|282:-8,1,69.9999978637695,0|0,0:0|1:0,0:0:0:0:
500,64,58819,1,8,0:0:0:0:
404,128,58981,6,0,B|392:156|392:156|408:184|408:184|404:228|352:260,1,139.999995727539,4|0,1:2|1:0,0:0:0:0:
256,284,59467,1,8,0:0:0:0:
352,232,59629,1,0,0:0:0:0:
356,332,59792,1,0,1:0:0:0:
248,304,59954,2,0,P|212:304|156:320,1,69.9999978637695,0|8,1:0|0:0,0:0:0:0:
32,204,60278,6,0,P|26:276|97:285,1,139.999995727539,4|0,1:2|1:0,0:0:0:0:
208,200,60764,2,0,L|224:124,1,69.9999978637695,8|0,0:0|0:0,0:0:0:0:
96,44,61089,1,0,1:0:0:0:
96,44,61251,2,0,L|108:140,1,69.9999978637695,0|8,1:0|0:0,0:0:0:0:
252,104,61575,6,0,B|304:96|304:96|317:100|317:100|416:88,1,139.999995727539,4|0,1:2|1:0,0:0:0:0:
400,80,61981,1,0,1:0:0:0:
408,68,62062,1,12,0:0:0:0:
492,248,62224,1,12,0:0:0:0:
492,248,62548,2,0,L|500:188,2,59.9999981689453,2|0|2,0:0|0:0|0:0,0:0:0:0:
388,208,63035,5,6,3:2:0:0:
476,344,63197,1,0,0:0:0:0:
400,216,63359,1,8,0:0:0:0:
328,288,63521,1,4,0:3:0:0:
220,256,63683,2,0,P|176:256|120:280,1,79.9999999999999,2|4,0:0|0:3,0:0:0:0:
316,296,64008,1,8,0:0:0:0:
272,152,64170,6,0,B|260:124|260:124|268:100|268:100|252:36|188:28,1,160,4|4,0:0|0:3,0:0:0:0:
184,32,64575,1,4,0:3:0:0:
168,36,64656,1,8,0:0:0:0:
36,132,64819,1,4,0:3:0:0:
36,132,64900,1,8,0:0:0:0:
36,132,64981,2,0,L|120:124,1,79.9999999999999,4|0,0:3|0:0,0:0:0:0:
16,252,65305,2,0,L|104:224,1,79.9999999999999,8|4,0:0|0:3,0:0:0:0:
232,288,65629,5,4,0:0:0:0:
108,328,65792,1,4,0:3:0:0:
192,196,65954,1,8,0:0:0:0:
224,304,66116,1,4,0:3:0:0:
332,276,66278,2,0,L|340:192,2,79.9999999999999,2|0|8,0:0|0:0|0:0,0:0:0:0:
480,376,66764,6,0,B|512:344|512:344|520:264|444:240,1,160,4|4,0:0|0:3,0:0:0:0:
472,228,67170,1,4,0:3:0:0:
480,208,67251,1,8,0:0:0:0:
328,160,67413,2,0,B|329:201|329:201|340:220|340:220|348:344,1,160,4|4,0:3|0:3,0:0:0:0:
424,116,67900,1,8,0:0:0:0:
272,72,68062,1,8,0:0:0:0:
416,100,68224,6,0,L|495:89,1,79.9999999999999,4|0,3:2|0:0,0:0:0:0:
284,56,68548,2,0,L|204:45,1,79.9999999999999,8|4,0:0|0:3,0:0:0:0:
312,172,68873,1,2,0:0:0:0:
180,220,69035,2,0,B|176:196|176:196|200:124,1,79.9999999999999,4|8,0:3|0:0,0:0:0:0:
16,12,69359,6,0,B|48:40|48:40|64:176,1,160,4|4,0:0|0:3,0:0:0:0:
48,172,69764,1,4,0:3:0:0:
36,188,69846,1,8,0:0:0:0:
104,328,70008,2,0,P|100:260|176:240,1,160,4|4,0:3|0:3,0:0:0:0:
328,281,70494,2,0,P|291:296|252:300,1,79.9999999999999,8|4,0:0|0:3,0:0:0:0:
264,44,70819,6,0,P|244:112|284:220,1,160,4|8,3:2|0:0,0:0:0:0:
424,244,71305,1,4,0:3:0:0:
424,244,71386,1,8,0:0:0:0:
424,244,71467,2,0,P|428:292|416:340,1,79.9999999999999,2|4,0:0|0:3,0:0:0:0:
288,188,71792,1,8,0:0:0:0:
504,84,71954,6,0,B|476:96|476:96|456:92|456:92|408:116|328:92,1,160,4|4,3:2|0:3,0:0:0:0:
340,84,72359,1,0,0:0:0:0:
332,68,72440,1,8,0:0:0:0:
248,204,72602,1,8,0:0:0:0:
212,116,72764,1,0,0:0:0:0:
180,24,72927,1,4,3:0:0:0:
120,148,73089,1,8,0:0:0:0:
112,152,73170,1,8,0:0:0:0:
104,156,73251,1,8,0:0:0:0:
96,160,73332,1,8,0:0:0:0:
88,164,73413,6,0,P|72:204|72:272,1,79.9999999999999,6|4,3:2|0:3,0:0:0:0:
12,316,73737,2,0,P|80:268|172:296,1,160,8|2,0:0|0:0,0:0:0:0:
304,320,74224,1,4,0:3:0:0:
168,264,74386,1,8,0:0:0:0:
288,184,74548,6,0,B|324:220|324:220|464:228,1,160,4|4,0:0|0:3,0:0:0:0:
444,216,74954,1,4,0:3:0:0:
456,204,75035,1,8,0:0:0:0:
456,100,75197,6,0,P|412:52|308:92,1,160,8|4,0:0|0:3,0:0:0:0:
380,128,75683,1,8,0:0:0:0:
324,48,75846,1,4,0:3:0:0:
220,96,76008,6,0,P|176:96|136:80,2,79.9999999999999,6|0|8,0:0|0:0|0:0,0:0:0:0:
196,4,76494,1,4,0:3:0:0:
56,112,76656,1,2,0:0:0:0:
228,128,76819,2,0,P|188:130|151:145,1,79.9999999999999,0|8,0:0|0:0,0:0:0:0:
0,224,77143,6,0,B|8:252|8:252|64:300|140:248,1,160,4|4,0:0|0:3,0:0:0:0:
144,260,77548,1,4,0:3:0:0:
160,264,77629,1,8,0:0:0:0:
260,348,77792,2,0,B|300:334|300:334|316:340|316:340|416:320,1,160,4|4,0:3|0:3,0:0:0:0:
268,196,78278,2,0,L|264:244,2,40,8|8|8,0:0|0:3|0:3,0:0:0:0:
432,92,78602,5,8,0:0:0:0:
360,204,78764,1,4,0:3:0:0:
276,104,78927,1,4,0:3:0:0:
428,112,79089,5,8,0:0:0:0:
360,188,79251,1,4,0:3:0:0:
288,96,79413,1,4,0:3:0:0:
460,208,79575,5,8,0:0:0:0:
276,264,79737,1,8,0:0:0:0:
256,192,81197,5,4,3:2:0:0:
256,192,81359,12,8,83629,0:0:0:0:
420,72,90927,6,0,L|416:92,1,12.5,8|0,0:0|0:0,0:0:0:0:
424,84,91170,2,0,L|420:104,1,12.5,8|0,0:0|0:0,0:0:0:0:
428,96,91413,2,0,L|424:116,1,12.5,8|0,0:0|0:0,0:0:0:0:
492,156,91575,6,0,B|472:176|448:192|448:192|408:192|408:192|372:220|372:220|296:240|196:240|196:240|276:236|316:184,1,449.99998626709,4|0,1:0|0:0,0:0:0:0:
311,189,94170,2,0,B|308:212|308:212|312:220|312:220|304:264,1,69.9999978637695,4|0,0:3|0:0,0:0:0:0:
88,40,96764,5,6,1:2:0:0:
104,124,96926,2,0,L|120:220,1,69.9999978637695,2|8,0:0|0:0,0:0:0:0:
176,68,97251,1,2,0:0:0:0:
176,68,97332,1,2,0:0:0:0:
176,68,97413,1,2,0:0:0:0:
192,152,97575,2,0,L|208:248,1,69.9999978637695,2|8,0:0|0:0,0:0:0:0:
264,100,97899,5,2,0:0:0:0:
344,128,98062,1,0,0:0:0:0:
420,92,98224,2,0,L|432:16,1,69.9999978637695,2|8,0:0|0:0,0:0:0:0:
352,160,98548,1,2,0:0:0:0:
352,160,98629,1,2,0:0:0:0:
352,160,98710,1,2,0:0:0:0:
480,160,98872,2,0,P|500:131|509:98,1,69.9999978637695,2|8,0:0|0:0,0:0:0:0:
360,184,99197,5,2,0:0:0:0:
464,248,99359,1,4,0:2:0:0:
404,308,99521,2,0,L|320:316,1,69.9999978637695,2|8,0:0|0:0,0:0:0:0:
176,312,99845,1,2,0:0:0:0:
176,312,99926,1,2,0:0:0:0:
176,312,100007,1,2,0:0:0:0:
248,272,100170,2,0,P|256:308|248:356,1,69.9999978637695,2|8,0:0|0:0,0:0:0:0:
156,288,100494,5,2,0:0:0:0:
72,272,100656,1,4,0:3:0:0:
0,176,100818,1,6,0:3:0:0:
84,168,100980,1,8,0:0:0:0:
160,84,101143,2,0,B|140:68|140:68|68:60,1,69.9999978637695,4|0,1:2|0:0,0:0:0:0:
256,36,101467,1,8,0:0:0:0:
256,36,101629,2,0,B|264:124,1,69.9999978637695,8|8,0:0|0:0,0:0:0:0:
280,100,101872,1,8,0:0:0:0:
296,96,101954,6,0,L|368:104,1,59.9999981689453,4|8,1:0|0:0,0:0:0:0:
488,108,102602,2,0,B|398:112|398:112|356:136,1,119.999996337891,8|0,0:0|1:0,0:0:0:0:
472,132,103089,6,0,P|500:172|440:204,1,119.999996337891,8|8,0:0|0:0,0:0:0:0:
476,292,103575,2,0,L|392:284,1,59.9999981689453,0|0,1:0|1:0,0:0:0:0:
344,280,103899,2,0,L|260:272,1,59.9999981689453,8|4,0:0|0:3,0:0:0:0:
212,268,104224,2,0,L|128:260,1,59.9999981689453,0|8,1:0|0:0,0:0:0:0:
40,344,104548,6,0,B|28:316|28:316|48:212,1,119.999996337891,4|0,1:2|1:0,0:0:0:0:
256,196,105197,2,0,B|268:168|268:168|248:64,1,119.999996337891,8|4,0:0|0:3,0:0:0:0:
172,36,105683,2,0,L|164:95,1,59.9999981689453,8|0,0:0|0:0,0:0:0:0:
156,176,106007,1,8,0:0:0:0:
156,176,106170,1,0,1:0:0:0:
56,120,106332,2,0,L|47:52,1,59.9999981689453,0|8,1:0|0:0,0:0:0:0:
112,260,106656,2,0,L|32:268,2,69.9999978637695,0|8|0,1:0|0:0|1:0,0:0:0:0:
124,276,107061,1,0,1:0:0:0:
136,288,107143,6,0,P|204:304|260:256,1,139.999995727539,4|8,1:2|0:0,0:0:0:0:
360,272,107629,1,0,0:0:0:0:
256,264,107791,2,0,L|273:332,1,69.9999978637695,0|0,0:0|1:0,0:0:0:0:
232,180,108116,1,8,0:0:0:0:
388,248,108278,6,0,B|420:272|420:272|440:332|372:380,1,139.999995727539,4|0,1:2|1:0,0:0:0:0:
460,176,108764,1,8,0:0:0:0:
512,276,108926,1,0,0:0:0:0:
460,176,109089,1,0,1:0:0:0:
512,76,109251,2,0,P|480:88|432:84,1,69.9999978637695,0|8,1:0|0:0,0:0:0:0:
264,120,109575,6,0,P|284:57|349:53,1,139.999995727539,4|0,1:2|1:0,0:0:0:0:
460,176,110061,2,0,P|416:172|380:148,1,69.9999978637695,8|0,0:0|0:0,0:0:0:0:
172,128,110386,1,0,1:0:0:0:
172,128,110548,2,0,P|204:112|256:108,1,69.9999978637695,0|8,1:0|0:0,0:0:0:0:
392,256,110872,6,0,B|318:264|318:264|305:260|305:260|253:268,1,139.999995727539,4|0,1:2|1:0,0:0:0:0:
264,280,111278,1,0,1:0:0:0:
272,292,111359,1,12,0:0:0:0:
52,264,111521,1,12,0:0:0:0:
116,208,111683,2,0,L|120:168,3,34.9999989318848,8|8|8|8,0:3|0:3|0:3|0:3,0:0:0:0:
40,184,112008,2,0,L|44:144,3,34.9999989318848,4|4|4|4,0:3|0:3|0:3|0:3,0:0:0:0:
104,96,112332,5,6,3:2:0:0:
248,132,112494,1,4,0:3:0:0:
316,60,112656,1,8,0:0:0:0:
448,92,112818,1,4,0:3:0:0:
272,152,112980,2,0,L|284:236,1,82.5000007867812,2|4,0:0|0:3,0:0:0:0:
300,332,113305,1,8,0:0:0:0:
476,304,113467,6,0,B|484:260|484:260|436:200|348:236,1,165.000001573562,4|4,0:0|0:3,0:0:0:0:
380,236,113872,1,4,0:3:0:0:
384,244,113953,1,8,0:0:0:0:
312,344,114116,1,4,0:3:0:0:
312,344,114197,1,8,0:0:0:0:
312,344,114278,2,0,L|228:336,1,82.5000007867812,4|0,0:3|0:0,0:0:0:0:
96,320,114602,2,0,L|-24:304,1,82.5000007867812,8|4,0:0|0:3,0:0:0:0:
180,248,114926,5,4,0:0:0:0:
20,300,115089,1,4,0:3:0:0:
192,232,115251,1,8,0:0:0:0:
72,192,115413,1,4,0:3:0:0:
108,100,115575,2,0,B|100:60|100:60|52:72,2,82.5000007867812,2|4|8,0:0|0:3|0:0,0:0:0:0:
308,72,116061,6,0,B|356:64|356:64|376:68|376:68|484:52,1,165.000001573562,4|4,0:0|0:3,0:0:0:0:
480,68,116467,1,4,0:3:0:0:
488,80,116548,1,8,0:0:0:0:
388,104,116710,2,0,B|384:144|384:144|400:164|400:164|384:224|440:276,1,165.000001573562,4|4,0:3|0:3,0:0:0:0:
492,324,117197,1,8,0:0:0:0:
488,192,117359,1,8,0:0:0:0:
421,256,117521,6,0,L|333:264,1,82.5000007867812,4|0,3:2|0:0,0:0:0:0:
240,236,117845,2,0,L|252:332,1,82.5000007867812,8|4,0:0|0:3,0:0:0:0:
144,292,118170,1,2,0:0:0:0:
48,264,118332,2,0,B|36:304|36:304|52:341,1,82.5000007867812,4|8,0:3|0:0,0:0:0:0:
0,116,118656,6,0,B|28:148|28:148|108:156|108:156|160:112,1,165.000001573562,4|4,0:0|0:3,0:0:0:0:
136,116,119061,1,4,0:3:0:0:
132,104,119143,1,8,0:0:0:0:
292,144,119305,2,0,P|228:88|276:36,1,165.000001573562,4|4,0:3|0:3,0:0:0:0:
388,88,119791,2,0,P|427:75|468:74,1,82.5000007867812,8|4,0:0|0:3,0:0:0:0:
266,37,120116,6,0,P|260:112|324:204,1,165.000001573562,4|8,3:2|0:0,0:0:0:0:
481,182,120602,1,4,0:3:0:0:
481,182,120683,1,8,0:0:0:0:
481,182,120764,2,0,B|453:174|453:174|400:180,1,82.5000007867812,2|4,0:0|0:3,0:0:0:0:
296,208,121089,1,8,0:0:0:0:
444,300,121251,6,0,B|424:336|424:336|356:376|280:296,1,165.000001573562,4|4,3:2|0:3,0:0:0:0:
292,332,121656,1,4,0:3:0:0:
279,340,121737,1,8,0:0:0:0:
192,199,121899,1,0,0:0:0:0:
155,290,122061,1,12,3:0:0:0:
122,379,122224,1,12,3:0:0:0:
58,255,122386,1,8,0:0:0:0:
50,251,122467,1,8,0:0:0:0:
42,247,122548,1,8,0:0:0:0:
34,243,122629,1,8,0:0:0:0:
26,239,122710,2,0,L|16:128,1,82.5000007867812,6|4,3:2|0:3,0:0:0:0:
192,200,123034,6,0,P|256:172|264:72,1,165.000001573562,8|10,0:0|0:0,0:0:0:0:
88,40,123521,1,4,0:3:0:0:
192,116,123683,1,8,0:0:0:0:
288,64,123845,6,0,B|363:57|363:57|372:64|372:64|456:56,1,165.000001573562,4|4,0:0|0:3,0:0:0:0:
444,68,124251,1,4,0:3:0:0:
436,80,124332,1,8,0:0:0:0:
480,212,124494,6,0,P|416:176|324:200,1,165.000001573562,4|4,0:3|0:3,0:0:0:0:
268,284,124980,1,8,0:0:0:0:
320,180,125143,1,4,0:3:0:0:
400,264,125305,6,0,B|416:296|416:296|416:360,2,82.5000007867812,6|0|8,0:0|0:0|0:0,0:0:0:0:
312,168,125791,1,4,0:3:0:0:
276,296,125953,1,2,0:0:0:0:
184,236,126116,2,0,L|100:224,1,82.5000007867812,4|8,0:3|0:0,0:0:0:0:
228,80,126440,6,0,B|220:52|220:52|164:4|76:60,1,165.000001573562,4|4,0:0|0:3,0:0:0:0:
84,64,126845,1,4,0:3:0:0:
76,76,126926,1,8,0:0:0:0:
256,60,127089,2,0,B|296:54|296:54|312:60|312:60|356:24|432:52,1,165.000001573562,4|4,0:3|0:3,0:0:0:0:
376,164,127575,2,0,L|372:120,2,41.2500003933906,8|8|8,0:0|0:3|0:3,0:0:0:0:
192,212,127899,5,8,0:0:0:0:
200,328,128062,1,4,0:3:0:0:
308,232,128224,1,4,0:3:0:0:
204,204,128386,5,8,0:0:0:0:
216,324,128548,1,4,0:3:0:0:
304,252,128710,1,4,0:3:0:0:
120,256,128872,5,8,0:0:0:0:
308,352,129034,1,8,0:0:0:0:
308,352,129846,5,8,0:0:0:0:
392,336,130008,2,0,P|408:304|412:256,2,69.9999978637695,0|0|0,1:0|1:0|1:0,0:0:0:0:
500,288,130494,6,0,B|508:264|508:264|496:208,1,69.9999978637695,4|8,1:2|0:0,0:0:0:0:
440,160,130819,2,0,B|432:136|432:136|444:80,1,69.9999978637695,0|0,1:0|0:0,0:0:0:0:
468,4,131143,1,8,0:0:0:0:
468,4,131305,2,0,L|388:12,1,69.9999978637695,0|0,0:0|1:0,0:0:0:0:
352,128,131629,6,0,P|332:76|248:104,1,139.999995727539,12|8,0:0|0:0,0:0:0:0:
258,84,132116,2,0,P|223:95|168:96,1,69.9999978637695,0|0,1:0|1:0,0:0:0:0:
16,96,132440,2,0,P|44:44|128:52,1,139.999995727539,8|4,0:0|0:3,0:0:0:0:
168,116,132927,1,8,0:0:0:0:
88,156,133089,6,0,L|76:244,1,69.9999978637695,4|8,1:2|0:0,0:0:0:0:
16,280,133413,2,0,L|4:368,1,69.9999978637695,0|0,1:0|0:0,0:0:0:0:
112,240,133737,1,8,0:0:0:0:
112,240,133900,2,0,L|124:328,1,69.9999978637695,0|4,1:0|0:3,0:0:0:0:
208,196,134224,6,0,B|240:192|240:192|256:196|256:196|304:180|352:196,1,139.999995727539,4|8,0:0|0:0,0:0:0:0:
412,248,134710,1,0,1:0:0:0:
412,248,134873,1,0,1:0:0:0:
488,216,135035,2,0,P|508:184|512:132,1,69.9999978637695,8|4,0:0|0:3,0:0:0:0:
392,272,135359,2,0,P|399:306|417:335,1,69.9999978637695,4|0,0:3|0:0,0:0:0:0:
416,132,135683,6,0,B|396:116|396:116|332:104,1,69.9999978637695,4|8,1:2|0:0,0:0:0:0:
348,24,136008,2,0,B|322:20|322:20|261:41,1,69.9999978637695,0|8,1:0|0:0,0:0:0:0:
168,88,136332,1,8,0:0:0:0:
168,88,136494,2,0,L|84:80,1,69.9999978637695,4|4,0:3|0:3,0:0:0:0:
236,16,136819,6,0,B|260:48|260:48|268:160,1,139.999995727539,12|8,0:0|0:0,0:0:0:0:
267,147,137305,2,0,P|228:156|188:184,1,69.9999978637695,0|0,1:0|1:0,0:0:0:0:
0,232,137629,2,0,P|28:184|116:200,1,139.999995727539,8|0,0:0|0:0,0:0:0:0:
120,272,138116,1,8,0:0:0:0:
224,196,138278,6,0,L|216:284,1,69.9999978637695,4|8,1:2|0:0,0:0:0:0:
316,256,138602,2,0,L|292:340,1,69.9999978637695,0|8,1:0|0:0,0:0:0:0:
432,284,138927,1,8,0:0:0:0:
432,284,139089,2,0,L|376:352,1,69.9999978637695,0|4,1:0|0:3,0:0:0:0:
488,168,139413,6,0,B|464:192|464:192|396:200|356:136,1,139.999995727539,12|8,0:0|0:0,0:0:0:0:
432,76,139900,1,0,1:0:0:0:
432,76,140062,1,0,1:0:0:0:
332,144,140224,2,0,P|300:156|240:152,1,69.9999978637695,8|0,0:0|1:0,0:0:0:0:
312,36,140548,1,8,0:0:0:0:
312,36,140629,1,8,0:0:0:0:
312,36,140710,1,4,0:3:0:0:
168,196,140873,6,0,L|176:112,1,79.9999999999999,4|0,1:2|1:0,0:0:0:0:
8,48,141197,2,0,L|0:127,1,79.9999999999999,10|0,0:0|1:0,0:0:0:0:
152,100,141521,2,0,L|160:16,1,79.9999999999999,10|0,0:0|1:0,0:0:0:0:
16,148,141846,1,10,0:0:0:0:
72,268,142008,6,0,B|88:244|88:244|160:212|208:276,1,160,4|0,0:0|1:0,0:0:0:0:
236,296,142413,1,0,1:0:0:0:
236,296,142494,2,0,L|324:288,1,79.9999999999999,8|0,0:0|0:0,0:0:0:0:
252,192,142819,1,8,0:0:0:0:
252,192,142981,1,0,1:0:0:0:
152,344,143143,1,8,0:0:0:0:
152,344,143305,1,0,1:0:0:0:
336,308,143467,6,0,L|440:320,1,79.9999999999999,14|0,0:0|1:0,0:0:0:0:
512,124,143792,2,0,L|432:114,1,79.9999999999999,10|0,0:0|1:0,0:0:0:0:
348,292,144116,2,0,L|427:301,1,79.9999999999999,10|0,0:0|1:0,0:0:0:0:
348,184,144440,1,10,0:0:0:0:
456,80,144602,6,0,B|420:96|420:96|364:64|292:84,1,160,4|0,1:2|1:0,0:0:0:0:
268,64,145008,1,0,1:0:0:0:
268,64,145089,2,0,P|228:72|168:68,1,79.9999999999999,8|0,0:0|1:0,0:0:0:0:
48,32,145413,1,8,0:0:0:0:
48,32,145575,1,0,1:0:0:0:
164,168,145737,1,8,0:0:0:0:
176,40,145900,1,8,0:0:0:0:
44,160,146062,6,0,P|48:204|76:252,1,79.9999999999999,14|0,0:2|0:0,0:0:0:0:
288,308,146386,2,0,P|284:264|256:216,1,79.9999999999999,10|0,0:0|1:0,0:0:0:0:
72,176,146710,2,0,P|76:220|104:268,1,79.9999999999999,10|0,0:0|1:0,0:0:0:0:
184,144,147035,1,10,0:0:0:0:
176,316,147197,6,0,P|244:348|332:320,1,160,4|0,1:2|1:0,0:0:0:0:
360,340,147602,1,0,1:0:0:0:
360,340,147683,2,0,L|352:252,1,79.9999999999999,8|0,0:0|1:0,0:0:0:0:
484,184,148008,1,10,0:0:0:0:
484,184,148170,1,0,1:0:0:0:
460,304,148332,1,10,0:0:0:0:
460,304,148494,1,0,1:0:0:0:
328,160,148656,6,0,B|300:172|300:172|228:172,1,79.9999999999999,14|0,0:0|1:0,0:0:0:0:
424,28,148981,2,0,B|473:28|473:28|501:40,1,79.9999999999999,10|0,0:0|1:0,0:0:0:0:
320,180,149305,2,0,B|292:192|292:192|220:192,1,79.9999999999999,10|0,0:0|1:0,0:0:0:0:
160,12,149629,1,8,0:0:0:0:
328,44,149792,6,0,B|309:68|309:68|247:104,1,79.9999999999999,4|0,1:2|0:0,0:0:0:0:
60,56,150116,1,8,0:0:0:0:
168,24,150278,1,8,0:0:0:0:
224,176,150440,1,8,0:0:0:0:
116,208,150602,2,0,L|60:196,3,40,0|0|0|0,1:0|1:0|1:0|1:0,0:0:0:0:
96,284,150927,1,8,0:0:0:0:
100,296,151008,1,8,0:0:0:0:
120,296,151089,1,8,0:0:0:0:
124,308,151170,1,8,0:0:0:0:
144,308,151251,6,0,L|188:304,2,42.5000008106231,2|2|2,1:2|0:0|1:2,0:0:0:0:
352,340,151575,2,0,L|394:336,2,42.5000008106231,10|2|2,0:0|0:0|1:2,0:0:0:0:
288,248,151900,1,2,0:0:0:0:
288,248,151981,1,10,0:0:0:0:
288,248,152062,1,2,1:2:0:0:
432,308,152224,1,10,0:0:0:0:
432,308,152305,1,2,0:0:0:0:
432,308,152386,1,2,1:2:0:0:
504,184,152548,6,0,L|512:120,2,42.5000008106231,2|2|2,0:0|0:0|1:2,0:0:0:0:
396,216,152873,2,0,L|404:152,2,42.5000008106231,10|2|2,0:0|0:0|1:2,0:0:0:0:
348,16,153197,1,2,0:0:0:0:
348,16,153278,1,10,0:0:0:0:
348,16,153359,1,2,1:2:0:0:
432,88,153521,1,10,0:0:0:0:
432,88,153602,1,2,0:0:0:0:
432,88,153683,1,2,1:2:0:0:
304,192,153846,6,0,P|264:204|204:196,1,85.0000016212463,4|2,1:0|0:0,0:0:0:0:
196,208,154089,1,2,0:0:0:0:
196,208,154170,2,0,L|204:120,1,85.0000016212463,8|2,0:0|1:2,0:0:0:0:
224,96,154413,1,10,0:0:0:0:
224,96,154494,2,0,L|136:88,1,85.0000016212463,2|2,0:0|1:2,0:0:0:0:
132,60,154737,1,2,0:0:0:0:
132,60,154819,1,10,0:0:0:0:
20,140,154981,6,0,P|12:224|96:288,1,170.000003242493,2|2,1:2|1:2,0:0:0:0:
152,356,155467,1,10,0:0:0:0:
156,331,155548,1,2,0:0:0:0:
173,312,155629,1,2,1:2:0:0:
196,303,155710,1,10,0:0:0:0:
220,308,155792,2,0,B|252:284|252:284|260:228,1,85.0000016212463,2|2,0:0|1:2,0:0:0:0:
352,280,156116,2,0,L|360:340,2,42.5000008106231,10|2|10,0:0|0:0|0:0,0:0:0:0:
500,184,156440,6,0,P|460:200|392:200,1,85.0000016212463,2|2,1:2|1:2,0:0:0:0:
388,188,156683,1,0,0:0:0:0:
388,188,156764,2,0,P|376:144|352:104,1,85.0000016212463,10|2,0:0|1:2,0:0:0:0:
376,80,157008,1,10,0:0:0:0:
376,80,157089,2,0,P|343:47|302:25,1,85.0000016212463,2|2,0:0|1:2,0:0:0:0:
276,40,157332,1,0,0:0:0:0:
276,40,157413,1,10,0:0:0:0:
132,152,157575,6,0,P|70:102|102:30,1,170.000003242493,6|2,1:2|1:2,0:0:0:0:
244,136,158062,1,10,0:0:0:0:
240,148,158143,1,2,0:0:0:0:
236,160,158224,1,2,1:2:0:0:
232,172,158305,1,10,0:0:0:0:
228,184,158386,2,0,L|244:304,1,85.0000016212463,2|0,0:0|1:2,0:0:0:0:
116,304,158710,2,0,L|124:248,2,42.5000008106231,10|2|2,0:0|0:0|1:2,0:0:0:0:
276,276,159035,5,6,1:2:0:0:
276,276,159116,1,2,0:0:0:0:
276,276,159197,1,2,1:2:0:0:
144,168,159359,2,0,L|137:125,2,42.5000008106231,10|2|2,0:0|0:0|1:2,0:0:0:0:
360,188,159683,1,2,0:0:0:0:
360,188,159764,1,10,0:0:0:0:
360,188,159846,1,2,1:2:0:0:
244,136,160008,2,0,L|237:93,2,42.5000008106231,10|2|2,0:0|0:0|1:2,0:0:0:0:
432,104,160332,5,2,0:0:0:0:
454,129,160413,1,2,0:0:0:0:
466,161,160494,1,2,1:2:0:0:
468,194,160575,1,2,1:2:0:0:
458,227,160656,2,0,P|431:263|379:287,1,85.0000016212463,10|10,0:0|0:0,0:0:0:0:
268,244,160981,1,0,1:0:0:0:
360,188,161143,1,0,1:0:0:0:
277,106,161305,1,8,0:0:0:0:
273,94,161386,1,8,0:0:0:0:
237,94,161467,1,8,0:0:0:0:
233,82,161548,1,8,0:0:0:0:
196,80,161629,6,0,B|144:68|144:68|120:32,1,85.0000016212463,6|2,0:0|0:0,0:0:0:0:
0,168,161954,2,0,L|104:160,1,85.0000016212463,10|2,0:0|0:0,0:0:0:0:
212,240,162278,1,2,0:0:0:0:
238,340,162440,1,2,0:0:0:0:
113,267,162602,1,8,0:0:0:0:
232,220,162764,6,0,B|264:244|264:244|408:224,1,170.000003242493,6|2,0:0|1:2,0:0:0:0:
428,220,163170,1,2,1:2:0:0:
428,220,163251,2,0,L|416:328,1,85.0000016212463,8|4,0:0|0:3,0:0:0:0:
300,148,163575,1,2,0:0:0:0:
404,68,163737,1,4,0:3:0:0:
480,140,163900,1,10,0:0:0:0:
400,84,164062,1,2,1:2:0:0:
284,136,164224,6,0,P|208:116|192:28,1,170.000003242493,6|10,1:2|0:0,0:0:0:0:
80,104,164710,1,0,1:0:0:0:
204,48,164873,1,2,0:0:0:0:
64,92,165035,2,0,L|52:192,1,85.0000016212463,2|8,1:2|0:0,0:0:0:0:
84,328,165359,6,0,B|94:282|94:282|152:232|220:276,1,170.000003242493,6|2,0:0|1:2,0:0:0:0:
212,284,165764,1,0,1:0:0:0:
216,300,165846,1,10,0:0:0:0:
316,216,166008,1,4,0:3:0:0:
364,316,166170,1,2,0:0:0:0:
356,340,166251,1,8,0:0:0:0:
348,364,166332,1,4,0:3:0:0:
508,292,166494,2,0,L|456:372,1,85.0000016212463,8|8,0:0|0:0,0:0:0:0:
408,176,166819,6,0,P|468:172|468:68,1,170.000003242493,6|8,0:0|0:0,0:0:0:0:
384,160,167305,2,0,P|300:164|196:128,1,170.000003242493,4|4,0:3|0:3,0:0:0:0:
316,40,167792,1,10,0:0:0:0:
296,192,167954,6,0,B|276:228|276:228|128:244,1,170.000003242493,6|2,0:0|1:0,0:0:0:0:
136,224,168359,1,2,1:2:0:0:
124,208,168440,1,10,0:0:0:0:
128,344,168602,2,0,L|224:332,1,85.0000016212463,4|0,0:3|0:0,0:0:0:0:
32,256,168927,1,4,0:3:0:0:
176,128,169089,2,0,L|72:116,1,85.0000016212463,8|4,0:0|0:3,0:0:0:0:
244,204,169413,5,6,1:2:0:0:
232,48,169575,1,0,1:0:0:0:
96,136,169737,1,8,0:0:0:0:
256,184,169900,5,2,1:2:0:0:
244,64,170062,1,2,0:0:0:0:
91,118,170224,1,2,1:2:0:0:
268,168,170386,1,8,0:0:0:0:
352,64,170548,6,0,B|396:56|396:56|460:80|448:168,1,170.000003242493,6|2,1:2|1:2,0:0:0:0:
488,256,171035,1,10,0:0:0:0:
488,256,171116,1,0,0:0:0:0:
488,256,171197,2,0,L|436:240,1,42.5000008106231,10|0,0:0|0:0,0:0:0:0:
416,320,171359,1,8,1:3:0:0:
416,320,171440,1,2,1:2:0:0:
416,320,171521,2,0,L|368:288,1,42.5000008106231,8|2,1:3|1:2,0:0:0:0:
328,360,171683,1,8,0:0:0:0:
328,360,171764,1,8,0:0:0:0:
328,360,171846,2,0,L|284:308,1,42.5000008106231,8|8,0:0|0:0,0:0:0:0:
224,348,172008,6,0,P|224:312|260:264,2,69.9999978637695,4|8|0,1:0|0:0|0:0,0:0:0:0:
238,282,172656,2,0,P|176:320|104:304,1,139.999995727539,8|0,0:0|1:0,0:0:0:0:
80,324,173143,6,0,P|116:264|108:186,1,139.999995727539,8|8,0:0|0:0,0:0:0:0:
0,92,173629,2,0,P|16:128|44:156,1,69.9999978637695,0|0,1:0|1:0,0:0:0:0:
84,80,173954,2,0,P|115:103|154:113,1,69.9999978637695,8|0,0:0|0:0,0:0:0:0:
152,28,174278,2,0,P|191:32|229:21,1,69.9999978637695,0|8,1:0|0:0,0:0:0:0:
296,60,174602,6,0,B|316:44|316:44|388:36,2,69.9999978637695,4|8|0,1:2|0:0|0:0,0:0:0:0:
360,39,175251,2,0,B|344:80|344:80|372:204,1,139.999995727539,8|4,0:0|0:3,0:0:0:0:
384,152,175737,6,0,L|376:292,1,139.999995727539,8|8,0:0|0:0,0:0:0:0:
484,192,176224,1,0,1:0:0:0:
484,192,176386,2,0,L|468:288,1,69.9999978637695,0|8,1:0|0:0,0:0:0:0:
460,344,176710,1,0,1:0:0:0:
376,291,176873,1,8,0:0:0:0:
355,297,176954,1,8,0:3:0:0:
335,303,177035,1,8,0:3:0:0:
315,309,177116,1,0,0:0:0:0:
296,316,177197,6,0,L|200:300,1,79.9999999999999,4|0,1:2|1:0,0:0:0:0:
112,320,177521,2,0,L|132:228,1,79.9999999999999,8|0,0:0|0:0,0:0:0:0:
296,136,177846,1,0,0:0:0:0:
296,136,178008,2,0,L|272:232,1,79.9999999999999,0|8,1:0|0:0,0:0:0:0:
104,216,178332,6,0,P|48:176|76:64,1,160,4|0,1:2|1:0,0:0:0:0:
192,148,178819,2,0,L|184:52,1,79.9999999999999,8|0,0:0|0:0,0:0:0:0:
412,32,179143,1,0,1:0:0:0:
332,148,179305,1,0,1:0:0:0:
304,56,179467,1,8,0:0:0:0:
448,36,179629,6,0,B|464:68|464:68|432:204,1,160,4|0,1:2|1:0,0:0:0:0:
480,288,180116,2,0,P|436:292|376:320,1,79.9999999999999,8|0,0:0|0:0,0:0:0:0:
244,224,180440,1,0,1:0:0:0:
244,224,180602,2,0,P|281:236|321:239,1,79.9999999999999,0|8,1:0|0:0,0:0:0:0:
84,276,180927,6,0,P|68:204|120:120,1,160,4|0,1:2|1:0,0:0:0:0:
128,124,181332,1,0,1:0:0:0:
148,120,181413,2,0,L|136:16,1,79.9999999999999,8|0,0:0|1:0,0:0:0:0:
312,144,181737,2,0,L|300:40,1,79.9999999999999,8|0,0:0|1:0,0:0:0:0:
476,92,182062,2,0,L|464:-12,1,79.9999999999999,8|0,0:0|1:0,0:0:0:0:
408,224,182386,6,0,L|416:184,2,40,8|8|4,0:0|0:0|0:3,0:0:0:0:
312,316,182710,1,8,0:0:0:0:
308,292,182873,1,8,0:0:0:0:
424,244,183035,2,0,L|432:204,3,40,4|4|4|4,0:3|0:3|0:3|0:3,0:0:0:0:
440,268,183359,2,0,L|448:228,3,40,4|4|8|8,0:3|0:3|0:0|0:0,0:0:0:0:
504,320,183683,1,4,1:2:0:0:
432,136,193575,6,0,L|420:48,2,59.9999981689453,8|8|8,1:3|1:3|1:3,0:0:0:0:
388,208,194062,5,2,0:3:0:0:
388,208,194224,1,0,0:0:0:0:
320,160,194386,2,0,L|184:148,1,119.999996337891,2|2,0:3|0:3,0:0:0:0:
116,140,194873,1,0,0:0:0:0:
92,60,195035,1,2,0:3:0:0:
40,172,195197,6,0,P|28:232|80:296,1,119.999996337891,0|0,1:0|0:0,0:0:0:0:
308,312,195846,2,0,P|276:296|236:288,1,59.9999981689453,0|2,0:0|0:3,0:0:0:0:
184,316,196170,1,0,0:0:0:0:
156,248,196332,1,2,0:3:0:0:
224,220,196494,1,0,0:0:0:0:
252,289,196656,6,0,P|321:295|372:264,1,119.999996337891,2|2,0:3|0:3,0:0:0:0:
512,352,197305,1,2,0:3:0:0:
512,352,197467,2,0,P|496:324|488:276,1,59.9999981689453,0|2,0:0|0:3,0:0:0:0:
440,228,197792,6,0,P|472:180|448:108,1,119.999996337891,0|0,1:0|0:0,0:0:0:0:
384,84,198278,1,2,0:3:0:0:
424,12,198440,2,0,P|372:36|296:36,1,119.999996337891
232,8,198927,1,2,0:3:0:0:
160,52,199089,1,0,0:0:0:0:
56,36,199251,6,0,L|64:112,2,59.9999981689453,2|0|2,0:3|0:0|0:3,0:0:0:0:
168,80,199737,2,0,L|160:156,2,59.9999981689453,0|2|0,0:0|0:3|0:0,0:0:0:0:
24,176,200224,1,8,0:0:0:0:
252,116,200386,1,8,0:0:0:0:
252,116,201846,5,6,3:2:0:0:
424,168,202008,1,0,0:0:0:0:
452,36,202170,1,8,0:0:0:0:
412,156,202332,1,4,0:3:0:0:
264,128,202494,2,0,L|244:236,1,86.0000013122558,2|4,0:0|0:3,0:0:0:0:
228,316,202819,1,8,0:0:0:0:
32,212,202981,6,0,B|28:168|28:168|72:100|164:140,1,172.000002624512,4|4,0:0|0:3,0:0:0:0:
148,144,203386,1,4,0:3:0:0:
156,156,203467,1,8,0:0:0:0:
104,304,203630,1,4,0:3:0:0:
104,304,203711,1,8,0:0:0:0:
104,304,203792,2,0,L|208:296,1,86.0000013122558,4|0,0:3|0:0,0:0:0:0:
284,144,204116,2,0,L|377:158,1,86.0000013122558,8|4,0:0|0:3,0:0:0:0:
448,312,204440,5,4,0:0:0:0:
312,248,204603,1,4,0:3:0:0:
440,76,204765,1,8,0:0:0:0:
472,172,204927,1,4,0:3:0:0:
352,144,205089,2,0,P|332:108|336:44,2,86.0000013122558,2|4|8,0:0|0:3|0:0,0:0:0:0:
464,280,205575,6,0,B|456:284|456:284|412:272|412:272|400:276|400:276|340:240|276:268,1,172.000002624512,4|4,0:0|0:3,0:0:0:0:
292,276,205981,1,4,0:3:0:0:
284,292,206062,1,8,0:0:0:0:
112,328,206224,2,0,P|40:288|32:200,1,172.000002624512,4|4,0:3|0:3,0:0:0:0:
220,112,206711,1,8,0:0:0:0:
132,228,206873,1,8,0:0:0:0:
88,104,207035,6,0,P|40:92|-5:92,1,86.0000013122558,4|0,3:2|0:0,0:0:0:0:
236,128,207359,2,0,P|280:124|340:96,1,86.0000013122558,8|4,0:0|0:3,0:0:0:0:
176,20,207684,1,2,0:0:0:0:
160,208,207846,2,0,B|174:266|174:266|200:280,1,86.0000013122558,4|8,0:3|0:0,0:0:0:0:
424,104,208170,6,0,B|451:136|451:136|440:180|440:180|440:228|440:228|384:256,1,172.000002624512,4|4,0:0|0:3,0:0:0:0:
388,240,208575,1,4,0:3:0:0:
368,236,208657,1,8,0:0:0:0:
160,324,208819,2,0,P|239:296|316:368,1,172.000002624512,4|4,0:3|0:3,0:0:0:0:
288,192,209305,2,0,L|296:104,1,86.0000013122558,8|4,0:0|0:3,0:0:0:0:
136,68,209630,6,0,B|96:100|96:100|80:172|160:216,1,172.000002624512,4|8,3:2|0:0,0:0:0:0:
280,92,210116,1,4,0:3:0:0:
280,92,210197,1,8,0:0:0:0:
280,92,210278,2,0,B|308:84|308:84|365:90,1,86.0000013122558,2|4,0:0|0:3,0:0:0:0:
496,124,210603,1,8,0:0:0:0:
468,272,210765,6,0,B|432:260|432:260|420:268|420:268|316:276|316:276|296:260,1,172.000002624512,4|4,3:2|0:3,0:0:0:0:
308,248,211170,1,0,0:0:0:0:
312,228,211251,1,8,0:0:0:0:
216,340,211413,1,8,0:0:0:0:
168,140,211575,1,0,0:0:0:0:
192,240,211738,1,4,3:0:0:0:
4,296,211900,1,8,0:0:0:0:
8,304,211981,1,8,0:0:0:0:
12,312,212062,1,8,0:0:0:0:
16,320,212143,1,8,0:0:0:0:
20,328,212224,2,0,B|44:340|44:340|132:316,1,86.0000013122558,6|4,3:2|0:3,0:0:0:0:
8,172,212548,6,0,B|28:208|28:208|184:232,1,172.000002624512,8|2,0:0|0:0,0:0:0:0:
212,52,213035,1,4,0:3:0:0:
68,68,213197,1,8,0:0:0:0:
232,68,213359,6,0,B|272:72|307:61|307:61|316:68|316:68|356:56|400:60,1,172.000002624512,4|4,0:0|0:3,0:0:0:0:
408,72,213765,1,4,0:3:0:0:
416,84,213846,1,8,0:0:0:0:
284,168,214008,6,0,P|259:250|304:332,1,172.000002624512,8|8,0:0|0:0,0:0:0:0:
448,352,214494,1,8,0:0:0:0:
360,240,214657,1,4,0:3:0:0:
444,176,214819,6,0,B|504:188|504:188|516:220,2,86.0000013122558,6|0|8,0:0|0:0|0:0,0:0:0:0:
360,240,215305,1,4,0:3:0:0:
316,64,215467,1,2,0:0:0:0:
252,196,215630,2,0,L|156:204,1,86.0000013122558,4|8,0:3|0:0,0:0:0:0:
56,96,215954,6,0,B|68:60|68:60|136:16|204:76,1,172.000002624512,4|4,0:0|0:3,0:0:0:0:
196,84,216359,1,4,0:3:0:0:
200,100,216440,1,8,0:0:0:0:
28,208,216602,2,0,P|112:200|208:240,1,172.000002624512,4|4,0:3|0:3,0:0:0:0:
312,128,217089,2,0,L|319:85,2,43.0000006561279,8|8|8,0:0|0:3|0:3,0:0:0:0:
308,308,217413,5,8,0:0:0:0:
216,220,217575,1,4,0:3:0:0:
404,160,217737,1,4,0:3:0:0:
212,244,217900,5,8,0:0:0:0:
412,256,218062,1,4,0:3:0:0:
292,136,218224,1,4,0:3:0:0:
456,92,218386,5,8,0:0:0:0:
308,288,218548,1,8,0:0:0:0:
308,288,219359,5,8,0:0:0:0:
224,300,219521,2,0,P|192:284|160:228,2,69.9999978637695,0|0|0,1:0|1:0|1:0,0:0:0:0:
392,276,220008,6,0,L|401:196,1,79.9999999999999,4|2,0:0|0:0,0:0:0:0:
236,88,220332,1,8,0:0:0:0:
272,196,220494,1,8,0:0:0:0:
376,84,220657,2,0,P|416:84|460:96,1,79.9999999999999,4|4,0:3|0:3,0:0:0:0:
224,108,220981,1,8,0:0:0:0:
224,108,221062,1,2,0:0:0:0:
224,108,221143,6,0,P|180:120|124:112,1,79.9999999999999,2|2,0:0|0:0,0:0:0:0:
312,168,221467,2,0,L|323:247,1,79.9999999999999,4|8,0:3|0:0,0:0:0:0:
340,340,221792,1,8,0:0:0:0:
432,264,221954,1,8,3:0:0:0:
432,264,222035,1,8,3:0:0:0:
432,264,222116,2,0,L|436:220,2,40,8|8|8,3:0|3:0|0:0,0:0:0:0:
228,308,222440,6,0,P|164:296|136:188,1,160,4|4,0:0|0:3,0:0:0:0:
48,280,222927,1,10,0:0:0:0:
48,280,223008,1,2,0:0:0:0:
48,280,223089,1,10,0:0:0:0:
212,224,223251,2,0,B|243:193|243:193|251:65,1,160,4|8,0:3|0:0,0:0:0:0:
12,92,223738,6,0,B|28:124|28:124|104:148|156:72,1,160,4|4,0:0|0:3,0:0:0:0:
336,40,224224,1,10,0:0:0:0:
348,48,224305,1,2,0:0:0:0:
380,28,224386,1,10,0:0:0:0:
384,40,224467,1,2,0:0:0:0:
408,44,224548,2,0,P|444:64|504:56,1,79.9999999999999,4|4,0:3|0:3,0:0:0:0:
376,140,224873,2,0,P|336:140|301:160,1,79.9999999999999,8|4,0:0|0:3,0:0:0:0:
496,200,225197,6,0,L|509:278,1,79.9999999999999,4|0,0:0|0:0,0:0:0:0:
360,356,225521,1,8,0:0:0:0:
400,256,225683,1,8,0:0:0:0:
268,292,225846,2,0,L|184:276,1,79.9999999999999,4|4,0:3|0:3,0:0:0:0:
301,160,226170,1,8,0:0:0:0:
301,160,226251,1,2,0:0:0:0:
301,160,226332,6,0,L|273:60,1,79.9999999999999,2|0,0:0|0:0,0:0:0:0:
172,112,226656,2,0,L|184:28,1,79.9999999999999,4|8,0:3|0:0,0:0:0:0:
80,64,226981,1,8,0:0:0:0:
279,82,227143,1,8,0:3:0:0:
279,82,227224,1,8,0:3:0:0:
279,82,227305,2,0,L|331:82,2,40,8|8|8,0:3|0:3|0:0,0:0:0:0:
72,200,227629,6,0,P|136:156|220:188,1,160,4|0,0:0|0:0,0:0:0:0:
340,272,228116,1,10,0:0:0:0:
340,272,228197,1,2,0:0:0:0:
340,272,228278,1,10,0:0:0:0:
456,272,228440,2,0,B|473:201|413:169|413:169|369:173,1,160,4|8,0:3|0:0,0:0:0:0:
240,304,228927,6,0,B|118:292|118:292|150:272,1,160,4|4,0:0|0:3,0:0:0:0:
248,172,229413,1,10,0:0:0:0:
240,168,229494,1,2,0:0:0:0:
240,140,229575,1,10,0:0:0:0:
232,136,229656,1,2,0:0:0:0:
236,108,229738,2,0,B|240:16,1,79.9999999999999,0|8,0:0|0:0,0:0:0:0:
378,92,230062,2,0,B|374:171,1,79.9999999999999,8|0,0:0|1:0,0:0:0:0:
248,292,230386,5,8,0:0:0:0:
400,272,230548,1,0,1:0:0:0:
240,304,230710,1,8,0:0:0:0:
392,284,230872,1,0,1:0:0:0:
172,240,231035,1,8,0:0:0:0:
172,240,231116,1,0,1:0:0:0:
172,240,231197,2,0,L|84:220,1,79.9999999999999,0|0,1:0|1:0,0:0:0:0:
364,184,231521,6,0,B|368:164|368:164|384:144|384:144|432:120|496:132|496:132|472:136|472:136|404:104|404:104|336:108|336:108|304:96|304:96|256:100|256:100|216:84,1,450,12|0,0:0|0:0,0:0:0:0:
