osu file format v14

[General]
AudioFilename: audio.mp3
AudioLeadIn: 1500
PreviewTime: 62427
Countdown: 1
SampleSet: Soft
StackLeniency: 0.7
Mode: 0
LetterboxInBreaks: 0
WidescreenStoryboard: 1

[Editor]
DistanceSpacing: 1.2
BeatDivisor: 4
GridSize: 8
TimelineZoom: 2.699999

[Metadata]
Title:Mukiryoku Coup D'Etat
TitleUnicode:無気力クーデター
Artist:Last Note.
ArtistUnicode:Last Note.
Creator:Ryuusei Aika
Version:Kazuha's Hard
Source:
Tags:no_gu addy2607 kaedeharakazuha narcissu klaksoncakfish japanese rock j-rock jrock the perennial 2022 gf hd2 grand winner loser finals d'État メグッポイド グミ megpoid gumi vocaloid ボーカロイド ボカロ ミカグラ学園組曲 赤間 遊兎 もやし メリケン 色白 明菜
BeatmapID:3780620
BeatmapSetID:1789331

[Difficulty]
HPDrainRate:5
CircleSize:3.5
OverallDifficulty:6
ApproachRate:8
SliderMultiplier:1.4
SliderTickRate:1

[Events]
//Background and Video events
0,0,"BG.jpg",0,0
//Break Periods
2,83992,90177
2,183883,192825
//Storyboard Layer 0 (Background)
//Storyboard Layer 1 (Fail)
//Storyboard Layer 2 (Pass)
//Storyboard Layer 3 (Foreground)
//Storyboard Layer 4 (Overlay)
//Storyboard Sound Samples

[TimingPoints]
765,324.324324324324,4,2,1,55,1,0
765,-111.111111111111,4,2,1,55,0,0
11143,-100,4,2,1,70,0,0
21521,-111.111111111111,4,2,1,55,0,0
31575,-111.111111111111,4,2,1,60,0,0
31900,-100,4,2,1,70,0,0
42278,-111.111111111111,4,2,1,55,0,0
52008,-111.111111111111,4,2,1,60,0,0
52656,-125,4,2,1,60,0,0
57846,-111.111111111111,4,2,1,65,0,0
60278,-100,4,2,1,65,0,0
62062,-100,4,2,1,75,0,0
63035,-90.9090909090909,4,2,1,80,0,1
79737,-90.9090909090909,4,2,1,70,0,0
81197,-100,4,2,1,70,0,0
91575,-125,4,2,1,40,0,0
94008,-125,4,2,1,50,0,0
96278,-125,4,2,1,5,0,0
96359,-125,4,2,1,50,0,0
96440,-125,4,2,1,70,0,0
96764,-111.111111111111,4,2,1,55,0,0
101305,-111.111111111111,4,2,1,60,0,0
101954,-125,4,2,1,60,0,0
107143,-111.111111111111,4,2,1,70,0,0
109575,-100,4,2,1,70,0,0
112332,-90.9090909090909,4,2,1,80,0,1
129035,-90.9090909090909,4,2,1,70,0,0
130494,-111.111111111111,4,2,1,70,0,0
140873,-100,4,2,1,70,0,0
151251,-90.9090909090909,4,2,1,70,0,1
161629,-90.9090909090909,4,2,1,85,0,1
170548,-90.9090909090909,4,2,1,70,0,1
172008,-125,4,2,1,70,0,0
173305,-125,4,2,1,65,0,0
173954,-125,4,2,1,60,0,0
174602,-125,4,2,1,55,0,0
177197,-111.111111111111,4,2,1,60,0,0
179629,-100,4,2,1,65,0,0
182386,-100,4,2,1,50,0,0
183683,-125,4,2,1,50,0,0
194062,-111.111111111111,4,2,1,50,0,0
201846,-90.9090909090909,4,2,1,80,0,1
218548,-90.9090909090909,4,2,1,70,0,0
220008,-100,4,2,1,70,0,0
231683,-100,4,2,1,5,0,0
232008,-100,4,2,1,50,0,0

[Colours]
Combo1 : 255,128,64
Combo2 : 0,128,64

[HitObjects]
166,54,765,6,0,P|217:46|252:43,2,62.9999980773926,4|10|0,1:1|0:0|1:0,0:0:0:0:
103,11,1251,1,2,0:0:0:0:
51,66,1413,2,0,L|63:139,1,62.9999980773926,10|4,0:0|0:3,0:0:0:0:
9,183,1737,2,0,L|-3:256,1,62.9999980773926,2|8,1:0|0:0,0:0:0:0:
45,305,2062,6,0,P|81:300|126:293,1,62.9999980773926,0|10,1:0|0:0,0:0:0:0:
157,352,2386,2,0,P|193:357|238:364,1,62.9999980773926,0|2,1:0|0:0,0:0:0:0:
289,333,2710,2,0,P|294:297|301:252,1,62.9999980773926,10|2,0:0|0:0,0:0:0:0:
256,207,3035,1,2,1:0:0:0:
351,90,3359,6,0,P|346:54|339:9,2,62.9999980773926,0|10|2,1:0|0:0|1:0,0:0:0:0:
412,134,3846,1,0,0:0:0:0:
474,176,4008,2,0,P|468:212|462:257,1,62.9999980773926,10|4,0:0|0:3,0:0:0:0:
467,313,4332,2,0,P|431:307|386:301,1,62.9999980773926,10|8,0:0|0:0,0:0:0:0:
351,357,4656,6,0,P|315:363|270:369,1,62.9999980773926,0|10,1:0|0:0,0:0:0:0:
232,315,4981,2,0,P|196:309|151:303,1,62.9999980773926,0|2,1:0|1:0,0:0:0:0:
114,253,5305,2,0,P|120:217|126:172,1,62.9999980773926,10|0,0:0|1:0,0:0:0:0:
193,147,5629,2,0,L|234:156,2,31.4999990386963,0|8|10,1:0|0:3|0:0,0:0:0:0:
109,67,5954,6,0,P|65:76|34:83,2,62.9999980773926,6|8|0,1:1|0:0|1:0,0:0:0:0:
152,5,6440,1,2,0:0:0:0:
224,25,6602,2,0,P|268:34|299:41,1,62.9999980773926,8|4,0:0|0:3,0:0:0:0:
327,101,6927,2,0,P|318:145|311:176,1,62.9999980773926,4|10,0:3|0:0,0:0:0:0:
355,225,7251,6,0,P|364:269|371:300,1,62.9999980773926,0|10,0:0|0:0,0:0:0:0:
441,268,7575,2,0,P|432:224|425:193,1,62.9999980773926,2|0,1:0|1:0,0:0:0:0:
480,151,7900,2,0,P|489:107|496:76,1,62.9999980773926,10|0,0:0|0:0,0:0:0:0:
451,26,8224,1,2,1:0:0:0:
315,91,8548,6,0,P|272:98|240:104,1,62.9999980773926,0|10,1:0|0:0,0:0:0:0:
208,40,8873,2,0,P|165:33|133:27,1,62.9999980773926,0|0,1:0|0:0,0:0:0:0:
89,79,9197,2,0,P|95:121|101:167,1,62.9999980773926,10|2,0:0|1:0,0:0:0:0:
39,189,9521,2,0,P|33:231|27:277,1,62.9999980773926,2|8,0:0|0:0,0:0:0:0:
82,313,9846,5,0,1:0:0:0:
82,313,10008,1,10,0:0:0:0:
144,271,10170,2,0,P|150:229|156:183,1,62.9999980773926,0|8,1:0|0:0,0:0:0:0:
209,158,10494,1,8,0:0:0:0:
169,93,10656,1,8,0:0:0:0:
223,39,10819,2,0,L|259:45,3,31.4999990386963,8|8|8|8,0:0|0:0|0:0|0:0,0:0:0:0:
266,39,11143,6,0,P|311:32|351:25,1,70,4|2,0:0|0:0,0:0:0:0:
401,79,11467,2,0,P|394:124|387:164,1,70,8|8,0:0|0:0,0:0:0:0:
441,221,11792,1,4,0:3:0:0:
441,221,11954,1,4,0:3:0:0:
385,283,12116,2,0,L|393:328,2,35,8|0|2,0:0|0:0|0:0,0:0:0:0:
307,241,12440,6,0,P|260:248|222:254,1,70,2|4,0:0|0:3,0:0:0:0:
200,261,12683,1,4,0:3:0:0:
200,261,12764,1,8,0:0:0:0:
133,208,12927,1,8,0:0:0:0:
85,277,13089,2,0,L|91:318,4,35,8|8|8|8|8,3:0|3:0|3:0|3:0|0:0,0:0:0:0:
133,208,13575,6,0,P|141:115|146:58,1,140,4|4,0:0|0:3,0:0:0:0:
85,16,14062,1,10,0:0:0:0:
85,16,14143,1,2,0:0:0:0:
85,16,14224,1,10,0:0:0:0:
23,72,14386,2,0,P|15:165|10:222,1,140,4|8,0:3|0:0,0:0:0:0:
17,295,14873,6,0,P|106:281|171:272,1,140,4|4,0:0|0:3,0:0:0:0:
219,328,15359,2,0,L|211:372,2,35,10|2|10,0:0|0:0|0:0,0:0:0:0:
273,263,15683,2,0,P|268:214|262:182,1,70,4|4,0:3|0:3,0:0:0:0:
197,141,16008,2,0,L|155:149,2,35,8|4|4,0:0|0:3|0:3,0:0:0:0:
256,56,16332,6,0,P|295:58|331:62,1,70,4|0,0:0|0:0,0:0:0:0:
387,4,16656,2,0,P|426:2|462:-2,1,70,8|8,0:0|0:0,0:0:0:0:
511,69,16981,1,4,0:3:0:0:
511,69,17143,1,4,0:3:0:0:
453,129,17305,2,0,L|406:134,2,35,8|0|2,0:0|0:0|0:0,0:0:0:0:
498,199,17629,6,0,P|492:251|489:275,1,70,0|4,0:0|0:3,0:0:0:0:
489,314,17873,1,4,0:3:0:0:
489,314,17954,1,8,0:0:0:0:
407,292,18116,1,8,0:0:0:0:
345,348,18278,2,0,P|318:351|299:354,4,35,8|8|8|8|8,0:3|0:3|0:3|0:3|0:0,0:0:0:0:
407,292,18764,6,0,P|418:194|423:149,1,140,4|0,0:0|0:0,0:0:0:0:
372,89,19251,1,10,0:0:0:0:
372,89,19332,1,2,0:0:0:0:
372,89,19413,1,10,0:0:0:0:
300,132,19575,2,0,P|218:151|149:166,1,140,4|8,0:3|0:0,0:0:0:0:
90,121,20062,6,0,P|78:205|66:269,1,140,4|4,0:0|0:3,0:0:0:0:
34,335,20548,2,0,L|-6:331,2,35,10|2|10,0:0|0:0|0:0,0:0:0:0:
104,381,20873,2,0,P|149:374|181:371,1,70,0|8,0:0|0:0,0:0:0:0:
227,307,21197,2,0,P|272:314|303:320,1,70,8|4,0:0|0:3,0:0:0:0:
341,330,21440,1,4,0:3:0:0:
341,330,21521,5,6,1:2:0:0:
402,286,21683,2,0,P|396:241|392:214,1,62.9999980773926,0|8,0:0|0:0,0:0:0:0:
437,161,22008,2,0,L|475:169,2,31.4999990386963,2|2|0,0:0|0:0|0:0,0:0:0:0:
370,123,22332,2,0,P|323:131|298:135,1,62.9999980773926,2|8,0:0|0:0,0:0:0:0:
250,84,22656,1,2,0:0:0:0:
201,142,22819,5,0,0:0:0:0:
201,142,22981,2,0,P|210:192|217:227,1,62.9999980773926,2|8,0:0|0:0,0:0:0:0:
274,246,23305,2,0,L|312:238,2,31.4999990386963,2|2|2,0:0|0:0|0:0,0:0:0:0:
227,305,23629,2,0,P|185:298|159:295,1,62.9999980773926,2|8,0:0|0:0,0:0:0:0:
102,339,23954,1,0,0:0:0:0:
42,292,24116,5,6,0:2:0:0:
42,292,24278,2,0,P|48:243|50:225,1,62.9999980773926,2|8,0:0|0:0,0:0:0:0:
9,165,24602,1,2,0:0:0:0:
61,111,24764,1,0,0:0:0:0:
61,111,24926,2,0,P|110:117|128:119,1,62.9999980773926,2|8,0:0|0:0,0:0:0:0:
182,166,25251,1,2,0:0:0:0:
236,113,25413,6,0,P|233:74|230:44,2,62.9999980773926,2|2|8,0:0|0:0|0:0,0:0:0:0:
182,166,25900,1,2,0:0:0:0:
255,303,26224,1,10,0:0:0:0:
255,303,26386,2,0,P|305:299|329:298,1,62.9999980773926,4|4,3:0|3:0,0:0:0:0:
381,338,26710,5,6,1:2:0:0:
442,293,26873,2,0,P|437:242|434:205,1,62.9999980773926,2|8,0:0|0:0,0:0:0:0:
372,189,27197,2,0,P|346:191|328:193,2,31.4999990386963,2|2|0,0:0|0:0|0:0,0:0:0:0:
417,128,27521,2,0,P|422:77|425:40,1,62.9999980773926,2|8,0:0|0:0,0:0:0:0:
380,1,27846,1,2,0:0:0:0:
316,39,28008,5,0,0:0:0:0:
316,39,28170,2,0,P|265:44|228:47,1,62.9999980773926,2|8,0:0|0:0,0:0:0:0:
209,106,28494,1,2,0:0:0:0:
157,50,28656,1,0,0:0:0:0:
157,50,28818,2,0,P|106:45|69:42,1,62.9999980773926,2|8,0:0|0:0,0:0:0:0:
26,79,29143,1,2,0:0:0:0:
80,141,29305,5,6,0:2:0:0:
80,141,29467,2,0,P|86:190|91:221,1,62.9999980773926,2|8,0:0|0:0,0:0:0:0:
34,257,29792,1,2,0:0:0:0:
81,322,29954,1,0,0:0:0:0:
81,322,30116,2,0,P|130:316|161:311,1,62.9999980773926,2|8,0:0|0:0,0:0:0:0:
197,261,30440,1,2,0:0:0:0:
256,307,30602,6,0,P|249:361|245:388,2,62.9999980773926,0|2|8,0:0|0:0|0:0,0:0:0:0:
197,261,31089,2,0,P|188:187|180:122,1,125.999996154785,2|8,0:0|0:0,0:0:0:0:
220,71,31575,1,8,0:0:0:0:
304,124,31737,1,0,0:0:0:0:
304,124,31819,1,8,0:0:0:0:
304,124,31900,6,0,P|346:118|377:114,1,70,4|2,0:0|0:0,0:0:0:0:
449,150,32224,2,0,P|455:192|459:223,1,70,8|8,0:0|0:0,0:0:0:0:
418,292,32548,1,4,0:3:0:0:
418,292,32710,1,4,0:3:0:0:
344,247,32873,2,0,P|340:220|337:201,2,35,8|0|2,0:0|0:0|0:0,0:0:0:0:
280,301,33197,6,0,P|235:309|202:315,1,70,2|4,0:0|0:3,0:0:0:0:
174,328,33440,1,4,0:3:0:0:
174,328,33521,1,8,0:0:0:0:
103,282,33683,1,8,0:0:0:0:
44,342,33846,2,0,L|49:381,4,35,8|8|8|8|8,0:3|0:3|0:3|0:3|0:0,0:0:0:0:
103,282,34332,6,0,P|93:206|82:135,1,140,4|4,0:0|0:3,0:0:0:0:
137,80,34819,1,10,0:0:0:0:
137,80,34900,1,2,0:0:0:0:
137,80,34981,1,10,0:0:0:0:
210,119,35143,2,0,P|220:195|231:266,1,140,4|8,0:3|0:0,0:0:0:0:
217,340,35629,6,0,P|293:330|364:319,1,140,4|4,0:0|0:3,0:0:0:0:
434,350,36116,2,0,L|440:393,2,35,10|2|10,0:0|0:0|0:0,0:0:0:0:
498,296,36440,2,0,P|504:259|511:222,1,70,4|4,0:3|0:3,0:0:0:0:
465,156,36764,2,0,P|468:136|471:117,2,35,8|4|4,0:0|0:3|0:3,0:0:0:0:
394,206,37089,6,0,P|336:213|303:218,1,70,4|0,0:0|0:0,0:0:0:0:
266,153,37413,2,0,P|208:146|175:141,1,70,8|8,0:0|0:0,0:0:0:0:
128,193,37737,1,4,0:3:0:0:
128,193,37900,1,4,0:3:0:0:
66,136,38062,2,0,L|71:96,2,35,8|0|2,0:0|0:0|0:0,0:0:0:0:
10,199,38386,6,0,P|19:257|22:293,1,70,0|4,0:0|0:3,0:0:0:0:
28,313,38629,1,4,0:3:0:0:
28,313,38710,1,8,0:0:0:0:
89,370,38873,1,8,0:0:0:0:
145,308,39035,2,0,L|140:265,4,35,8|8|8|8|8,0:3|0:3|0:3|0:3|0:0,0:0:0:0:
224,335,39521,6,0,P|294:346|371:363,1,140,4|0,0:0|0:0,0:0:0:0:
442,326,40008,1,10,0:0:0:0:
442,326,40089,1,2,0:0:0:0:
442,326,40170,1,10,0:0:0:0:
387,254,40332,2,0,P|317:243|240:226,1,140,4|8,0:3|0:0,0:0:0:0:
226,147,40819,6,0,P|145:157|83:172,1,140,4|4,0:0|0:3,0:0:0:0:
33,106,41305,2,0,L|-4:114,2,35,8|8|8,0:0|0:0|0:0,0:0:0:0:
75,33,41629,2,0,P|112:39|152:43,1,70,4|8,3:0|0:0,0:0:0:0:
221,8,41954,2,0,L|296:1,1,70,8|4,0:0|3:0,0:0:0:0:
335,0,42197,1,4,3:0:0:0:
335,0,42278,5,6,1:2:0:0:
377,62,42440,2,0,P|366:106|361:133,1,62.9999980773926,2|8,0:0|0:0,0:0:0:0:
403,186,42764,2,0,L|443:182,2,31.4999990386963,2|2|0,0:0|0:0|0:0,0:0:0:0:
336,226,43089,2,0,L|268:213,1,62.9999980773926,2|8,0:0|0:0,0:0:0:0:
224,157,43413,1,2,0:0:0:0:
162,199,43575,5,0,0:0:0:0:
162,199,43737,2,0,L|171:277,1,62.9999980773926,2|8,0:0|0:0,0:0:0:0:
123,322,44062,2,0,L|83:318,2,31.4999990386963,2|2|2,0:0|0:0|0:0,0:0:0:0:
185,364,44386,2,0,L|253:351,1,62.9999980773926,2|8,0:0|0:0,0:0:0:0:
297,296,44710,1,2,0:0:0:0:
364,341,44873,5,4,3:2:0:0:
364,341,45035,2,0,L|432:354,1,62.9999980773926,2|8,0:0|0:0,0:0:0:0:
481,301,45359,2,0,L|514:294,2,31.4999990386963,2|2|0,0:0|0:0|0:0,0:0:0:0:
429,245,45683,2,0,L|416:177,1,62.9999980773926,2|8,0:0|0:0,0:0:0:0:
462,122,46008,1,2,0:0:0:0:
415,62,46170,6,0,L|424:-6,2,62.9999980773926,0|2|8,0:0|0:0|0:0,0:0:0:0:
462,122,46656,1,6,0:3:0:0:
349,223,46981,1,8,0:0:0:0:
292,170,47143,1,0,1:0:0:0:
292,170,47305,1,4,3:0:0:0:
226,223,47467,5,6,1:2:0:0:
226,223,47629,2,0,P|231:267|234:300,1,62.9999980773926,2|8,0:0|0:0,0:0:0:0:
181,341,47954,2,0,P|178:363|176:379,2,31.4999990386963,2|2|2,0:0|0:0|0:0,0:0:0:0:
122,292,48278,2,0,P|117:248|114:215,1,62.9999980773926,2|8,0:0|0:0,0:0:0:0:
56,181,48602,1,2,0:0:0:0:
97,119,48764,5,0,0:0:0:0:
97,119,48927,2,0,P|132:122|167:126,1,62.9999980773926,2|8,0:0|0:0,0:0:0:0:
221,167,49251,2,0,L|213:218,2,31.4999990386963,2|2|0,0:0|0:0|0:0,0:0:0:0:
253,98,49575,2,0,P|288:95|323:91,1,62.9999980773926,2|8,0:0|0:0,0:0:0:0:
364,33,49900,1,2,0:0:0:0:
434,72,50062,5,4,0:2:0:0:
434,72,50224,2,0,L|423:148,1,62.9999980773926,2|8,0:0|0:0,0:0:0:0:
474,191,50548,2,0,L|508:187,2,31.4999990386963,2|2|2,0:0|0:0|0:0,0:0:0:0:
436,257,50873,2,0,L|447:333,1,62.9999980773926,2|8,0:0|0:0,0:0:0:0:
390,372,51197,1,2,0:0:0:0:
335,319,51359,6,0,L|325:256,2,62.9999980773926,4|6|8,0:3|0:3|0:0,0:0:0:0:
274,364,51846,2,0,P|213:357|138:354,1,125.999996154785,4|8,1:2|0:0,0:0:0:0:
78,381,52332,1,8,0:0:0:0:
9,313,52494,1,8,0:0:0:0:
9,313,52575,1,8,0:0:0:0:
9,313,52656,6,0,P|13:275|16:243,1,56,4|8,1:0|0:0,0:0:0:0:
0,179,52981,1,0,0:0:0:0:
0,179,53143,1,0,0:0:0:0:
60,129,53305,2,0,P|120:142|182:155,1,112,8|0,0:0|1:0,0:0:0:0:
232,199,53792,6,0,P|214:271|204:315,1,112,8|8,0:0|0:0,0:0:0:0:
263,360,54278,2,0,P|303:355|331:353,1,56,0|0,1:0|1:0,0:0:0:0:
375,300,54602,1,8,0:0:0:0:
434,351,54764,2,0,L|430:388,2,28,4|0|0,0:3|0:0|1:0,0:0:0:0:
494,205,55251,6,0,P|489:166|484:133,1,56,4|8,1:2|0:0,0:0:0:0:
512,78,55575,1,0,1:0:0:0:
512,78,55737,1,8,0:0:0:0:
449,30,55900,2,0,P|386:38|316:47,1,112,8|4,0:0|0:3,0:0:0:0:
271,85,56386,6,0,P|205:75|154:68,1,112,8|8,0:0|0:0,0:0:0:0:
109,8,56873,1,0,1:0:0:0:
38,42,57035,2,0,P|49:114|57:163,1,112,0|0,1:0|1:0,0:0:0:0:
24,224,57521,2,0,L|-15:220,2,28,8|0|0,0:0|1:0|1:0,0:0:0:0:
91,297,57846,6,0,P|143:284|229:272,1,125.999996154785,4|8,1:2|0:0,0:0:0:0:
268,211,58332,1,0,0:0:0:0:
203,161,58494,2,0,P|168:166|137:173,2,62.9999980773926,0|0|8,0:0|1:0|0:0,0:0:0:0:
253,95,58981,6,0,P|309:106|386:122,1,125.999996154785,4|0,1:2|1:0,0:0:0:0:
429,57,59467,1,8,0:0:0:0:
505,98,59629,1,0,0:0:0:0:
505,98,59792,2,0,P|500:143|493:183,1,62.9999980773926,0|0,1:0|1:0,0:0:0:0:
486,241,60116,1,8,0:0:0:0:
475,357,60278,6,0,P|403:345|323:339,1,140,4|0,1:2|1:0,0:0:0:0:
267,291,60764,2,0,P|273:242|275:209,1,70,8|0,0:0|0:0,0:0:0:0:
341,169,61089,1,0,1:0:0:0:
341,169,61251,2,0,P|335:120|333:87,1,70,0|8,1:0|0:0,0:0:0:0:
270,43,61575,6,0,P|194:50|113:64,1,140,4|0,1:2|1:0,0:0:0:0:
94,38,61981,1,0,1:0:0:0:
94,38,62062,1,12,0:0:0:0:
42,104,62224,1,12,0:0:0:0:
42,104,63035,6,0,P|50:157|54:188,1,77.0000023498536,6|0,3:2|0:0,0:0:0:0:
7,260,63359,1,8,0:0:0:0:
73,339,63521,1,4,0:3:0:0:
73,339,63602,1,8,0:0:0:0:
73,339,63683,2,0,P|133:325|248:321,1,154.000004699707,2|8,0:0|0:0,0:0:0:0:
293,256,64170,6,0,P|290:204|286:167,1,77.0000023498536,4|0,0:0|0:0,0:0:0:0:
217,119,64494,2,0,L|168:114,2,38.5000011749268,4|4|8,0:3|0:3|0:0,0:0:0:0:
267,43,64819,2,0,P|312:38|426:22,1,154.000004699707,4|0,0:3|0:0,0:0:0:0:
498,70,65305,1,8,0:0:0:0:
438,140,65467,1,4,0:3:0:0:
507,229,65629,6,0,P|501:282|498:316,1,77.0000023498536,4|4,0:0|0:3,0:0:0:0:
428,365,65954,2,0,P|375:359|341:356,1,77.0000023498536,8|4,0:0|0:3,0:0:0:0:
291,301,66278,2,0,L|251:306,2,38.5000011749268,2|0|0,0:0|0:0|0:0,0:0:0:0:
349,229,66602,1,8,0:0:0:0:
282,164,66764,6,0,P|224:169|200:173,1,77.0000023498536,4|0,0:0|0:0,0:0:0:0:
128,120,67089,2,0,L|133:71,2,38.5000011749268,4|4|8,0:3|0:3|0:0,0:0:0:0:
63,186,67413,2,0,P|72:230|90:345,1,154.000004699707,4|4,0:3|0:3,0:0:0:0:
170,382,67900,1,8,0:0:0:0:
224,307,68062,1,8,0:0:0:0:
335,358,68224,6,0,P|381:363|425:372,1,77.0000023498536,4|0,3:2|0:0,0:0:0:0:
489,320,68548,2,0,P|494:274|503:230,1,77.0000023498536,8|4,0:0|0:3,0:0:0:0:
512,201,68792,1,0,0:0:0:0:
512,201,68873,1,2,0:0:0:0:
452,130,69035,2,0,P|406:125|362:116,1,77.0000023498536,4|8,0:3|0:0,0:0:0:0:
316,48,69359,6,0,P|236:56|156:66,1,154.000004699707,4|4,0:0|0:3,0:0:0:0:
117,73,69764,1,4,0:3:0:0:
117,73,69846,1,8,0:0:0:0:
46,132,70008,2,0,L|3:127,2,38.5000011749268,4|8|2,0:3|0:0|0:0,0:0:0:0:
122,192,70332,1,4,0:3:0:0:
122,192,70494,2,0,P|173:184|215:179,1,77.0000023498536,8|4,0:0|0:3,0:0:0:0:
265,117,70819,5,4,3:2:0:0:
330,182,70981,1,0,0:0:0:0:
391,113,71143,1,8,0:0:0:0:
461,172,71305,1,4,0:3:0:0:
461,172,71386,1,8,0:0:0:0:
461,172,71467,2,0,P|453:232|450:261,2,77.0000023498536,2|4|8,0:0|0:3|0:0,0:0:0:0:
481,81,71954,6,0,P|404:71|323:61,1,154.000004699707,4|4,3:2|0:3,0:0:0:0:
287,53,72359,1,0,0:0:0:0:
287,53,72440,1,8,0:0:0:0:
216,112,72602,1,8,0:0:0:0:
216,112,72764,2,0,P|221:157|224:196,1,77.0000023498536,0|4,0:0|3:0,0:0:0:0:
316,187,73089,2,0,P|312:156|310:129,2,38.5000011749268,8|8|8,0:0|0:0|0:0,0:0:0:0:
263,262,73413,5,6,3:2:0:0:
324,330,73575,1,4,0:3:0:0:
246,379,73737,2,0,P|203:374|162:370,1,77.0000023498536,8|0,0:0|0:0,0:0:0:0:
77,357,74062,2,0,L|38:371,2,38.5000011749268,2|0|4,0:0|0:0|0:3,0:0:0:0:
123,278,74386,1,8,0:0:0:0:
48,223,74548,6,0,P|41:176|33:127,1,77.0000023498536,4|0,0:0|0:0,0:0:0:0:
89,70,74873,2,0,L|91:28,2,38.5000011749268,4|4|8,0:3|0:3|0:0,0:0:0:0:
162,124,75197,2,0,P|169:171|177:220,1,77.0000023498536,8|0,0:0|0:0,0:0:0:0:
123,278,75521,1,4,0:3:0:0:
166,359,75683,1,8,0:0:0:0:
257,343,75846,1,4,0:3:0:0:
304,263,76008,6,0,P|298:233|289:179,1,77.0000023498536,6|0,0:0|0:0,0:0:0:0:
245,106,76332,1,8,0:0:0:0:
299,34,76494,1,4,0:3:0:0:
299,34,76575,1,8,0:0:0:0:
299,34,76656,2,0,P|341:38|389:47,2,77.0000023498536,2|0|8,0:0|0:0|0:0,0:0:0:0:
197,6,77143,6,0,P|119:17|26:31,1,154.000004699707,4|4,0:0|0:3,0:0:0:0:
17,65,77548,1,4,0:3:0:0:
17,65,77629,1,8,0:0:0:0:
85,127,77792,2,0,P|161:115|237:104,1,154.000004699707,4|4,0:3|0:3,0:0:0:0:
313,157,78278,1,8,0:0:0:0:
390,106,78440,1,8,0:3:0:0:
390,106,78521,1,8,0:3:0:0:
390,106,78602,6,0,P|384:61|379:21,2,77.0000023498536,8|4|4,0:0|0:3|0:3,0:0:0:0:
463,162,79089,1,8,0:0:0:0:
463,162,79251,2,0,P|457:207|452:247,1,77.0000023498536,4|4,0:3|0:3,0:0:0:0:
494,320,79575,1,8,0:0:0:0:
425,381,79737,1,8,0:0:0:0:
425,381,81197,5,4,3:2:0:0:
256,192,81278,12,0,83792,1:0:0:0:
180,238,90927,6,0,P|129:249|64:264,2,105,8|8|8,0:0|0:0|0:0,0:0:0:0:
241,286,91575,6,0,B|309:262|367:237|411:241|461:252|476:326|463:361|428:387|377:371|338:386|307:354|335:274|353:235|397:192|446:156|401:77|388:48|388:48|285:139|193:62,1,840,4|0,1:0|0:0,0:0:0:0:
134,19,94170,1,4,0:3:0:0:
59,78,94332,1,0,0:0:0:0:
67,85,96440,5,8,0:0:0:0:
67,85,96521,1,8,0:0:0:0:
67,85,96602,1,8,0:0:0:0:
16,141,96764,1,6,1:2:0:0:
16,141,96927,2,0,P|24:185|27:215,1,62.9999980773926,2|8,0:0|0:0,0:0:0:0:
71,263,97251,2,0,L|68:314,2,31.4999990386963,2|2|2,0:0|0:0|0:0,0:0:0:0:
131,213,97575,2,0,P|170:217|197:221,1,62.9999980773926,2|8,0:0|0:0,0:0:0:0:
247,167,97900,1,2,0:0:0:0:
293,108,98062,5,0,0:0:0:0:
293,108,98224,2,0,P|347:113|370:115,1,62.9999980773926,2|8,0:0|0:0,0:0:0:0:
413,66,98548,2,0,L|410:27,2,31.4999990386963,2|2|0,0:0|0:0|0:0,0:0:0:0:
467,118,98873,2,0,P|463:167|461:202,1,62.9999980773926,2|8,0:0|0:0,0:0:0:0:
504,243,99197,1,2,0:0:0:0:
465,309,99359,5,4,0:2:0:0:
465,309,99521,2,0,P|409:302|393:300,1,62.9999980773926,2|8,0:0|0:0,0:0:0:0:
343,349,99846,2,0,L|346:388,2,31.4999990386963,2|2|2,0:0|0:0|0:0,0:0:0:0:
292,293,100170,2,0,P|297:253|300:225,1,62.9999980773926,2|8,0:0|0:0,0:0:0:0:
351,176,100494,1,2,0:0:0:0:
298,121,100656,6,0,P|229:132|153:143,1,125.999996154785,4|8,0:3|0:0,0:0:0:0:
117,192,101143,2,0,P|123:227|128:265,1,62.9999980773926,4|0,1:2|0:0,0:0:0:0:
87,318,101467,1,8,0:0:0:0:
141,370,101629,2,0,P|190:363|215:360,1,62.9999980773926,8|8,0:0|0:0,0:0:0:0:
233,337,101873,1,8,0:0:0:0:
233,337,101954,6,0,P|277:346|304:352,1,56,4|8,1:0|0:0,0:0:0:0:
362,371,102278,1,0,0:0:0:0:
483,272,102602,2,0,P|474:217|465:151,1,112,8|0,0:0|1:0,0:0:0:0:
410,105,103089,6,0,P|414:61|416:38,2,56,8|0|8,0:0|1:0|0:0,0:0:0:0:
352,157,103575,2,0,P|301:147|276:143,1,56,0|0,1:0|1:0,0:0:0:0:
239,92,103900,2,0,P|188:102|163:106,1,56,8|4,0:0|0:3,0:0:0:0:
149,84,104143,1,0,0:0:0:0:
149,84,104224,1,0,1:0:0:0:
15,166,104548,6,0,P|22:212|28:246,1,56,4|8,1:2|0:0,0:0:0:0:
4,300,104873,1,0,1:0:0:0:
4,300,105035,1,0,0:0:0:0:
59,355,105197,2,0,P|116:344|181:334,1,112,8|4,0:0|0:3,0:0:0:0:
215,272,105683,6,0,P|204:215|194:150,1,112,8|8,0:0|0:0,0:0:0:0:
131,116,106170,1,0,1:0:0:0:
156,41,106332,2,0,P|216:43|276:47,1,112,0|0,1:0|1:0,0:0:0:0:
325,99,106819,2,0,L|330:135,2,28,8|0|0,0:0|1:0|1:0,0:0:0:0:
384,33,107143,6,0,P|452:44|509:55,1,125.999996154785,4|8,1:2|0:0,0:0:0:0:
496,135,107629,1,0,0:0:0:0:
481,215,107792,2,0,P|474:256|467:291,2,62.9999980773926,0|0|8,0:0|1:0|0:0,0:0:0:0:
410,174,108278,6,0,P|345:182|278:199,1,125.999996154785,4|0,1:2|1:0,0:0:0:0:
225,250,108764,1,8,0:0:0:0:
161,198,108927,1,0,0:0:0:0:
182,119,109089,2,0,P|185:83|186:47,2,62.9999980773926,0|0|8,1:0|1:0|0:0,0:0:0:0:
161,198,109575,6,0,P|173:276|185:355,1,140,4|0,1:2|1:0,0:0:0:0:
257,384,110062,1,8,0:0:0:0:
257,384,110224,1,0,0:0:0:0:
325,335,110386,2,0,P|364:341|403:347,2,70,0|0|8,1:0|1:0|0:0,0:0:0:0:
286,259,110873,6,0,P|274:181|262:102,1,140,4|0,1:2|1:0,0:0:0:0:
279,81,111278,1,0,1:0:0:0:
279,81,111359,1,12,0:0:0:0:
224,17,111521,1,12,0:0:0:0:
156,66,111683,2,0,L|163:113,3,35,8|8|8|8,0:3|0:3|0:3|0:3,0:0:0:0:
132,131,112008,2,0,L|125:178,3,35,4|4|4|4,0:3|0:3|0:3|0:3,0:0:0:0:
153,203,112332,6,0,P|161:261|164:290,1,77.0000023498536,6|4,3:2|0:3,0:0:0:0:
112,356,112656,1,8,0:0:0:0:
29,314,112819,1,4,0:3:0:0:
29,314,112900,1,8,0:0:0:0:
29,314,112981,2,0,P|23:244|13:152,1,154.000004699707,2|8,0:0|0:0,0:0:0:0:
7,68,113467,6,0,P|53:72|91:75,1,77.0000023498536,4|0,0:0|0:0,0:0:0:0:
168,37,113792,2,0,L|162:-13,2,38.5000011749268,4|4|8,0:3|0:3|0:0,0:0:0:0:
225,108,114116,2,0,P|288:100|391:90,1,154.000004699707,4|0,0:3|0:0,0:0:0:0:
432,16,114602,1,8,0:0:0:0:
507,71,114764,1,4,0:3:0:0:
467,172,114927,6,0,P|477:233|483:269,1,77.0000023498536,4|4,0:0|0:3,0:0:0:0:
395,286,115251,2,0,P|385:225|379:189,1,77.0000023498536,8|4,0:0|0:3,0:0:0:0:
315,146,115575,1,2,0:0:0:0:
259,219,115737,2,0,L|265:267,2,38.5000011749268,4|0|8,0:3|0:0|0:0,0:0:0:0:
195,151,116062,6,0,P|145:162|112:171,1,77.0000023498536,4|0,0:0|0:0,0:0:0:0:
50,108,116386,2,0,L|55:63,2,38.5000011749268,4|4|8,0:3|0:3|0:0,0:0:0:0:
2,187,116710,2,0,P|16:259|32:353,1,154.000004699707,4|4,0:3|0:3,0:0:0:0:
115,374,117197,1,8,0:0:0:0:
193,323,117359,1,8,0:0:0:0:
193,323,117440,1,2,0:0:0:0:
193,323,117521,6,0,P|179:252|174:227,1,77.0000023498536,4|0,3:2|0:0,0:0:0:0:
253,193,117846,2,0,P|324:207|349:212,1,77.0000023498536,8|4,0:0|0:3,0:0:0:0:
376,225,118089,1,0,0:0:0:0:
376,225,118170,1,2,0:0:0:0:
456,179,118332,2,0,P|470:108|475:83,1,77.0000023498536,4|8,0:3|0:0,0:0:0:0:
487,12,118656,6,0,P|400:23|317:33,1,154.000004699707,4|4,0:0|0:3,0:0:0:0:
291,42,119062,1,4,0:3:0:0:
291,42,119143,1,8,0:0:0:0:
218,98,119305,2,0,L|170:92,2,38.5000011749268,4|8|2,0:3|0:0|0:0,0:0:0:0:
301,148,119629,1,4,0:3:0:0:
301,148,119792,2,0,L|386:135,1,77.0000023498536,8|4,0:0|0:3,0:0:0:0:
464,102,120116,5,4,3:2:0:0:
451,193,120278,1,0,0:0:0:0:
438,284,120440,1,8,0:0:0:0:
432,382,120602,1,4,0:3:0:0:
432,382,120683,1,8,0:0:0:0:
432,382,120764,2,0,P|492:379|534:380,2,77.0000023498536,2|4|8,0:0|0:3|0:0,0:0:0:0:
350,337,121251,6,0,P|279:347|186:362,1,154.000004699707,4|4,3:2|0:3,0:0:0:0:
156,375,121656,1,4,0:3:0:0:
156,375,121737,1,8,0:0:0:0:
76,327,121900,1,0,0:0:0:0:
76,327,122062,2,0,P|81:275|85:239,1,77.0000023498536,12|12,3:0|3:0,0:0:0:0:
169,216,122386,2,0,P|166:242|164:259,2,38.5000011749268,8|8|8,0:0|0:0|0:0,0:0:0:0:
77,140,122710,5,6,3:2:0:0:
28,60,122873,1,4,0:3:0:0:
100,2,123035,2,0,P|169:9|202:12,1,77.0000023498536,8|0,0:0|0:0,0:0:0:0:
222,89,123359,2,0,P|296:83|400:74,1,154.000004699707,10|8,0:0|0:0,0:0:0:0:
454,125,123846,6,0,P|446:180|442:210,1,77.0000023498536,4|0,0:0|0:0,0:0:0:0:
472,288,124170,2,0,L|483:336,2,38.5000011749268,4|4|8,0:3|0:3|0:0,0:0:0:0:
443,201,124494,2,0,P|388:209|358:213,1,77.0000023498536,4|8,0:3|0:0,0:0:0:0:
273,212,124819,1,4,0:3:0:0:
209,144,124981,1,8,0:0:0:0:
262,68,125143,1,4,0:3:0:0:
183,14,125305,6,0,P|140:18|81:25,1,77.0000023498536,6|0,0:0|0:0,0:0:0:0:
31,76,125629,1,8,0:0:0:0:
89,148,125792,1,4,0:3:0:0:
89,148,125873,1,8,0:0:0:0:
89,148,125954,2,0,P|127:143|165:140,2,77.0000023498536,2|4|8,0:0|0:3|0:0,0:0:0:0:
8,193,126440,6,0,P|25:269|42:345,1,154.000004699707,4|4,0:0|0:3,0:0:0:0:
80,377,126846,1,4,0:3:0:0:
80,377,126927,1,8,0:0:0:0:
159,329,127089,2,0,P|256:343|317:351,1,154.000004699707,4|4,0:3|0:3,0:0:0:0:
391,304,127575,1,8,0:0:0:0:
345,223,127737,1,8,0:3:0:0:
345,223,127819,1,8,0:3:0:0:
345,223,127900,6,0,L|257:211,2,77.0000023498536,8|4|4,0:0|0:3|0:3,0:0:0:0:
423,174,128386,1,8,0:0:0:0:
423,174,128548,2,0,P|419:123|413:88,1,77.0000023498536,4|4,0:3|0:3,0:0:0:0:
404,5,128873,1,8,0:0:0:0:
320,44,129035,1,8,0:0:0:0:
324,48,129846,5,8,0:0:0:0:
324,48,130008,1,0,1:0:0:0:
267,110,130170,1,0,1:0:0:0:
267,110,130332,1,0,1:0:0:0:
196,63,130494,6,0,L|200:-7,1,62.9999980773926,4|8,1:2|0:0,0:0:0:0:
119,17,130819,2,0,L|115:87,1,62.9999980773926,0|0,1:0|0:0,0:0:0:0:
71,150,131143,1,8,0:0:0:0:
71,150,131305,2,0,P|113:157|142:163,1,62.9999980773926,0|0,0:0|1:0,0:0:0:0:
195,214,131629,6,0,P|263:205|333:197,1,125.999996154785,12|8,0:0|0:0,0:0:0:0:
323,116,132116,2,0,P|289:120|254:124,1,62.9999980773926,0|0,1:0|1:0,0:0:0:0:
133,161,132440,2,0,P|140:222|152:312,1,125.999996154785,8|4,0:0|0:3,0:0:0:0:
140,371,132927,1,8,0:0:0:0:
140,371,133089,6,0,P|193:363|226:360,1,62.9999980773926,4|8,1:2|0:0,0:0:0:0:
264,308,133413,2,0,P|317:316|350:319,1,62.9999980773926,0|0,1:0|0:0,0:0:0:0:
411,333,133737,1,8,0:0:0:0:
411,333,133900,2,0,P|403:280|400:247,1,62.9999980773926,0|4,1:0|0:3,0:0:0:0:
464,217,134224,6,0,P|478:137|489:77,1,125.999996154785,4|8,0:0|0:0,0:0:0:0:
439,25,134710,1,0,1:0:0:0:
439,25,134873,1,0,1:0:0:0:
379,80,135035,1,8,0:0:0:0:
300,223,135359,2,0,P|303:243|306:258,2,31.4999990386963,4|0|0,0:3|0:0|0:0,0:0:0:0:
224,191,135683,6,0,P|167:202|138:211,1,62.9999980773926,4|8,1:2|0:0,0:0:0:0:
82,181,136008,2,0,P|71:124|62:95,1,62.9999980773926,0|8,1:0|0:0,0:0:0:0:
92,39,136332,1,8,0:0:0:0:
92,39,136494,2,0,P|149:28|178:19,1,62.9999980773926,4|4,0:3|0:3,0:0:0:0:
227,63,136819,6,0,P|286:69|357:84,1,125.999996154785,12|8,0:0|0:0,0:0:0:0:
415,31,137305,1,0,1:0:0:0:
415,31,137467,1,0,1:0:0:0:
500,105,137629,2,0,P|493:183|489:251,1,125.999996154785,8|0,0:0|0:0,0:0:0:0:
444,291,138116,1,8,0:0:0:0:
395,348,138278,6,0,P|352:342|324:340,1,62.9999980773926,4|8,1:2|0:0,0:0:0:0:
257,351,138602,2,0,P|214:357|186:359,1,62.9999980773926,0|8,1:0|0:0,0:0:0:0:
132,314,138927,1,8,0:0:0:0:
132,314,139089,2,0,P|138:271|140:243,1,62.9999980773926,0|4,1:0|0:3,0:0:0:0:
66,214,139413,6,0,P|58:142|48:59,1,125.999996154785,12|8,0:0|0:0,0:0:0:0:
100,22,139900,2,0,P|143:27|173:32,1,62.9999980773926,0|0,1:0|1:0,0:0:0:0:
227,88,140224,1,8,0:0:0:0:
227,88,140386,1,0,1:0:0:0:
288,33,140548,2,0,L|284:-5,2,31.4999990386963,8|8|4,0:0|0:0|0:3,0:0:0:0:
385,111,140873,5,4,1:2:0:0:
445,52,141035,2,0,L|441:7,2,35,0|0|10,1:0|0:0|0:0,0:0:0:0:
507,114,141359,1,0,1:0:0:0:
445,176,141521,1,10,0:0:0:0:
445,176,141683,2,0,L|437:254,1,70,0|10,1:0|0:0,0:0:0:0:
501,301,142008,6,0,P|428:293|337:284,1,140,4|0,0:0|1:0,0:0:0:0:
323,288,142413,1,0,1:0:0:0:
323,288,142494,1,8,0:0:0:0:
267,350,142656,1,0,0:0:0:0:
203,294,142819,2,0,L|210:215,1,70,8|0,0:0|1:0,0:0:0:0:
257,155,143143,1,8,0:0:0:0:
161,16,143467,5,14,0:0:0:0:
161,16,143629,1,0,1:0:0:0:
76,13,143792,1,10,0:0:0:0:
76,13,143954,1,0,1:0:0:0:
19,75,144116,1,10,0:0:0:0:
19,75,144278,2,0,P|27:124|31:154,1,70,0|10,1:0|0:0,0:0:0:0:
9,225,144602,6,0,P|66:234|155:255,1,140,4|0,1:2|1:0,0:0:0:0:
185,237,145008,1,0,1:0:0:0:
185,237,145089,1,8,0:0:0:0:
245,294,145251,1,0,1:0:0:0:
310,241,145413,2,0,P|306:204|298:170,1,70,8|0,0:0|1:0,0:0:0:0:
240,111,145737,1,8,0:0:0:0:
240,111,145900,1,8,0:0:0:0:
307,14,146062,5,14,0:2:0:0:
307,14,146224,1,0,0:0:0:0:
375,71,146386,1,10,0:0:0:0:
375,71,146548,1,0,1:0:0:0:
455,41,146710,1,10,0:0:0:0:
455,41,146873,2,0,L|462:119,1,70,0|10,1:0|0:0,0:0:0:0:
511,177,147197,6,0,P|502:262|493:334,1,140,4|0,1:2|1:0,0:0:0:0:
475,353,147602,1,0,1:0:0:0:
475,353,147683,1,8,0:0:0:0:
395,382,147846,1,0,1:0:0:0:
334,323,148008,2,0,P|338:280|343:244,1,70,10|0,0:0|1:0,0:0:0:0:
391,185,148332,1,10,0:0:0:0:
266,72,148656,5,14,0:0:0:0:
266,72,148819,1,0,1:0:0:0:
199,30,148981,1,10,0:0:0:0:
199,30,149143,1,0,1:0:0:0:
138,87,149305,1,10,0:0:0:0:
138,87,149467,2,0,L|147:166,1,70,0|8,1:0|0:0,0:0:0:0:
213,207,149792,6,0,P|96:203|55:202,1,140,4|8,1:2|0:0,0:0:0:0:
10,258,150278,1,8,0:0:0:0:
10,258,150440,1,8,0:0:0:0:
57,326,150602,2,0,L|102:320,3,35,0|0|0|0,1:0|1:0|1:0|1:0,0:0:0:0:
125,346,150927,2,0,L|170:352,3,35,8|8|8|8,0:0|0:0|0:0|0:0,0:0:0:0:
201,331,151251,6,0,P|255:324|292:320,1,77.0000023498536,2|2,1:2|1:2,0:0:0:0:
327,320,151494,1,2,0:0:0:0:
327,320,151575,1,10,0:0:0:0:
415,346,151737,2,0,L|410:385,2,38.5000011749268,2|10|2,1:2|0:0|0:0,0:0:0:0:
474,274,152062,2,0,L|513:279,2,38.5000011749268,2|2|10,1:2|0:0|0:0,0:0:0:0:
407,209,152386,6,0,P|363:214|245:229,1,154.000004699707,2|2,1:2|1:2,0:0:0:0:
212,240,152792,1,2,1:0:0:0:
212,240,152873,1,10,0:0:0:0:
131,194,153035,1,2,1:2:0:0:
74,266,153197,2,0,L|77:304,2,38.5000011749268,2|10|2,0:0|0:0|1:2,0:0:0:0:
3,206,153521,1,10,0:0:0:0:
3,206,153683,1,2,1:2:0:0:
49,95,153846,6,0,P|124:102|226:113,1,154.000004699707,4|8,1:0|0:0,0:0:0:0:
270,47,154332,2,0,L|264:-2,2,38.5000011749268,2|10|2,1:2|0:0|0:0,0:0:0:0:
350,92,154656,2,0,L|399:86,2,38.5000011749268,2|2|10,1:2|0:0|0:0,0:0:0:0:
305,173,154981,6,0,P|319:282|326:343,1,154.000004699707,2|2,1:2|1:2,0:0:0:0:
352,362,155386,1,2,1:2:0:0:
352,362,155467,1,10,0:0:0:0:
442,379,155629,1,2,1:2:0:0:
502,308,155792,2,0,P|498:280|496:265,3,38.5000011749268,2|10|2|2,0:0|0:0|1:2|0:0,0:0:0:0:
491,224,156116,2,0,P|487:196|485:181,3,38.5000011749268,10|2|10|0,0:0|0:0|0:0|0:0,0:0:0:0:
478,140,156440,6,0,P|416:151|381:158,1,77.0000023498536,2|2,1:2|1:2,0:0:0:0:
330,95,156764,2,0,L|335:49,2,38.5000011749268,10|2|2,0:0|0:0|1:2,0:0:0:0:
274,169,157089,2,0,L|279:215,2,38.5000011749268,2|10|2,0:0|0:0|1:2,0:0:0:0:
213,99,157413,1,10,0:0:0:0:
213,99,157575,6,0,P|126:111|54:122,1,154.000004699707,6|2,1:2|1:2,0:0:0:0:
5,196,158062,2,0,P|20:250|32:292,1,77.0000023498536,10|2,0:0|1:2,0:0:0:0:
9,361,158386,2,0,P|70:344|107:333,1,77.0000023498536,2|0,0:0|1:2,0:0:0:0:
155,282,158710,2,0,P|216:299|253:310,1,77.0000023498536,10|2,0:0|1:2,0:0:0:0:
299,363,159035,6,0,L|342:354,3,38.5000011749268,6|2|2|2,1:2|0:0|1:2|0:0,0:0:0:0:
380,370,159359,2,0,L|423:379,3,38.5000011749268,10|2|2|10,0:0|0:0|1:2|0:0,0:0:0:0:
456,352,159683,2,0,L|465:309,3,38.5000011749268,2|10|2|2,0:0|0:0|1:2|0:2,0:0:0:0:
449,270,160008,1,10,0:0:0:0:
488,186,160170,6,0,P|496:104|504:27,1,154.000004699707,2|2,1:2|1:2,0:0:0:0:
472,6,160575,1,2,1:2:0:0:
472,6,160656,1,10,0:0:0:0:
385,39,160819,2,0,P|377:121|369:198,1,154.000004699707,10|0,0:0|1:0,0:0:0:0:
299,252,161305,2,0,L|248:244,3,38.5000011749268,8|8|8|8,0:0|0:0|0:0|0:0,0:0:0:0:
222,271,161629,5,6,0:0:0:0:
222,271,161792,1,2,0:0:0:0:
143,223,161954,2,0,P|148:173|152:140,1,77.0000023498536,10|2,0:0|0:0,0:0:0:0:
131,61,162278,1,2,0:0:0:0:
131,61,162440,2,0,P|181:66|214:70,1,77.0000023498536,2|8,0:0|0:0,0:0:0:0:
287,23,162764,6,0,P|370:13|448:2,1,154.000004699707,6|2,0:0|1:2,0:0:0:0:
478,28,163170,1,2,1:2:0:0:
478,28,163251,2,0,L|465:111,1,77.0000023498536,8|4,0:0|0:3,0:0:0:0:
504,193,163575,1,2,0:0:0:0:
454,271,163737,2,0,L|371:258,1,77.0000023498536,4|10,0:3|0:0,0:0:0:0:
332,249,163981,1,2,0:0:0:0:
332,249,164062,1,2,1:2:0:0:
251,289,164224,5,6,1:2:0:0:
178,231,164386,1,2,1:2:0:0:
231,155,164548,2,0,L|244:73,1,77.0000023498536,10|0,0:0|1:0,0:0:0:0:
181,17,164873,1,2,0:0:0:0:
181,17,165035,2,0,L|99:4,1,77.0000023498536,2|8,1:2|0:0,0:0:0:0:
19,40,165359,6,0,P|31:125|44:203,1,154.000004699707,6|2,0:0|1:2,0:0:0:0:
19,232,165764,1,0,1:0:0:0:
19,232,165846,1,10,0:0:0:0:
78,302,166008,1,4,0:3:0:0:
147,241,166170,2,0,L|142:190,2,38.5000011749268,2|8|4,0:0|0:0|0:3,0:0:0:0:
215,303,166494,1,8,0:0:0:0:
215,303,166656,1,8,0:0:0:0:
323,237,166819,6,0,P|390:244|484:257,1,154.000004699707,6|8,0:0|0:0,0:0:0:0:
457,165,167305,2,0,P|390:158|296:145,1,154.000004699707,4|4,0:3|0:3,0:0:0:0:
246,73,167792,1,10,0:0:0:0:
176,133,167954,6,0,P|185:209|195:307,1,154.000004699707,6|2,0:0|1:0,0:0:0:0:
204,335,168359,1,2,1:2:0:0:
204,335,168440,1,10,0:0:0:0:
118,368,168602,2,0,P|109:292|99:194,1,154.000004699707,4|4,0:3|0:3,0:0:0:0:
31,153,169089,1,8,0:0:0:0:
31,153,169251,1,4,0:3:0:0:
114,76,169413,6,0,P|116:33|118:-14,2,77.0000023498536,6|0|8,1:2|1:0|0:0,0:0:0:0:
184,136,169900,2,0,P|182:179|180:226,2,77.0000023498536,2|2|2,1:2|0:0|1:2,0:0:0:0:
236,60,170386,1,8,0:0:0:0:
310,114,170548,6,0,P|389:98|479:79,1,154.000004699707,6|2,1:2|1:2,0:0:0:0:
499,108,170954,1,2,1:2:0:0:
499,108,171035,1,10,0:0:0:0:
445,183,171197,1,10,0:0:0:0:
500,256,171359,2,0,L|507:324,3,38.5000011749268,8|2|8|2,1:3|1:2|1:3|1:2,0:0:0:0:
476,331,171683,2,0,L|408:324,3,38.5000011749268,8|8|8|8,0:0|0:0|0:0|0:0,0:0:0:0:
399,339,172008,6,0,P|356:344|334:349,1,56,4|8,1:0|0:0,0:0:0:0:
273,381,172332,1,0,0:0:0:0:
149,285,172656,2,0,P|157:217|166:160,1,112,8|0,0:0|1:0,0:0:0:0:
88,148,173143,6,0,P|80:216|71:273,1,112,8|8,0:0|0:0,0:0:0:0:
19,315,173629,1,0,1:0:0:0:
19,315,173792,1,0,1:0:0:0:
70,373,173954,2,0,P|146:366|195:363,1,112,8|0,0:0|1:0,0:0:0:0:
292,252,174602,6,0,P|285:176|282:127,1,112,4|0,1:2|0:0,0:0:0:0:
227,84,175089,1,0,0:0:0:0:
262,13,175251,2,0,P|337:22|388:30,1,112,8|4,0:0|0:3,0:0:0:0:
451,25,175737,6,0,P|442:80|436:136,1,112,8|8,0:0|0:0,0:0:0:0:
380,190,176224,1,0,1:0:0:0:
380,190,176386,2,0,P|388:245|394:301,1,112,0|0,1:0|1:0,0:0:0:0:
338,356,176873,2,0,L|340:387,2,28,8|8|8,0:0|0:3|0:3,0:0:0:0:
242,298,177197,6,0,P|168:308|104:318,1,125.999996154785,4|8,1:2|0:0,0:0:0:0:
46,274,177683,1,0,0:0:0:0:
78,200,177846,1,0,0:0:0:0:
78,200,178008,2,0,P|115:195|146:190,1,62.9999980773926,0|8,1:0|0:0,0:0:0:0:
203,138,178332,6,0,P|277:148|341:158,1,125.999996154785,4|0,1:2|1:0,0:0:0:0:
399,205,178819,1,8,0:0:0:0:
399,205,178981,1,0,0:0:0:0:
473,167,179143,1,0,1:0:0:0:
473,167,179305,2,0,P|468:124|464:89,1,62.9999980773926,0|8,1:0|0:0,0:0:0:0:
482,22,179629,6,0,P|419:34|333:52,1,140,4|0,1:2|1:0,0:0:0:0:
272,6,180116,1,8,0:0:0:0:
272,6,180278,1,0,0:0:0:0:
196,42,180440,2,0,P|143:32|110:24,2,70,0|0|8,1:0|1:0|0:0,0:0:0:0:
263,135,180927,6,0,P|246:228|236:284,1,140,4|0,1:2|1:0,0:0:0:0:
216,308,181332,1,0,1:0:0:0:
216,308,181413,1,8,0:0:0:0:
264,376,181575,1,0,1:0:0:0:
336,332,181737,5,8,0:0:0:0:
336,332,181900,1,0,1:0:0:0:
401,279,182062,1,8,0:0:0:0:
401,279,182224,1,0,1:0:0:0:
472,234,182386,6,0,L|472:191,3,35,8|8|4|4,0:0|0:0|0:3|0:3,0:0:0:0:
473,161,182710,1,8,0:0:0:0:
473,161,182873,1,8,0:0:0:0:
404,112,183035,2,0,L|361:112,3,35,4|4|4|4,0:3|0:3|0:3|0:3,0:0:0:0:
327,112,183359,2,0,L|284:112,3,35,4|4|8|8,0:3|0:3|0:0|0:0,0:0:0:0:
258,113,183683,5,4,1:2:0:0:
258,113,193575,6,0,L|258:46,2,56,8|8|8,1:3|1:3|1:3,0:0:0:0:
260,188,194062,2,0,L|327:188,1,62.9999980773926,2|0,0:3|0:0,0:0:0:0:
398,192,194386,1,2,0:3:0:0:
398,343,194710,2,0,L|465:343,2,62.9999980773926,2|0|2,0:3|0:0|0:3,0:0:0:0:
322,340,195197,6,0,L|190:340,1,125.999996154785,0|0,1:0|0:0,0:0:0:0:
118,335,195683,1,2,0:3:0:0:
118,335,195846,2,0,L|118:203,1,125.999996154785
76,145,196332,1,2,0:3:0:0:
76,145,196494,1,0,0:0:0:0:
120,77,196656,6,0,L|252:77,1,125.999996154785,2|2,0:3|0:3,0:0:0:0:
387,131,197305,2,0,L|453:131,2,62.9999980773926,2|0|2,0:3|0:0|0:3,0:0:0:0:
338,189,197792,6,0,L|212:189,1,125.999996154785,0|0,1:0|0:0,0:0:0:0:
192,264,198278,1,2,0:3:0:0:
192,264,198440,2,0,L|318:264,1,125.999996154785
380,315,198927,1,2,0:3:0:0:
380,315,199089,1,0,0:0:0:0:
465,261,199251,6,0,L|465:198,1,62.9999980773926,2|0,0:3|0:0,0:0:0:0:
464,122,199575,2,0,L|464:59,1,62.9999980773926,2|0,0:3|0:0,0:0:0:0:
402,13,199900,2,0,L|339:13,1,62.9999980773926,2|0,0:3|0:0,0:0:0:0:
282,63,200224,1,8,0:0:0:0:
184,1,200386,1,8,0:0:0:0:
184,1,201846,6,0,P|190:58|195:100,1,77.0000023498536,6|0,3:2|0:0,0:0:0:0:
142,155,202170,1,8,0:0:0:0:
225,215,202332,1,4,0:3:0:0:
225,215,202413,1,4,0:3:0:0:
225,215,202494,2,0,P|316:201|383:191,1,154.000004699707,2|8,0:0|0:0,0:0:0:0:
469,177,202981,6,0,L|450:280,1,77.0000023498536,4|0,0:0|0:0,0:0:0:0:
474,342,203305,2,0,L|524:332,2,38.5000011749268,4|4|8,0:3|0:3|0:0,0:0:0:0:
388,376,203629,2,0,L|225:356,1,154.000004699707,4|0,0:3|0:0,0:0:0:0:
187,277,204116,1,8,0:0:0:0:
249,209,204278,1,4,0:3:0:0:
180,147,204440,6,0,P|126:152|92:157,1,77.0000023498536,4|4,0:0|0:3,0:0:0:0:
21,198,204764,2,0,P|16:144|11:110,1,77.0000023498536,8|4,0:0|0:3,0:0:0:0:
51,37,205089,2,0,L|44:-12,2,38.5000011749268,2|0|4,0:0|0:0|0:3,0:0:0:0:
136,72,205413,1,8,0:0:0:0:
222,40,205575,6,0,P|282:46|324:51,1,77.0000023498536,4|0,0:0|0:0,0:0:0:0:
371,105,205900,2,0,L|432:114,2,38.5000011749268,4|4|8,0:3|0:3|0:0,0:0:0:0:
306,170,206224,2,0,P|220:160|135:152,1,154.000004699707,4|4,0:3|0:3,0:0:0:0:
85,217,206710,1,8,0:0:0:0:
27,290,206873,1,8,0:0:0:0:
27,290,206954,1,8,0:0:0:0:
27,290,207035,6,0,L|107:298,1,77.0000023498536,4|0,3:2|0:0,0:0:0:0:
172,362,207359,2,0,L|252:354,1,77.0000023498536,8|4,0:0|0:3,0:0:0:0:
298,354,207602,1,2,0:0:0:0:
298,354,207683,1,2,0:0:0:0:
371,296,207846,2,0,L|379:216,1,77.0000023498536,4|8,0:3|0:0,0:0:0:0:
319,148,208170,6,0,P|418:135|491:126,1,154.000004699707,4|4,0:0|0:3,0:0:0:0:
508,100,208575,1,4,0:3:0:0:
508,100,208656,1,8,0:0:0:0:
439,37,208819,2,0,L|433:-4,2,38.5000011749268,4|8|2,0:3|0:0|0:0,0:0:0:0:
351,52,209143,1,4,0:3:0:0:
351,52,209305,2,0,P|301:58|265:62,1,77.0000023498536,8|4,0:0|0:3,0:0:0:0:
202,3,209629,5,4,3:2:0:0:
121,49,209792,1,0,0:0:0:0:
123,141,209954,1,8,0:0:0:0:
200,200,210116,1,4,0:3:0:0:
200,200,210197,1,8,0:0:0:0:
200,200,210278,2,0,P|266:187|289:183,2,77.0000023498536,2|4|8,0:0|0:3|0:0,0:0:0:0:
179,289,210764,6,0,P|273:269|342:255,1,154.000004699707,4|4,3:2|0:3,0:0:0:0:
377,278,211170,1,0,0:0:0:0:
377,278,211251,1,8,0:0:0:0:
445,216,211413,1,8,0:0:0:0:
445,216,211575,2,0,P|452:157|456:131,1,77.0000023498536,0|4,0:0|3:0,0:0:0:0:
507,63,211900,2,0,L|501:17,2,38.5000011749268,8|8|8,0:0|0:0|0:0,0:0:0:0:
377,119,212224,5,6,3:2:0:0:
300,66,212386,1,4,0:3:0:0:
232,128,212548,2,0,P|240:183|245:222,1,77.0000023498536,8|0,0:0|0:0,0:0:0:0:
260,252,212792,1,8,0:0:0:0:
260,252,212873,2,0,P|176:250|86:250,1,154.000004699707,2|8,0:0|0:0,0:0:0:0:
29,197,213359,6,0,P|21:142|16:103,1,77.0000023498536,4|0,0:0|0:0,0:0:0:0:
59,38,213683,2,0,P|55:10|52:-8,2,38.5000011749268,4|4|8,0:3|0:3|0:0,0:0:0:0:
135,90,214008,2,0,P|142:141|147:177,1,77.0000023498536,8|0,0:0|0:0,0:0:0:0:
106,249,214332,1,8,0:0:0:0:
119,340,214494,1,8,0:0:0:0:
207,367,214656,1,4,0:3:0:0:
294,334,214819,6,0,P|325:332|375:330,1,77.0000023498536,6|0,0:0|0:0,0:0:0:0:
444,273,215143,1,8,0:0:0:0:
374,230,215305,1,4,0:3:0:0:
374,230,215386,1,8,0:0:0:0:
374,230,215467,2,0,P|342:231|292:233,2,77.0000023498536,2|4|8,0:0|0:3|0:0,0:0:0:0:
453,182,215954,6,0,P|466:127|488:21,1,154.000004699707,4|4,0:0|0:3,0:0:0:0:
456,4,216359,1,4,0:3:0:0:
456,4,216440,1,8,0:0:0:0:
366,24,216602,2,0,P|276:35|202:45,1,154.000004699707,4|4,0:3|0:3,0:0:0:0:
200,135,217089,2,0,L|207:187,3,38.5000011749268,8|8|8|8,0:0|0:3|0:3|0:3,0:0:0:0:
239,204,217413,6,0,P|285:194|333:186,2,77.0000023498536,8|4|4,0:0|0:3|0:3,0:0:0:0:
164,256,217900,1,8,0:0:0:0:
164,256,218062,2,0,P|118:246|70:238,1,77.0000023498536,4|4,0:3|0:3,0:0:0:0:
15,296,218386,1,8,0:0:0:0:
59,376,218548,1,8,0:0:0:0:
59,376,219359,5,8,0:0:0:0:
134,323,219521,1,0,1:0:0:0:
210,383,219683,1,0,1:0:0:0:
210,383,219846,1,0,1:0:0:0:
298,326,220008,6,0,P|293:269|291:245,1,70,4|2,0:0|0:0,0:0:0:0:
223,207,220332,2,0,P|218:150|216:126,1,70,8|8,0:0|0:0,0:0:0:0:
261,65,220656,1,4,0:3:0:0:
261,65,220819,1,4,0:3:0:0:
323,120,220981,2,0,P|325:148|326:160,2,35,8|0|2,0:0|0:0|0:0,0:0:0:0:
382,60,221305,6,0,P|431:66|463:70,1,70,2|4,0:0|0:3,0:0:0:0:
496,79,221548,1,4,0:3:0:0:
496,79,221629,1,8,0:0:0:0:
457,153,221792,1,8,0:0:0:0:
477,234,221954,2,0,P|501:237|517:239,4,35,8|8|8|8|8,3:0|3:0|3:0|3:0|0:0,0:0:0:0:
413,289,222440,6,0,P|337:297|260:307,1,140,4|4,0:0|0:3,0:0:0:0:
213,364,222927,1,10,0:0:0:0:
213,364,223008,1,2,0:0:0:0:
213,364,223089,1,10,0:0:0:0:
139,316,223251,2,0,P|131:240|121:163,1,140,4|8,0:3|0:0,0:0:0:0:
100,96,223737,6,0,L|251:126,1,140,4|4,0:0|0:3,0:0:0:0:
296,63,224224,2,0,L|290:22,2,35,10|2|10,0:0|0:0|0:0,0:0:0:0:
356,121,224548,2,0,L|341:208,1,70,4|4,0:3|0:3,0:0:0:0:
399,253,224873,2,0,L|441:248,2,35,8|4|4,0:0|0:3|0:3,0:0:0:0:
330,301,225197,6,0,L|251:289,1,70,4|0,0:0|0:0,0:0:0:0:
179,271,225521,2,0,L|100:259,1,70,8|8,0:0|0:0,0:0:0:0:
54,204,225846,1,4,0:3:0:0:
54,204,226008,1,4,0:3:0:0:
116,147,226170,2,0,L|123:97,2,35,8|0|2,0:0|0:0|0:0,0:0:0:0:
190,185,226494,6,0,L|269:197,1,70,0|4,0:0|0:3,0:0:0:0:
303,208,226737,1,4,0:3:0:0:
303,208,226819,1,8,0:0:0:0:
356,272,226981,1,8,0:0:0:0:
432,238,227143,2,0,L|485:247,4,35,8|8|8|8|8,0:3|0:3|0:3|0:3|0:0,0:0:0:0:
417,155,227629,6,0,P|428:94|442:17,1,140,4|0,0:0|0:0,0:0:0:0:
357,49,228116,1,10,0:0:0:0:
357,49,228197,1,2,0:0:0:0:
357,49,228278,1,10,0:0:0:0:
279,16,228440,2,0,P|201:26|126:37,1,140,4|8,0:3|0:0,0:0:0:0:
58,15,228927,6,0,P|36:103|20:168,1,140,4|4,0:0|0:3,0:0:0:0:
65,223,229413,2,0,L|76:276,2,35,10|2|10,0:0|0:0|0:0,0:0:0:0:
125,164,229737,2,0,L|206:179,1,70,0|8,0:0|0:0,0:0:0:0:
243,244,230062,2,0,L|254:297,3,35,8|0|0|0,0:0|1:0|1:0|0:0,0:0:0:0:
263,318,230386,6,0,L|344:333,1,70,8|0,0:0|1:0,0:0:0:0:
408,364,230710,1,8,0:0:0:0:
467,304,230873,1,0,1:0:0:0:
421,233,231035,2,0,L|428:185,3,35,8|0|0|0,0:0|1:0|1:0|1:0,0:0:0:0:
434,157,231359,1,0,1:0:0:0:
366,107,231521,6,0,B|308:40|202:134|250:140|188:250|88:176|88:176|113:95|200:81|238:173|254:117|270:179|330:178|353:150,1,630,12|0,0:0|0:0,0:0:0:0:
