osu file format v14

[General]
AudioFilename: Tekanan Batin!!!.mp3
AudioLeadIn: 0
PreviewTime: 187212
Countdown: 0
SampleSet: Normal
StackLeniency: 0.7
Mode: 1
LetterboxInBreaks: 0
WidescreenStoryboard: 1

[Editor]
DistanceSpacing: 0.8
BeatDivisor: 4
GridSize: 4
TimelineZoom: 8

[Metadata]
Title:Diary Depresiku
TitleUnicode:Diary Depresiku
Artist:Last Child
ArtistUnicode:Last Child
Creator:Surono
Version:garbage
Source:
Tags:bahasa indonesia indonesian pop rock we are everything grow up Nishizumi Volta Grim Rapper Eraser
BeatmapID:772310
BeatmapSetID:350305

[Difficulty]
HPDrainRate:0.1
CircleSize:2
OverallDifficulty:9.9
ApproachRate:10
SliderMultiplier:1.6
SliderTickRate:1

[Events]
//Background and Video events
0,0,"BG.jpg",0,0
//Break Periods
//Storyboard Layer 0 (Background)
//Storyboard Layer 1 (Fail)
//Storyboard Layer 2 (Pass)
//Storyboard Layer 3 (Foreground)
//Storyboard Sound Samples

[TimingPoints]
0,86.2068965517241,4,1,0,90,1,0
3340,-25,4,1,0,90,0,1
10394,454.545454545455,4,1,0,90,1,0
25166,-111.111111111111,4,1,0,90,0,0
52666,-105.263157894737,4,1,0,90,0,0
53348,-100,4,1,0,90,0,0
84939,-50,4,1,0,90,0,0
85394,-100,4,1,0,90,0,0
86530,-95.2380952380952,4,1,0,90,0,0
86757,-90.9090909090909,4,1,0,90,0,1
112212,-100,4,1,0,90,0,0
126984,-111.111111111111,4,1,0,90,0,0
154484,-105.263157894737,4,1,0,90,0,0
155166,-100,4,1,0,90,0,0
186757,-25,4,1,0,90,0,0
187212,-100,4,1,0,90,0,0
188348,-95.2380952380952,4,1,0,90,0,0
188575,-90.9090909090909,4,1,0,90,0,1
214030,-100,4,1,0,90,0,0
217212,-105.263157894737,4,1,0,90,0,0
219712,-100,4,1,0,90,0,0
224484,-105.263157894737,4,1,0,90,0,0
226984,-100,4,1,0,90,0,0
231757,-105.263157894737,4,1,0,90,0,0
234257,-100,4,1,0,90,0,0
239030,-105.263157894737,4,1,0,90,0,0
241303,454.545454545455,4,1,0,90,1,0
241984,-95.2380952380952,4,1,0,90,0,0
242666,-90.9090909090909,4,1,0,90,0,0
243348,-86.9565217391304,4,1,0,90,0,0
244030,-83.3333333333333,4,1,0,90,0,0
244939,-90.9090909090909,4,1,0,90,0,1
292212,-100,4,1,0,75,0,0
294030,-100,4,1,0,55,0,0
295848,-100,4,1,0,50,0,0
297666,-100,4,1,0,45,0,0
297679,-100,4,1,0,35,0,0
299484,-100,4,1,0,25,0,0
301303,-100,4,1,0,20,0,0
304939,-100,4,1,0,15,0,0

[HitObjects]
256,192,3340,12,0,10158,0:0:0:0:
272,176,10394,5,12,0:0:0:0:
268,160,10734,1,8,0:0:0:0:
272,148,10848,1,0,0:0:0:0:
272,148,11075,1,8,0:0:0:0:
280,160,11303,1,8,0:0:0:0:
260,144,11530,1,0,0:0:0:0:
272,136,11757,1,8,0:0:0:0:
268,152,11984,1,8,0:0:0:0:
272,132,12212,1,0,0:0:0:0:
272,132,12553,1,0,0:0:0:0:
272,132,12666,1,0,0:0:0:0:
272,132,12894,1,0,0:0:0:0:
256,176,13121,1,8,0:0:0:0:
260,144,13348,1,0,0:0:0:0:
272,136,13575,1,8,0:0:0:0:
260,144,13803,1,8,0:0:0:0:
260,144,14030,1,0,0:0:0:0:
260,144,14371,1,0,0:0:0:0:
260,144,14484,1,0,0:0:0:0:
260,144,14712,1,8,0:0:0:0:
252,172,14939,1,8,0:0:0:0:
260,144,15166,1,0,0:0:0:0:
260,144,15394,1,0,0:0:0:0:
260,136,15621,5,8,0:0:0:0:
260,144,15848,1,0,0:0:0:0:
260,144,16189,1,0,0:0:0:0:
260,144,16303,1,8,0:0:0:0:
260,144,16530,1,0,0:0:0:0:
252,172,16757,1,8,0:0:0:0:
260,144,16984,1,0,0:0:0:0:
260,144,17212,1,0,0:0:0:0:
272,176,17666,1,12,0:0:0:0:
268,152,17894,1,0,0:0:0:0:
260,144,18007,1,0,0:0:0:0:
260,144,18121,1,0,0:0:0:0:
260,144,18348,1,8,0:0:0:0:
280,160,18575,1,8,0:0:0:0:
260,144,18803,1,0,0:0:0:0:
244,136,18916,1,0,0:0:0:0:
248,136,19030,1,8,0:0:0:0:
244,136,19257,1,8,0:0:0:0:
260,144,19484,1,0,0:0:0:0:
268,136,19825,1,0,0:0:0:0:
268,136,19939,1,0,0:0:0:0:
264,136,20166,1,0,0:0:0:0:
256,176,20394,1,8,0:0:0:0:
264,136,20621,1,0,0:0:0:0:
264,136,20848,1,8,0:0:0:0:
272,136,21075,1,8,0:0:0:0:
264,136,21303,1,0,0:0:0:0:
268,136,21644,1,0,0:0:0:0:
268,136,21757,1,0,0:0:0:0:
264,136,21984,1,8,0:0:0:0:
252,172,22212,1,8,0:0:0:0:
264,136,22439,1,0,0:0:0:0:
264,136,22666,1,0,0:0:0:0:
256,136,22894,1,8,0:0:0:0:
264,136,23121,1,0,0:0:0:0:
268,136,23462,1,0,0:0:0:0:
268,136,23575,1,8,0:0:0:0:
264,136,23803,1,0,0:0:0:0:
252,172,24030,1,8,0:0:0:0:
264,136,24257,1,0,0:0:0:0:
268,168,24484,1,8,0:0:0:0:
256,156,24712,1,0,0:0:0:0:
256,156,24825,1,0,0:0:0:0:
272,176,24939,1,0,0:0:0:0:
288,160,25280,1,0,0:0:0:0:
264,120,25394,1,0,0:0:0:0:
272,112,25621,1,0,0:0:0:0:
272,112,25848,1,8,0:0:0:0:
272,152,26075,1,0,0:0:0:0:
272,116,26530,1,0,0:0:0:0:
268,136,26757,1,0,0:0:0:0:
268,136,27098,1,0,0:0:0:0:
268,132,27212,1,0,0:0:0:0:
272,112,27439,1,8,0:0:0:0:
272,112,27666,1,8,0:0:0:0:
264,120,27894,1,0,0:0:0:0:
272,116,28348,1,0,0:0:0:0:
264,120,28575,1,0,0:0:0:0:
264,120,28803,1,8,0:0:0:0:
264,120,28916,1,8,0:0:0:0:
272,116,29030,1,8,0:0:0:0:
264,120,29257,1,0,0:0:0:0:
272,112,29484,1,8,0:0:0:0:
264,120,30394,1,0,0:0:0:0:
264,120,30734,1,0,0:0:0:0:
264,120,30848,1,0,0:0:0:0:
264,120,31075,1,0,0:0:0:0:
272,112,31303,1,8,0:0:0:0:
264,120,31984,1,0,0:0:0:0:
272,116,32212,1,8,0:0:0:0:
272,112,32439,1,0,0:0:0:0:
264,88,32553,1,8,0:0:0:0:
240,68,32666,1,0,0:0:0:0:
264,88,32894,1,0,0:0:0:0:
256,80,33121,1,8,0:0:0:0:
264,88,33348,1,0,0:0:0:0:
252,72,33803,1,0,0:0:0:0:
256,80,34030,1,0,0:0:0:0:
248,72,34257,1,8,0:0:0:0:
248,68,34371,1,8,0:0:0:0:
256,68,34484,1,0,0:0:0:0:
248,64,34712,1,0,0:0:0:0:
248,68,34939,1,8,0:0:0:0:
248,64,35166,1,0,0:0:0:0:
248,64,35848,1,0,0:0:0:0:
248,64,36189,1,0,0:0:0:0:
244,68,36303,1,8,0:0:0:0:
248,64,36530,1,0,0:0:0:0:
248,68,36757,1,8,0:0:0:0:
248,72,36984,1,8,0:0:0:0:
228,48,37439,1,0,0:0:0:0:
228,48,37666,1,0,0:0:0:0:
228,48,38007,1,0,0:0:0:0:
264,80,38121,1,0,0:0:0:0:
228,48,38348,1,0,0:0:0:0:
248,68,38575,1,8,0:0:0:0:
224,36,38803,1,0,0:0:0:0:
248,72,39030,1,8,0:0:0:0:
228,52,39144,1,8,0:0:0:0:
224,32,39257,1,0,0:0:0:0:
224,36,39484,1,4,0:0:0:0:
220,20,39825,1,0,0:0:0:0:
220,20,39939,1,0,0:0:0:0:
220,48,40166,1,8,0:0:0:0:
220,48,40394,1,8,0:0:0:0:
220,16,40621,1,0,0:0:0:0:
220,48,41075,1,8,0:0:0:0:
216,16,41303,1,0,0:0:0:0:
248,72,41530,1,0,0:0:0:0:
260,68,41644,1,0,0:0:0:0:
220,48,41757,1,0,0:0:0:0:
200,20,41984,1,8,0:0:0:0:
220,48,42212,1,8,0:0:0:0:
220,16,42439,1,0,0:0:0:0:
220,48,42894,1,0,0:0:0:0:
216,16,43121,1,0,0:0:0:0:
260,68,43348,1,8,0:0:0:0:
220,20,43462,1,0,0:0:0:0:
220,40,43575,1,0,0:0:0:0:
224,44,43803,1,0,0:0:0:0:
220,48,44030,1,8,0:0:0:0:
216,8,44257,1,0,0:0:0:0:
220,48,44712,1,0,0:0:0:0:
216,8,44939,1,0,0:0:0:0:
216,8,45280,1,0,0:0:0:0:
240,36,45394,1,0,0:0:0:0:
216,12,45621,1,0,0:0:0:0:
220,48,45848,1,8,0:0:0:0:
220,48,46303,1,0,0:0:0:0:
216,8,46530,1,0,0:0:0:0:
224,44,46757,1,8,0:0:0:0:
224,44,46984,1,8,0:0:0:0:
224,44,47098,1,0,0:0:0:0:
228,12,47212,1,0,0:0:0:0:
224,44,47439,1,0,0:0:0:0:
224,44,47553,1,8,0:0:0:0:
208,28,47666,1,8,0:0:0:0:
216,8,47894,1,8,0:0:0:0:
216,8,48348,1,0,0:0:0:0:
216,8,48575,1,0,0:0:0:0:
216,8,48916,1,0,0:0:0:0:
224,44,49030,1,8,0:0:0:0:
216,12,49257,1,0,0:0:0:0:
224,44,49484,1,8,0:0:0:0:
224,44,49712,1,0,0:0:0:0:
208,16,50394,1,0,0:0:0:0:
208,16,50734,1,0,0:0:0:0:
208,16,50848,1,0,0:0:0:0:
208,16,51075,1,0,0:0:0:0:
224,44,51303,1,8,0:0:0:0:
224,44,51757,1,8,0:0:0:0:
208,16,51984,1,0,0:0:0:0:
208,16,52212,1,0,0:0:0:0:
224,44,52439,1,8,0:0:0:0:
208,16,52894,1,0,0:0:0:0:
220,32,53121,1,8,0:0:0:0:
220,32,53575,1,8,0:0:0:0:
208,16,53803,1,0,0:0:0:0:
208,16,53916,1,0,0:0:0:0:
272,176,54030,1,8,0:0:0:0:
288,160,54371,1,0,0:0:0:0:
264,120,54484,1,8,0:0:0:0:
220,32,54712,1,0,0:0:0:0:
220,32,54939,1,8,0:0:0:0:
272,152,55166,1,0,0:0:0:0:
248,132,55280,1,0,0:0:0:0:
244,148,55394,1,0,0:0:0:0:
268,136,55621,1,8,0:0:0:0:
272,132,55848,1,0,0:0:0:0:
308,140,55962,1,0,0:0:0:0:
260,68,56075,1,0,0:0:0:0:
264,144,56189,1,0,0:0:0:0:
268,132,56303,1,8,0:0:0:0:
268,128,56530,1,0,0:0:0:0:
220,32,56757,1,8,0:0:0:0:
220,32,57212,1,0,0:0:0:0:
220,32,57439,1,8,0:0:0:0:
264,120,57666,1,0,0:0:0:0:
252,96,57894,1,0,0:0:0:0:
260,68,58121,1,8,0:0:0:0:
224,56,58348,1,0,0:0:0:0:
272,120,58462,1,0,0:0:0:0:
224,56,58575,1,8,0:0:0:0:
248,132,58803,1,0,0:0:0:0:
252,96,58916,1,0,0:0:0:0:
268,128,59030,1,0,0:0:0:0:
224,52,59257,1,8,0:0:0:0:
264,120,59484,1,0,0:0:0:0:
248,92,59712,1,8,0:0:0:0:
248,92,59825,1,8,0:0:0:0:
260,96,59939,1,0,0:0:0:0:
260,96,60053,1,0,0:0:0:0:
272,132,60166,1,8,0:0:0:0:
248,92,60394,1,8,0:0:0:0:
248,132,60621,1,0,0:0:0:0:
248,92,60848,1,8,0:0:0:0:
224,48,60962,1,8,0:0:0:0:
264,120,61075,1,0,0:0:0:0:
264,120,61303,1,4,0:0:0:0:
264,88,61644,1,0,0:0:0:0:
248,96,61757,1,8,0:0:0:0:
260,100,61984,1,0,0:0:0:0:
248,92,62212,1,8,0:0:0:0:
264,88,62439,1,0,0:0:0:0:
256,96,62553,1,0,0:0:0:0:
260,96,62666,1,0,0:0:0:0:
248,96,62894,1,8,0:0:0:0:
252,116,63007,1,8,0:0:0:0:
256,96,63121,1,0,0:0:0:0:
252,96,63348,1,8,0:0:0:0:
256,68,63575,1,0,0:0:0:0:
248,64,63803,1,0,0:0:0:0:
248,92,64030,1,8,0:0:0:0:
228,68,64484,1,0,0:0:0:0:
248,96,64712,1,8,0:0:0:0:
248,64,64939,1,0,0:0:0:0:
260,68,65280,1,8,0:0:0:0:
248,64,65394,1,0,0:0:0:0:
248,96,65621,1,0,0:0:0:0:
248,96,65848,1,8,0:0:0:0:
228,48,66075,1,0,0:0:0:0:
228,68,66303,1,0,0:0:0:0:
248,96,66530,1,8,0:0:0:0:
252,96,66644,1,8,0:0:0:0:
228,48,66757,1,0,0:0:0:0:
264,80,67212,1,0,0:0:0:0:
228,48,67439,1,0,0:0:0:0:
248,96,67666,1,8,0:0:0:0:
224,36,67894,1,0,0:0:0:0:
248,96,68121,1,8,0:0:0:0:
228,48,68234,1,8,0:0:0:0:
224,32,68348,1,0,0:0:0:0:
224,36,68575,1,4,0:0:0:0:
248,96,68916,1,0,0:0:0:0:
220,20,69030,1,0,0:0:0:0:
220,20,69257,1,0,0:0:0:0:
248,96,69484,1,8,0:0:0:0:
220,16,69712,1,0,0:0:0:0:
216,16,70166,5,0,0:0:0:0:
216,16,70394,1,0,0:0:0:0:
232,76,70621,1,0,0:0:0:0:
220,36,70734,1,0,0:0:0:0:
200,20,70848,1,0,0:0:0:0:
220,20,71075,1,0,0:0:0:0:
248,96,71303,1,8,0:0:0:0:
272,112,71757,1,0,0:0:0:0:
248,96,71984,1,8,0:0:0:0:
216,16,72212,1,0,0:0:0:0:
248,64,72553,1,0,0:0:0:0:
248,64,72666,1,0,0:0:0:0:
248,64,72894,1,0,0:0:0:0:
244,84,73121,1,8,0:0:0:0:
240,64,73348,1,0,0:0:0:0:
264,88,73462,1,0,0:0:0:0:
240,64,73575,1,0,0:0:0:0:
244,84,73803,1,8,0:0:0:0:
216,8,74030,1,0,0:0:0:0:
244,80,74257,1,8,0:0:0:0:
244,80,74371,1,8,0:0:0:0:
240,36,74484,1,0,0:0:0:0:
256,120,74598,1,0,0:0:0:0:
244,80,74712,1,8,0:0:0:0:
244,84,74939,1,8,0:0:0:0:
240,68,75166,1,0,0:0:0:0:
244,84,75394,1,8,0:0:0:0:
224,48,75507,1,8,0:0:0:0:
216,8,75621,1,0,0:0:0:0:
216,8,75848,1,4,0:0:0:0:
216,8,76189,1,0,0:0:0:0:
244,80,76303,1,8,0:0:0:0:
216,12,76530,1,0,0:0:0:0:
244,84,76757,1,8,0:0:0:0:
216,8,76984,1,0,0:0:0:0:
236,72,77098,1,0,0:0:0:0:
264,68,77212,1,0,0:0:0:0:
216,8,77439,1,8,0:0:0:0:
216,8,77666,1,0,0:0:0:0:
236,72,77894,1,8,0:0:0:0:
244,84,78007,1,8,0:0:0:0:
216,12,78121,1,0,0:0:0:0:
216,12,78348,1,0,0:0:0:0:
244,84,78575,1,8,0:0:0:0:
264,84,79030,1,0,0:0:0:0:
244,84,79257,1,8,0:0:0:0:
208,16,79484,1,0,0:0:0:0:
208,16,79825,1,0,0:0:0:0:
208,16,79939,1,0,0:0:0:0:
244,84,80166,1,0,0:0:0:0:
244,84,80394,1,8,0:0:0:0:
224,16,80621,1,0,0:0:0:0:
220,96,80734,1,0,0:0:0:0:
244,84,80848,1,8,0:0:0:0:
256,80,80962,1,8,0:0:0:0:
208,16,81075,1,0,0:0:0:0:
208,16,81303,1,0,0:0:0:0:
244,84,81530,1,8,0:0:0:0:
208,16,81984,1,0,0:0:0:0:
244,84,82212,1,8,0:0:0:0:
224,16,82439,1,0,0:0:0:0:
244,84,82666,1,8,0:0:0:0:
244,84,82780,1,8,0:0:0:0:
208,16,82894,1,0,0:0:0:0:
208,16,83007,1,0,0:0:0:0:
208,16,83121,1,8,0:0:0:0:
232,80,83348,2,0,L|272:88,12,40
244,132,84939,1,12,0:0:0:0:
244,132,85166,1,12,0:0:0:0:
244,132,85621,1,0,0:0:0:0:
244,132,85848,1,8,0:0:0:0:
244,132,86075,1,0,0:0:0:0:
240,136,86189,1,0,0:0:0:0:
244,132,86303,1,8,0:0:0:0:
240,136,86530,1,8,0:0:0:0:
256,148,86757,5,4,0:0:0:0:
256,120,87212,1,0,0:0:0:0:
256,120,87439,1,0,0:0:0:0:
260,180,87553,1,0,0:0:0:0:
256,176,87666,1,8,0:0:0:0:
252,136,87780,1,0,0:0:0:0:
256,120,87894,1,0,0:0:0:0:
244,132,88121,1,0,0:0:0:0:
248,136,88348,1,0,0:0:0:0:
240,184,88803,1,8,0:0:0:0:
244,132,89257,1,0,0:0:0:0:
256,176,89484,1,8,0:0:0:0:
256,164,89598,1,0,0:0:0:0:
252,144,89712,1,0,0:0:0:0:
252,140,89939,1,8,0:0:0:0:
236,72,90166,1,0,0:0:0:0:
236,72,90394,1,8,0:0:0:0:
256,136,90507,1,8,0:0:0:0:
236,72,90621,1,0,0:0:0:0:
252,140,90848,1,0,0:0:0:0:
252,140,91075,1,8,0:0:0:0:
236,116,91189,1,8,0:0:0:0:
260,172,91303,1,8,0:0:0:0:
256,148,91416,1,8,0:0:0:0:
252,144,91530,1,0,0:0:0:0:
252,140,91757,1,0,0:0:0:0:
256,120,91984,1,0,0:0:0:0:
264,160,92439,1,8,0:0:0:0:
252,140,92894,1,0,0:0:0:0:
260,172,93121,1,8,0:0:0:0:
236,120,93234,1,0,0:0:0:0:
252,140,93348,1,0,0:0:0:0:
236,120,93462,1,0,0:0:0:0:
260,172,93575,1,8,0:0:0:0:
248,128,93803,1,0,0:0:0:0:
244,104,94030,1,8,0:0:0:0:
240,112,94257,1,0,0:0:0:0:
252,140,94484,1,0,0:0:0:0:
236,120,94598,1,8,0:0:0:0:
252,140,94712,1,0,0:0:0:0:
252,128,94939,1,8,0:0:0:0:
252,128,95166,1,0,0:0:0:0:
252,116,95280,1,0,0:0:0:0:
240,104,95394,1,0,0:0:0:0:
248,116,95621,1,8,0:0:0:0:
224,92,95848,1,0,0:0:0:0:
248,116,96075,1,8,0:0:0:0:
260,132,96189,1,8,0:0:0:0:
236,120,96303,1,0,0:0:0:0:
248,116,96530,1,0,0:0:0:0:
248,116,96757,1,8,0:0:0:0:
240,96,97212,1,0,0:0:0:0:
248,116,97439,1,0,0:0:0:0:
248,104,97553,1,0,0:0:0:0:
236,120,97666,1,8,0:0:0:0:
240,116,97894,1,0,0:0:0:0:
248,116,98121,1,8,0:0:0:0:
248,116,98234,1,0,0:0:0:0:
236,120,98348,1,8,0:0:0:0:
248,116,98575,1,8,0:0:0:0:
248,116,98803,1,0,0:0:0:0:
248,116,98916,1,0,0:0:0:0:
248,116,99030,1,0,0:0:0:0:
248,116,99257,1,8,0:0:0:0:
248,116,99371,1,8,0:0:0:0:
248,116,99484,1,0,0:0:0:0:
240,104,99598,1,0,0:0:0:0:
248,116,99712,1,8,0:0:0:0:
240,96,99939,1,0,0:0:0:0:
236,120,100166,1,8,0:0:0:0:
236,120,100394,1,8,0:0:0:0:
236,120,100507,1,0,0:0:0:0:
236,120,100621,1,0,0:0:0:0:
236,120,100734,1,0,0:0:0:0:
240,116,100848,1,8,0:0:0:0:
240,116,101075,1,0,0:0:0:0:
240,116,101303,1,12,0:0:0:0:
236,120,101757,1,0,0:0:0:0:
236,120,101984,1,0,0:0:0:0:
236,120,102098,1,0,0:0:0:0:
236,120,102212,1,8,0:0:0:0:
244,84,102439,1,0,0:0:0:0:
244,84,102553,1,0,0:0:0:0:
240,116,102666,1,0,0:0:0:0:
240,96,102780,1,0,0:0:0:0:
240,116,102894,1,8,0:0:0:0:
248,104,103121,1,0,0:0:0:0:
236,112,103348,1,8,0:0:0:0:
256,104,103575,1,0,0:0:0:0:
240,104,103689,1,8,0:0:0:0:
240,116,103803,1,0,0:0:0:0:
240,116,104030,1,8,0:0:0:0:
240,96,104484,1,0,0:0:0:0:
248,132,104712,1,8,0:0:0:0:
236,112,104939,1,0,0:0:0:0:
240,112,105280,1,0,0:0:0:0:
240,116,105394,1,0,0:0:0:0:
240,116,105621,1,8,0:0:0:0:
240,116,105734,1,8,0:0:0:0:
240,116,105848,1,8,0:0:0:0:
240,116,106075,1,0,0:0:0:0:
240,116,106303,1,0,0:0:0:0:
224,88,106416,1,0,0:0:0:0:
240,112,106530,1,8,0:0:0:0:
228,116,106644,1,8,0:0:0:0:
224,104,106757,1,0,0:0:0:0:
240,112,106984,1,8,0:0:0:0:
248,132,107212,1,0,0:0:0:0:
256,136,107439,1,8,0:0:0:0:
232,100,107553,1,0,0:0:0:0:
228,100,107666,1,8,0:0:0:0:
232,96,107894,1,8,0:0:0:0:
232,96,108007,1,8,0:0:0:0:
232,96,108121,1,0,0:0:0:0:
232,96,108348,1,8,0:0:0:0:
248,132,108575,1,8,0:0:0:0:
232,100,109030,1,8,0:0:0:0:
224,96,109144,1,0,0:0:0:0:
232,100,109257,1,8,0:0:0:0:
232,96,109484,1,8,0:0:0:0:
232,96,109712,1,0,0:0:0:0:
232,96,109825,1,8,0:0:0:0:
232,96,109939,1,0,0:0:0:0:
232,96,110166,1,0,0:0:0:0:
232,96,110394,1,12,0:0:0:0:
228,96,110621,1,0,0:0:0:0:
228,92,110848,1,0,0:0:0:0:
228,92,111075,1,12,0:0:0:0:
224,92,111303,1,0,0:0:0:0:
224,92,111530,1,0,0:0:0:0:
224,92,111757,1,4,0:0:0:0:
272,176,112212,5,12,0:0:0:0:
268,160,112553,1,8,0:0:0:0:
272,148,112666,1,0,0:0:0:0:
272,148,112894,1,8,0:0:0:0:
280,160,113121,1,8,0:0:0:0:
260,144,113348,1,0,0:0:0:0:
272,136,113575,1,8,0:0:0:0:
268,152,113803,1,8,0:0:0:0:
272,132,114030,1,0,0:0:0:0:
272,132,114371,1,0,0:0:0:0:
272,132,114484,1,0,0:0:0:0:
272,132,114712,1,0,0:0:0:0:
256,176,114939,1,8,0:0:0:0:
260,144,115166,1,0,0:0:0:0:
272,136,115394,1,8,0:0:0:0:
260,144,115621,1,8,0:0:0:0:
260,144,115848,1,0,0:0:0:0:
260,144,116189,1,0,0:0:0:0:
260,144,116303,1,0,0:0:0:0:
260,144,116530,1,8,0:0:0:0:
252,172,116757,1,8,0:0:0:0:
260,144,116984,1,0,0:0:0:0:
260,144,117212,1,0,0:0:0:0:
260,136,117439,5,8,0:0:0:0:
260,144,117666,1,0,0:0:0:0:
260,144,118007,1,0,0:0:0:0:
260,144,118121,1,8,0:0:0:0:
260,144,118348,1,0,0:0:0:0:
252,172,118575,1,8,0:0:0:0:
260,144,118803,1,0,0:0:0:0:
260,144,119030,1,0,0:0:0:0:
272,176,119484,5,8,0:0:0:0:
260,144,119712,1,0,0:0:0:0:
260,144,119825,1,0,0:0:0:0:
260,144,119939,1,0,0:0:0:0:
260,144,120166,1,8,0:0:0:0:
280,160,120394,1,8,0:0:0:0:
260,144,120621,1,0,0:0:0:0:
244,136,120734,1,0,0:0:0:0:
248,136,120848,1,8,0:0:0:0:
244,136,121075,1,8,0:0:0:0:
260,144,121303,1,0,0:0:0:0:
268,136,121644,1,0,0:0:0:0:
268,136,121757,1,0,0:0:0:0:
264,136,121984,1,0,0:0:0:0:
256,176,122212,1,8,0:0:0:0:
264,136,122439,1,0,0:0:0:0:
264,136,122666,1,8,0:0:0:0:
272,136,122894,1,8,0:0:0:0:
264,136,123121,1,0,0:0:0:0:
268,136,123462,1,0,0:0:0:0:
268,136,123575,1,0,0:0:0:0:
264,136,123803,1,8,0:0:0:0:
252,172,124030,1,8,0:0:0:0:
264,136,124257,1,0,0:0:0:0:
264,136,124484,1,0,0:0:0:0:
256,136,124712,1,8,0:0:0:0:
264,136,124939,1,0,0:0:0:0:
268,136,125280,1,0,0:0:0:0:
268,136,125394,1,8,0:0:0:0:
264,136,125621,1,0,0:0:0:0:
252,172,125848,1,8,0:0:0:0:
264,136,126075,1,0,0:0:0:0:
268,168,126303,1,8,0:0:0:0:
256,156,126530,1,0,0:0:0:0:
256,156,126644,1,0,0:0:0:0:
272,176,126757,5,0,0:0:0:0:
288,160,127098,5,0,0:0:0:0:
264,120,127212,1,0,0:0:0:0:
272,112,127439,1,8,0:0:0:0:
272,112,127666,1,8,0:0:0:0:
272,152,127894,1,0,0:0:0:0:
272,116,128348,1,0,0:0:0:0:
268,136,128575,1,0,0:0:0:0:
256,164,128803,1,8,0:0:0:0:
268,136,128916,1,8,0:0:0:0:
252,112,129030,1,0,0:0:0:0:
272,112,129257,1,0,0:0:0:0:
272,112,129484,1,8,0:0:0:0:
264,120,129712,1,0,0:0:0:0:
272,116,130166,1,8,0:0:0:0:
264,120,130394,1,0,0:0:0:0:
264,120,130621,1,0,0:0:0:0:
264,120,130734,1,0,0:0:0:0:
272,132,130848,1,0,0:0:0:0:
264,120,131075,1,0,0:0:0:0:
272,112,131303,1,8,0:0:0:0:
264,120,131530,1,0,0:0:0:0:
260,120,131984,1,8,0:0:0:0:
264,120,132098,1,8,0:0:0:0:
264,120,132212,1,0,0:0:0:0:
264,120,132553,1,0,0:0:0:0:
264,120,132666,1,0,0:0:0:0:
264,120,132894,1,0,0:0:0:0:
272,112,133121,1,8,0:0:0:0:
260,120,133575,1,0,0:0:0:0:
256,96,133803,1,0,0:0:0:0:
272,116,134030,1,8,0:0:0:0:
248,72,134257,1,0,0:0:0:0:
264,88,134371,1,0,0:0:0:0:
256,96,134484,1,0,0:0:0:0:
256,96,134712,1,8,0:0:0:0:
256,80,134939,1,8,0:0:0:0:
264,88,135166,1,0,0:0:0:0:
256,80,135621,1,8,0:0:0:0:
252,72,135848,1,0,0:0:0:0:
248,72,136075,1,8,0:0:0:0:
248,68,136189,1,8,0:0:0:0:
256,68,136303,1,0,0:0:0:0:
248,64,136530,1,0,0:0:0:0:
260,108,136644,1,0,0:0:0:0:
248,68,136757,1,8,0:0:0:0:
248,64,136984,1,0,0:0:0:0:
248,64,137666,1,0,0:0:0:0:
248,64,138007,1,0,0:0:0:0:
244,68,138121,1,0,0:0:0:0:
248,64,138348,1,0,0:0:0:0:
248,68,138575,1,8,0:0:0:0:
260,108,138803,1,0,0:0:0:0:
228,48,139257,1,0,0:0:0:0:
248,88,139371,1,0,0:0:0:0:
256,92,139484,1,8,0:0:0:0:
228,48,139825,1,0,0:0:0:0:
264,80,139939,1,0,0:0:0:0:
228,48,140166,1,0,0:0:0:0:
248,68,140394,1,8,0:0:0:0:
224,36,140621,1,0,0:0:0:0:
248,72,140848,1,8,0:0:0:0:
232,80,140962,1,8,0:0:0:0:
224,32,141075,1,0,0:0:0:0:
224,36,141303,1,4,0:0:0:0:
220,20,141644,1,0,0:0:0:0:
220,20,141757,1,0,0:0:0:0:
220,48,141984,1,8,0:0:0:0:
256,92,142098,1,0,0:0:0:0:
220,48,142212,1,8,0:0:0:0:
220,16,142439,1,0,0:0:0:0:
220,48,142894,1,0,0:0:0:0:
216,16,143121,1,0,0:0:0:0:
248,72,143348,1,8,0:0:0:0:
220,36,143462,1,0,0:0:0:0:
200,20,143575,1,0,0:0:0:0:
220,48,143803,1,8,0:0:0:0:
220,48,144030,1,8,0:0:0:0:
220,16,144257,1,0,0:0:0:0:
256,48,144484,1,0,0:0:0:0:
220,48,144712,1,8,0:0:0:0:
248,60,144825,1,0,0:0:0:0:
216,16,144939,1,8,0:0:0:0:
248,76,145166,1,8,0:0:0:0:
220,20,145280,1,8,0:0:0:0:
224,32,145394,1,0,0:0:0:0:
224,44,145621,1,0,0:0:0:0:
220,48,145848,1,8,0:0:0:0:
216,8,146075,1,8,0:0:0:0:
220,48,146530,1,0,0:0:0:0:
216,8,146757,1,0,0:0:0:0:
216,8,147098,1,0,0:0:0:0:
240,36,147212,1,0,0:0:0:0:
216,12,147439,1,0,0:0:0:0:
220,48,147666,1,8,0:0:0:0:
252,64,147894,1,0,0:0:0:0:
216,8,148348,1,0,0:0:0:0:
224,44,148575,1,8,0:0:0:0:
224,44,148803,1,8,0:0:0:0:
252,64,148916,1,8,0:0:0:0:
228,12,149030,1,8,0:0:0:0:
224,44,149257,1,0,0:0:0:0:
224,44,149484,1,8,0:0:0:0:
216,8,149712,1,0,0:0:0:0:
252,64,149825,1,0,0:0:0:0:
256,64,149939,1,0,0:0:0:0:
252,64,150166,1,8,0:0:0:0:
216,8,150394,1,0,0:0:0:0:
252,64,150621,1,0,0:0:0:0:
216,8,150734,1,0,0:0:0:0:
224,44,150848,1,0,0:0:0:0:
216,12,151075,1,8,0:0:0:0:
252,64,151189,1,8,0:0:0:0:
224,44,151303,1,8,0:0:0:0:
224,44,151530,1,0,0:0:0:0:
232,36,151984,1,0,0:0:0:0:
228,40,152212,1,8,0:0:0:0:
224,44,152439,1,8,0:0:0:0:
236,56,152553,1,8,0:0:0:0:
208,16,152666,1,0,0:0:0:0:
208,16,152894,1,0,0:0:0:0:
216,16,153007,1,0,0:0:0:0:
228,40,153121,1,8,0:0:0:0:
220,28,153348,1,8,0:0:0:0:
220,28,153462,1,8,0:0:0:0:
224,44,153575,1,0,0:0:0:0:
200,40,153689,1,8,0:0:0:0:
208,16,153803,1,0,0:0:0:0:
208,16,154030,1,0,0:0:0:0:
224,44,154257,1,8,0:0:0:0:
208,16,154712,1,0,0:0:0:0:
220,32,154939,1,8,0:0:0:0:
220,32,155394,1,8,0:0:0:0:
208,16,155621,1,0,0:0:0:0:
208,16,155734,1,0,0:0:0:0:
272,176,155848,1,8,0:0:0:0:
256,160,156075,1,0,0:0:0:0:
264,120,156303,1,8,0:0:0:0:
220,32,156530,1,0,0:0:0:0:
288,160,156644,1,0,0:0:0:0:
220,32,156757,1,8,0:0:0:0:
272,152,156984,1,0,0:0:0:0:
260,132,157212,1,0,0:0:0:0:
268,136,157439,1,8,0:0:0:0:
272,128,157553,1,0,0:0:0:0:
276,124,157666,1,0,0:0:0:0:
260,144,157780,1,0,0:0:0:0:
264,120,157894,1,0,0:0:0:0:
268,132,158121,1,8,0:0:0:0:
264,120,158234,1,0,0:0:0:0:
268,128,158348,1,8,0:0:0:0:
220,32,158575,1,8,0:0:0:0:
220,32,159030,1,0,0:0:0:0:
220,32,159257,1,8,0:0:0:0:
280,156,159371,1,0,0:0:0:0:
264,120,159484,1,0,0:0:0:0:
276,124,159712,1,8,0:0:0:0:
256,92,159939,1,0,0:0:0:0:
224,56,160166,1,0,0:0:0:0:
280,160,160280,1,0,0:0:0:0:
224,56,160394,1,8,0:0:0:0:
248,132,160507,1,8,0:0:0:0:
280,112,160621,1,0,0:0:0:0:
264,120,160848,1,0,0:0:0:0:
224,52,161075,1,8,0:0:0:0:
280,104,161189,1,0,0:0:0:0:
264,120,161303,1,0,0:0:0:0:
264,120,161530,1,0,0:0:0:0:
260,96,161757,1,8,0:0:0:0:
260,96,161871,1,0,0:0:0:0:
272,132,161984,1,8,0:0:0:0:
248,92,162212,1,8,0:0:0:0:
248,132,162439,1,0,0:0:0:0:
248,92,162666,1,8,0:0:0:0:
232,100,162780,1,8,0:0:0:0:
264,120,162894,1,0,0:0:0:0:
264,120,163121,1,4,0:0:0:0:
264,88,163462,1,0,0:0:0:0:
248,96,163575,1,8,0:0:0:0:
272,108,163803,1,0,0:0:0:0:
248,92,164030,1,8,0:0:0:0:
264,88,164257,1,0,0:0:0:0:
272,88,164371,1,0,0:0:0:0:
288,96,164484,1,0,0:0:0:0:
248,96,164712,1,8,0:0:0:0:
252,72,164939,1,0,0:0:0:0:
252,96,165166,1,8,0:0:0:0:
252,96,165280,1,8,0:0:0:0:
256,68,165394,1,0,0:0:0:0:
248,64,165621,1,0,0:0:0:0:
248,92,165848,1,8,0:0:0:0:
256,64,166075,1,0,0:0:0:0:
272,152,166303,1,0,0:0:0:0:
272,152,166416,1,0,0:0:0:0:
248,96,166530,1,8,0:0:0:0:
248,64,166757,1,0,0:0:0:0:
252,96,167098,1,0,0:0:0:0:
248,64,167212,1,0,0:0:0:0:
248,96,167439,1,0,0:0:0:0:
248,96,167666,1,8,0:0:0:0:
228,48,167894,1,0,0:0:0:0:
248,76,168007,1,8,0:0:0:0:
248,80,168121,1,0,0:0:0:0:
272,152,168348,1,8,0:0:0:0:
252,96,168462,1,0,0:0:0:0:
228,48,168575,1,8,0:0:0:0:
264,80,169030,1,0,0:0:0:0:
228,48,169257,1,0,0:0:0:0:
248,96,169484,1,8,0:0:0:0:
224,36,169712,1,0,0:0:0:0:
248,96,169939,1,8,0:0:0:0:
232,52,170053,1,8,0:0:0:0:
224,32,170166,1,0,0:0:0:0:
224,36,170394,1,4,0:0:0:0:
248,96,170734,1,8,0:0:0:0:
220,20,170848,1,0,0:0:0:0:
220,20,171075,1,0,0:0:0:0:
248,96,171303,1,8,0:0:0:0:
220,16,171530,1,0,0:0:0:0:
280,96,171757,1,0,0:0:0:0:
276,144,171984,1,8,0:0:0:0:
276,144,172098,1,8,0:0:0:0:
216,16,172212,1,0,0:0:0:0:
272,116,172325,1,0,0:0:0:0:
252,92,172439,1,0,0:0:0:0:
200,20,172666,1,0,0:0:0:0:
260,88,172780,1,0,0:0:0:0:
220,20,172894,1,0,0:0:0:0:
248,96,173121,1,8,0:0:0:0:
248,84,173575,1,0,0:0:0:0:
248,96,173803,1,8,0:0:0:0:
216,16,174030,1,0,0:0:0:0:
220,20,174371,1,0,0:0:0:0:
220,40,174484,1,8,0:0:0:0:
244,80,174712,1,0,0:0:0:0:
244,84,174939,1,8,0:0:0:0:
216,8,175166,1,0,0:0:0:0:
276,144,175394,1,0,0:0:0:0:
252,104,175507,1,0,0:0:0:0:
244,84,175621,1,8,0:0:0:0:
264,120,175734,1,0,0:0:0:0:
248,92,175848,1,0,0:0:0:0:
280,96,176075,1,0,0:0:0:0:
240,36,176303,1,8,0:0:0:0:
248,84,176416,1,0,0:0:0:0:
244,80,176530,1,0,0:0:0:0:
244,84,176757,1,8,0:0:0:0:
240,56,176984,1,0,0:0:0:0:
244,84,177212,1,8,0:0:0:0:
232,76,177325,1,0,0:0:0:0:
216,8,177439,1,8,0:0:0:0:
216,8,177666,1,4,0:0:0:0:
216,8,178007,1,0,0:0:0:0:
244,80,178121,1,0,0:0:0:0:
216,12,178348,1,8,0:0:0:0:
244,84,178575,1,8,0:0:0:0:
216,8,178803,1,0,0:0:0:0:
240,60,179144,1,0,0:0:0:0:
240,60,179257,1,8,0:0:0:0:
216,8,179484,1,0,0:0:0:0:
240,60,179712,1,8,0:0:0:0:
244,84,179825,1,8,0:0:0:0:
216,12,179939,1,0,0:0:0:0:
216,12,180166,1,0,0:0:0:0:
244,84,180394,1,8,0:0:0:0:
280,104,180848,1,0,0:0:0:0:
244,84,181075,1,8,0:0:0:0:
208,16,181303,1,0,0:0:0:0:
208,16,181644,1,8,0:0:0:0:
240,60,181757,1,8,0:0:0:0:
240,60,181984,1,0,0:0:0:0:
244,84,182212,1,8,0:0:0:0:
224,16,182439,1,0,0:0:0:0:
240,60,182553,1,0,0:0:0:0:
244,84,182666,1,8,0:0:0:0:
208,16,182894,1,0,0:0:0:0:
240,60,183007,1,0,0:0:0:0:
208,16,183121,1,0,0:0:0:0:
244,84,183348,1,8,0:0:0:0:
240,60,183575,1,0,0:0:0:0:
240,88,183689,1,0,0:0:0:0:
208,16,183803,1,0,0:0:0:0:
244,84,184030,1,8,0:0:0:0:
224,16,184257,1,0,0:0:0:0:
244,84,184484,1,8,0:0:0:0:
240,60,184598,1,8,0:0:0:0:
240,60,184712,1,0,0:0:0:0:
208,16,184825,1,0,0:0:0:0:
208,16,184939,1,8,0:0:0:0:
244,132,186757,1,12,0:0:0:0:
244,132,186984,1,12,0:0:0:0:
244,132,187439,1,0,0:0:0:0:
244,132,187666,1,8,0:0:0:0:
244,132,187894,1,0,0:0:0:0:
240,136,188007,1,0,0:0:0:0:
244,132,188121,1,8,0:0:0:0:
240,136,188348,1,0,0:0:0:0:
256,148,188575,5,4,0:0:0:0:
244,132,189030,1,0,0:0:0:0:
244,132,189257,1,0,0:0:0:0:
240,100,189371,1,0,0:0:0:0:
256,176,189484,1,8,0:0:0:0:
236,116,189598,1,0,0:0:0:0:
256,160,189712,1,0,0:0:0:0:
244,132,189939,1,0,0:0:0:0:
248,136,190166,1,0,0:0:0:0:
240,184,190621,1,8,0:0:0:0:
244,132,191075,1,0,0:0:0:0:
256,176,191303,1,8,0:0:0:0:
236,116,191416,1,0,0:0:0:0:
252,144,191530,1,0,0:0:0:0:
252,140,191757,1,8,0:0:0:0:
268,148,191984,1,0,0:0:0:0:
276,148,192212,1,8,0:0:0:0:
248,160,192325,1,8,0:0:0:0:
276,148,192439,1,0,0:0:0:0:
252,140,192666,1,0,0:0:0:0:
252,140,192894,1,8,0:0:0:0:
236,116,193007,1,8,0:0:0:0:
260,172,193121,1,8,0:0:0:0:
248,112,193234,1,8,0:0:0:0:
252,144,193348,1,0,0:0:0:0:
252,140,193575,1,0,0:0:0:0:
252,140,193803,1,0,0:0:0:0:
264,160,194257,1,8,0:0:0:0:
252,140,194712,1,0,0:0:0:0:
260,172,194939,1,8,0:0:0:0:
236,120,195053,1,0,0:0:0:0:
252,140,195166,1,0,0:0:0:0:
236,120,195280,1,0,0:0:0:0:
260,172,195394,1,8,0:0:0:0:
236,120,195621,1,0,0:0:0:0:
236,120,195848,1,8,0:0:0:0:
236,120,196075,1,0,0:0:0:0:
252,140,196303,1,0,0:0:0:0:
236,120,196416,1,8,0:0:0:0:
252,140,196530,1,0,0:0:0:0:
252,128,196757,1,8,0:0:0:0:
252,128,196984,1,0,0:0:0:0:
248,108,197098,1,0,0:0:0:0:
248,108,197212,1,0,0:0:0:0:
252,124,197439,1,8,0:0:0:0:
252,124,197666,1,0,0:0:0:0:
248,116,197894,1,8,0:0:0:0:
260,132,198007,1,8,0:0:0:0:
236,120,198121,1,0,0:0:0:0:
248,116,198348,1,0,0:0:0:0:
248,116,198575,1,8,0:0:0:0:
240,120,199030,1,0,0:0:0:0:
248,116,199257,1,0,0:0:0:0:
236,120,199484,1,8,0:0:0:0:
252,124,199712,1,0,0:0:0:0:
248,116,199939,1,8,0:0:0:0:
236,120,200053,1,0,0:0:0:0:
248,116,200166,1,8,0:0:0:0:
248,116,200394,1,8,0:0:0:0:
248,116,200621,1,0,0:0:0:0:
248,116,200734,1,8,0:0:0:0:
248,116,200848,1,0,0:0:0:0:
248,116,201075,1,8,0:0:0:0:
248,116,201189,1,8,0:0:0:0:
248,116,201303,1,0,0:0:0:0:
228,124,201416,1,0,0:0:0:0:
248,116,201530,1,8,0:0:0:0:
240,120,201757,1,0,0:0:0:0:
236,120,201984,1,0,0:0:0:0:
236,120,202212,1,8,0:0:0:0:
236,120,202325,1,0,0:0:0:0:
236,120,202439,1,0,0:0:0:0:
236,120,202553,1,0,0:0:0:0:
240,116,202666,1,8,0:0:0:0:
240,116,202894,1,0,0:0:0:0:
240,116,203121,1,12,0:0:0:0:
236,120,203575,1,0,0:0:0:0:
236,120,203803,1,8,0:0:0:0:
224,88,203916,1,0,0:0:0:0:
236,120,204030,1,8,0:0:0:0:
236,120,204257,1,0,0:0:0:0:
248,92,204371,1,0,0:0:0:0:
240,116,204484,1,0,0:0:0:0:
224,88,204598,1,0,0:0:0:0:
240,116,204712,1,8,0:0:0:0:
252,124,204939,1,0,0:0:0:0:
236,112,205166,1,8,0:0:0:0:
240,112,205280,1,8,0:0:0:0:
240,116,205394,1,0,0:0:0:0:
240,116,205621,1,8,0:0:0:0:
240,116,205734,1,8,0:0:0:0:
240,116,205848,1,8,0:0:0:0:
240,116,206303,1,0,0:0:0:0:
232,100,206530,1,8,0:0:0:0:
236,112,206757,1,0,0:0:0:0:
240,112,207098,1,0,0:0:0:0:
240,116,207212,1,0,0:0:0:0:
240,116,207439,1,8,0:0:0:0:
240,116,207553,1,8,0:0:0:0:
240,116,207666,1,8,0:0:0:0:
240,116,207894,1,0,0:0:0:0:
240,116,208121,1,0,0:0:0:0:
248,92,208234,1,0,0:0:0:0:
240,112,208348,1,8,0:0:0:0:
204,96,208462,1,8,0:0:0:0:
248,92,208575,1,0,0:0:0:0:
240,112,208803,1,8,0:0:0:0:
224,92,209030,1,0,0:0:0:0:
228,104,209257,1,8,0:0:0:0:
232,100,209371,1,0,0:0:0:0:
228,100,209484,1,8,0:0:0:0:
232,96,209712,1,8,0:0:0:0:
236,92,209825,1,8,0:0:0:0:
232,96,209939,1,0,0:0:0:0:
232,96,210166,1,8,0:0:0:0:
216,128,210394,1,8,0:0:0:0:
232,100,210848,1,8,0:0:0:0:
224,96,210962,1,0,0:0:0:0:
232,100,211075,1,8,0:0:0:0:
232,96,211303,1,8,0:0:0:0:
232,96,211530,1,0,0:0:0:0:
232,96,211644,1,8,0:0:0:0:
232,96,211757,1,0,0:0:0:0:
232,80,211984,1,8,0:0:0:0:
232,80,212212,1,0,0:0:0:0:
240,76,212439,1,0,0:0:0:0:
232,68,212553,1,0,0:0:0:0:
232,80,212666,1,0,0:0:0:0:
232,80,212894,1,8,0:0:0:0:
236,76,213121,1,0,0:0:0:0:
232,72,213234,1,0,0:0:0:0:
240,76,213348,1,0,0:0:0:0:
236,76,213575,1,8,0:0:0:0:
272,176,214030,5,12,0:0:0:0:
284,148,214257,1,0,0:0:0:0:
284,148,214484,1,0,0:0:0:0:
284,148,214712,1,8,0:0:0:0:
280,144,215166,1,0,0:0:0:0:
276,152,215394,1,12,0:0:0:0:
284,148,215621,1,0,0:0:0:0:
284,148,215848,1,0,0:0:0:0:
284,148,216075,1,8,0:0:0:0:
284,148,216530,1,0,0:0:0:0:
280,144,216644,1,0,0:0:0:0:
280,144,216757,1,8,0:0:0:0:
280,144,216984,1,0,0:0:0:0:
280,144,217212,1,12,0:0:0:0:
284,148,218121,1,0,0:0:0:0:
280,144,218575,1,8,0:0:0:0:
280,144,219030,1,8,0:0:0:0:
280,148,219257,1,0,0:0:0:0:
280,148,219484,1,0,0:0:0:0:
276,144,219712,1,8,0:0:0:0:
252,120,219939,1,0,0:0:0:0:
256,96,220166,1,0,0:0:0:0:
252,120,220394,1,8,0:0:0:0:
260,104,220621,1,0,0:0:0:0:
252,120,220848,1,8,0:0:0:0:
252,120,220962,1,0,0:0:0:0:
252,120,221075,1,8,0:0:0:0:
252,120,221189,1,8,0:0:0:0:
252,120,221303,1,0,0:0:0:0:
252,120,221530,1,0,0:0:0:0:
252,120,221757,1,0,0:0:0:0:
252,120,221984,1,8,0:0:0:0:
252,120,222439,1,0,0:0:0:0:
252,120,222666,1,12,0:0:0:0:
244,116,222894,1,0,0:0:0:0:
244,116,223121,1,0,0:0:0:0:
244,116,223348,1,8,0:0:0:0:
244,116,223803,1,0,0:0:0:0:
244,116,223916,1,0,0:0:0:0:
244,116,224030,1,8,0:0:0:0:
240,96,224257,1,0,0:0:0:0:
240,120,224484,1,12,0:0:0:0:
244,116,225394,1,0,0:0:0:0:
240,116,225848,1,8,0:0:0:0:
240,120,226303,1,8,0:0:0:0:
256,104,226530,1,0,0:0:0:0:
256,104,226757,1,0,0:0:0:0:
256,104,226984,1,8,0:0:0:0:
252,104,227212,1,0,0:0:0:0:
256,96,227325,1,0,0:0:0:0:
252,104,227439,1,0,0:0:0:0:
252,104,227666,1,8,0:0:0:0:
256,96,227894,1,0,0:0:0:0:
252,104,228121,1,8,0:0:0:0:
256,104,228234,1,0,0:0:0:0:
256,104,228348,1,0,0:0:0:0:
256,104,228462,1,0,0:0:0:0:
252,104,228575,1,8,0:0:0:0:
256,104,228803,1,0,0:0:0:0:
260,104,229030,1,0,0:0:0:0:
260,104,229257,1,8,0:0:0:0:
260,104,229712,1,0,0:0:0:0:
260,104,229939,1,12,0:0:0:0:
256,104,230166,1,0,0:0:0:0:
260,100,230394,1,0,0:0:0:0:
256,104,230621,1,8,0:0:0:0:
260,104,231075,1,0,0:0:0:0:
260,104,231189,1,0,0:0:0:0:
260,104,231303,1,8,0:0:0:0:
240,96,231530,1,0,0:0:0:0:
260,104,231757,1,12,0:0:0:0:
240,96,232666,1,0,0:0:0:0:
240,96,233121,1,8,0:0:0:0:
240,96,233575,1,8,0:0:0:0:
240,96,233803,1,0,0:0:0:0:
240,96,234030,1,0,0:0:0:0:
240,96,234257,1,8,0:0:0:0:
240,96,234371,1,8,0:0:0:0:
240,96,234484,1,8,0:0:0:0:
240,96,234598,1,8,0:0:0:0:
240,96,234712,1,0,0:0:0:0:
240,96,234939,1,8,0:0:0:0:
240,96,235053,1,8,0:0:0:0:
240,96,235166,1,0,0:0:0:0:
240,96,235280,1,8,0:0:0:0:
240,80,235394,1,0,0:0:0:0:
244,84,235621,1,8,0:0:0:0:
244,84,235734,1,8,0:0:0:0:
240,80,235848,1,0,0:0:0:0:
236,72,236075,1,0,0:0:0:0:
236,76,236303,1,0,0:0:0:0:
236,76,236530,1,8,0:0:0:0:
236,76,236984,1,0,0:0:0:0:
236,76,237212,1,12,0:0:0:0:
236,80,237439,1,0,0:0:0:0:
240,80,237666,1,0,0:0:0:0:
240,80,237894,1,8,0:0:0:0:
236,76,238348,1,0,0:0:0:0:
236,76,238462,1,0,0:0:0:0:
236,76,238575,1,8,0:0:0:0:
236,76,238803,1,0,0:0:0:0:
236,76,239030,1,12,0:0:0:0:
236,76,239939,1,0,0:0:0:0:
236,76,240394,1,8,0:0:0:0:
236,76,240848,1,8,0:0:0:0:
244,72,241075,1,0,0:0:0:0:
244,72,241303,1,8,0:0:0:0:
244,72,241530,1,0,0:0:0:0:
232,64,241643,1,0,0:0:0:0:
244,72,241757,1,0,0:0:0:0:
244,72,241984,1,8,0:0:0:0:
244,72,242212,1,0,0:0:0:0:
232,64,242325,1,0,0:0:0:0:
244,72,242439,1,0,0:0:0:0:
240,72,242666,1,8,0:0:0:0:
244,72,242893,1,0,0:0:0:0:
232,64,243007,1,0,0:0:0:0:
244,72,243121,1,0,0:0:0:0:
244,72,243348,1,8,0:0:0:0:
244,72,243575,1,8,0:0:0:0:
244,72,243803,1,0,0:0:0:0:
244,72,244030,1,8,0:0:0:0:
244,72,244143,1,8,0:0:0:0:
244,72,244257,1,0,0:0:0:0:
240,72,244371,1,0,0:0:0:0:
240,72,244484,1,8,0:0:0:0:
256,148,244939,5,4,0:0:0:0:
244,132,245393,1,0,0:0:0:0:
244,132,245621,1,0,0:0:0:0:
252,120,245734,1,0,0:0:0:0:
256,176,245848,1,8,0:0:0:0:
236,116,245962,1,0,0:0:0:0:
256,152,246075,1,0,0:0:0:0:
244,132,246303,1,0,0:0:0:0:
248,136,246530,1,0,0:0:0:0:
240,184,246984,1,8,0:0:0:0:
244,132,247439,1,0,0:0:0:0:
256,176,247666,1,8,0:0:0:0:
236,116,247780,1,0,0:0:0:0:
252,144,247893,1,0,0:0:0:0:
252,140,248121,1,8,0:0:0:0:
216,136,248348,1,0,0:0:0:0:
216,136,248575,1,8,0:0:0:0:
268,156,248689,1,8,0:0:0:0:
216,136,248803,1,8,0:0:0:0:
252,140,249030,1,0,0:0:0:0:
252,140,249257,1,0,0:0:0:0:
236,116,249371,1,8,0:0:0:0:
260,172,249484,1,8,0:0:0:0:
252,128,249598,1,8,0:0:0:0:
252,144,249712,1,0,0:0:0:0:
252,140,249939,1,0,0:0:0:0:
252,140,250166,1,0,0:0:0:0:
264,160,250621,1,8,0:0:0:0:
252,140,251075,1,0,0:0:0:0:
260,172,251303,1,8,0:0:0:0:
236,120,251416,1,0,0:0:0:0:
252,140,251530,1,0,0:0:0:0:
236,120,251643,1,0,0:0:0:0:
260,172,251757,1,8,0:0:0:0:
216,136,251984,1,0,0:0:0:0:
216,136,252212,1,8,0:0:0:0:
216,136,252439,1,0,0:0:0:0:
236,120,252666,1,8,0:0:0:0:
236,120,252780,1,0,0:0:0:0:
252,140,252893,1,8,0:0:0:0:
252,128,253121,1,8,0:0:0:0:
236,120,253348,1,0,0:0:0:0:
216,136,253462,1,0,0:0:0:0:
236,120,253575,1,0,0:0:0:0:
252,124,253803,1,8,0:0:0:0:
252,124,254030,1,0,0:0:0:0:
248,116,254257,1,8,0:0:0:0:
260,132,254371,1,8,0:0:0:0:
216,136,254484,1,0,0:0:0:0:
248,116,254712,1,0,0:0:0:0:
248,116,254939,1,8,0:0:0:0:
216,136,255393,1,0,0:0:0:0:
216,136,255621,1,0,0:0:0:0:
216,136,255848,1,8,0:0:0:0:
216,140,256075,1,0,0:0:0:0:
248,116,256303,1,8,0:0:0:0:
216,140,256416,1,8,0:0:0:0:
248,116,256530,1,8,0:0:0:0:
248,116,256757,1,8,0:0:0:0:
248,116,256984,1,0,0:0:0:0:
248,116,257098,1,8,0:0:0:0:
248,116,257212,1,0,0:0:0:0:
248,116,257439,1,8,0:0:0:0:
248,116,257553,1,8,0:0:0:0:
248,116,257666,1,0,0:0:0:0:
232,120,257780,1,0,0:0:0:0:
248,116,257893,1,8,0:0:0:0:
216,140,258121,1,0,0:0:0:0:
236,120,258348,1,8,0:0:0:0:
236,120,258575,1,8,0:0:0:0:
236,120,258803,1,0,0:0:0:0:
236,120,258916,1,0,0:0:0:0:
240,116,259030,1,8,0:0:0:0:
240,116,259257,1,0,0:0:0:0:
240,116,259484,1,12,0:0:0:0:
236,120,259939,1,0,0:0:0:0:
216,140,260166,1,0,0:0:0:0:
236,120,260280,1,0,0:0:0:0:
236,120,260393,1,8,0:0:0:0:
236,120,260621,1,0,0:0:0:0:
256,112,260734,1,0,0:0:0:0:
240,88,260848,1,0,0:0:0:0:
216,140,260962,1,0,0:0:0:0:
240,116,261075,1,8,0:0:0:0:
252,124,261303,1,0,0:0:0:0:
236,112,261530,1,8,0:0:0:0:
240,88,261643,1,8,0:0:0:0:
240,116,261757,1,0,0:0:0:0:
240,100,261871,1,0,0:0:0:0:
240,116,261984,1,8,0:0:0:0:
240,116,262098,1,0,0:0:0:0:
240,116,262212,1,8,0:0:0:0:
216,140,262666,1,0,0:0:0:0:
216,140,262893,1,8,0:0:0:0:
236,112,263121,1,0,0:0:0:0:
240,112,263462,1,0,0:0:0:0:
240,116,263575,1,0,0:0:0:0:
240,116,263803,1,0,0:0:0:0:
240,116,263916,1,0,0:0:0:0:
240,116,264030,1,8,0:0:0:0:
240,116,264257,1,0,0:0:0:0:
240,116,264484,1,0,0:0:0:0:
240,88,264598,1,0,0:0:0:0:
240,112,264712,1,8,0:0:0:0:
224,120,264825,1,0,0:0:0:0:
244,100,264939,1,0,0:0:0:0:
240,112,265166,1,8,0:0:0:0:
216,140,265393,1,0,0:0:0:0:
232,104,265621,1,8,0:0:0:0:
232,100,265734,1,0,0:0:0:0:
228,100,265848,1,8,0:0:0:0:
232,96,266075,1,8,0:0:0:0:
232,96,266189,1,8,0:0:0:0:
232,96,266303,1,8,0:0:0:0:
232,96,266530,1,0,0:0:0:0:
228,120,266757,1,0,0:0:0:0:
232,100,267212,1,8,0:0:0:0:
224,96,267325,1,0,0:0:0:0:
232,100,267439,1,8,0:0:0:0:
232,96,267666,1,8,0:0:0:0:
232,96,267893,1,0,0:0:0:0:
232,96,268007,1,8,0:0:0:0:
232,96,268121,1,0,0:0:0:0:
232,96,268348,1,0,0:0:0:0:
232,96,268575,1,0,0:0:0:0:
228,96,268803,1,8,0:0:0:0:
224,92,268916,1,0,0:0:0:0:
228,92,269030,1,0,0:0:0:0:
228,92,269257,1,0,0:0:0:0:
224,92,269484,1,8,0:0:0:0:
224,92,269598,1,8,0:0:0:0:
224,92,269712,1,0,0:0:0:0:
224,92,269939,1,0,0:0:0:0:
268,184,270166,1,0,0:0:0:0:
272,176,270393,5,12,0:0:0:0:
264,172,270848,1,0,0:0:0:0:
264,172,271075,1,0,0:0:0:0:
264,172,271303,1,8,0:0:0:0:
260,172,271757,1,0,0:0:0:0:
260,172,271984,1,0,0:0:0:0:
264,172,272439,1,8,0:0:0:0:
216,144,272666,1,0,0:0:0:0:
228,136,272893,1,8,0:0:0:0:
264,172,273007,1,0,0:0:0:0:
264,172,273121,1,8,0:0:0:0:
252,172,273348,1,8,0:0:0:0:
268,152,273462,1,8,0:0:0:0:
252,172,273575,1,8,0:0:0:0:
248,172,273803,1,0,0:0:0:0:
244,136,274030,1,0,0:0:0:0:
216,144,274484,1,8,0:0:0:0:
216,144,274598,1,0,0:0:0:0:
216,144,274712,1,8,0:0:0:0:
248,172,274939,1,8,0:0:0:0:
252,172,275166,1,0,0:0:0:0:
252,172,275393,1,0,0:0:0:0:
248,172,275621,1,0,0:0:0:0:
244,144,275734,1,8,0:0:0:0:
248,172,275848,1,0,0:0:0:0:
248,172,276075,1,8,0:0:0:0:
244,144,276303,1,0,0:0:0:0:
244,144,276416,1,0,0:0:0:0:
244,144,276530,1,0,0:0:0:0:
244,144,276757,1,8,0:0:0:0:
244,144,276984,1,0,0:0:0:0:
244,144,277439,1,0,0:0:0:0:
244,144,277666,1,8,0:0:0:0:
232,120,277893,1,0,0:0:0:0:
216,113,278007,1,0,0:0:0:0:
232,120,278121,1,8,0:0:0:0:
228,112,278348,1,8,0:0:0:0:
244,116,278462,1,0,0:0:0:0:
232,120,278575,1,8,0:0:0:0:
240,108,278689,1,8,0:0:0:0:
240,108,278803,1,0,0:0:0:0:
240,112,278916,1,0,0:0:0:0:
236,112,279030,1,8,0:0:0:0:
236,112,279257,1,0,0:0:0:0:
236,112,279712,1,8,0:0:0:0:
216,144,279939,1,0,0:0:0:0:
220,128,280166,1,8,0:0:0:0:
236,112,280280,1,0,0:0:0:0:
236,112,280393,1,8,0:0:0:0:
232,112,280621,1,8,0:0:0:0:
224,132,280734,1,8,0:0:0:0:
232,112,280848,1,8,0:0:0:0:
232,112,281075,1,0,0:0:0:0:
220,128,281303,1,8,0:0:0:0:
216,144,281757,1,8,0:0:0:0:
216,144,281871,1,0,0:0:0:0:
216,144,281984,1,8,0:0:0:0:
228,108,282212,1,8,0:0:0:0:
228,108,282439,1,0,0:0:0:0:
228,108,282666,1,0,0:0:0:0:
168,280,282780,1,8,0:0:0:0:
228,108,282893,1,0,0:0:0:0:
228,108,283121,1,8,0:0:0:0:
224,108,283348,1,0,0:0:0:0:
224,108,283575,1,0,0:0:0:0:
224,108,283803,1,4,0:0:0:0:
228,108,284030,1,0,0:0:0:0:
228,108,284257,1,0,0:0:0:0:
228,108,284484,1,4,0:0:0:0:
228,108,284712,1,0,0:0:0:0:
228,108,284939,1,12,0:0:0:0:
256,192,285166,12,8,291757,0:0:0:0:
272,176,292212,5,8,0:0:0:0:
268,160,292553,1,0,0:0:0:0:
272,148,292666,1,0,0:0:0:0:
272,148,292893,1,8,0:0:0:0:
280,160,293121,1,8,0:0:0:0:
260,144,293348,1,0,0:0:0:0:
272,136,293575,1,8,0:0:0:0:
268,152,293803,1,8,0:0:0:0:
272,132,294030,1,0,0:0:0:0:
272,132,294371,1,0,0:0:0:0:
272,132,294484,1,0,0:0:0:0:
272,132,294712,1,0,0:0:0:0:
256,176,294939,1,8,0:0:0:0:
260,144,295166,1,0,0:0:0:0:
272,136,295393,1,8,0:0:0:0:
260,144,295621,1,8,0:0:0:0:
260,144,295848,1,0,0:0:0:0:
260,144,296189,1,0,0:0:0:0:
260,144,296530,1,8,0:0:0:0:
252,172,296757,1,8,0:0:0:0:
260,144,296984,1,0,0:0:0:0:
260,144,297212,1,0,0:0:0:0:
260,136,297439,5,8,0:0:0:0:
260,144,297666,1,0,0:0:0:0:
260,144,298007,1,0,0:0:0:0:
260,144,298348,1,0,0:0:0:0:
252,172,298575,1,8,0:0:0:0:
260,144,298803,1,0,0:0:0:0:
260,144,299030,1,0,0:0:0:0:
272,176,299484,1,8,0:0:0:0:
260,144,299825,1,0,0:0:0:0:
276,168,299939,1,0,0:0:0:0:
260,144,300166,1,8,0:0:0:0:
280,160,300393,1,8,0:0:0:0:
244,136,300734,1,0,0:0:0:0:
248,136,300848,1,8,0:0:0:0:
244,136,301075,1,8,0:0:0:0:
260,144,301303,1,0,0:0:0:0:
268,136,301643,1,0,0:0:0:0:
264,136,301984,1,0,0:0:0:0:
256,176,302212,1,8,0:0:0:0:
264,136,302439,1,0,0:0:0:0:
264,136,302666,1,8,0:0:0:0:
264,156,302893,1,8,0:0:0:0:
264,136,303121,1,0,0:0:0:0:
268,136,303462,1,0,0:0:0:0:
264,136,303803,1,8,0:0:0:0:
252,172,304030,1,8,0:0:0:0:
264,136,304257,1,0,0:0:0:0:
264,136,304484,1,0,0:0:0:0:
264,156,304712,1,8,0:0:0:0:
264,136,304939,1,0,0:0:0:0:
268,136,305280,1,0,0:0:0:0:
264,136,305621,1,0,0:0:0:0:
252,172,305848,1,8,0:0:0:0:
264,136,306075,1,0,0:0:0:0:
268,168,306303,1,0,0:0:0:0:
244,156,306757,1,0,0:0:0:0:
