osu file format v14

[General]
AudioFilename: Tekanan Batin!!!.mp3
AudioLeadIn: 0
PreviewTime: 187212
Countdown: 0
SampleSet: Normal
StackLeniency: 0.7
Mode: 2
LetterboxInBreaks: 0
WidescreenStoryboard: 1

[Editor]
Bookmarks: 10393,24939,39484,54030,86757,112212,126757,141303,155848
DistanceSpacing: 0.8
BeatDivisor: 4
GridSize: 8
TimelineZoom: 2.600005

[Metadata]
Title:Diary Depresiku
TitleUnicode:Diary Depresiku
Artist:Last Child
ArtistUnicode:Last Child
Creator:Surono
Version:Volta's Depressing Rain
Source:
Tags:bahasa indonesia indonesian pop rock we are everything grow up Nishizumi Volta Grim Rapper Eraser
BeatmapID:1226900
BeatmapSetID:350305

[Difficulty]
HPDrainRate:9.9
CircleSize:4.9
OverallDifficulty:9
ApproachRate:9
SliderMultiplier:2.4
SliderTickRate:1

[Events]
//Background and Video events
0,0,"BG.jpg",0,0
//Break Periods
2,221503,235248
//Storyboard Layer 0 (Background)
//Storyboard Layer 1 (Fail)
//Storyboard Layer 2 (Pass)
//Storyboard Layer 3 (Foreground)
//Storyboard Sound Samples

[TimingPoints]
10394,454.545454545455,4,1,1,50,1,0
86757,-100,4,1,1,50,0,1
112212,-100,4,1,1,50,0,0
188575,-100,4,1,1,50,0,1
214030,-100,4,1,1,50,0,0
241303,454.545454545455,4,1,1,50,1,0
244939,-100,4,1,1,50,0,1
284939,-100,4,1,1,50,0,0
292212,-100,4,1,1,30,0,0
294030,-100,4,1,1,25,0,0
295848,-100,4,1,1,20,0,0
297666,-100,4,1,1,15,0,0
299484,-100,4,2,1,10,0,0

[Colours]
Combo1 : 143,112,123
Combo2 : 88,123,79
Combo3 : 124,126,148
Combo4 : 159,134,106

[HitObjects]
256,192,280,12,0,10166,0:0:0:0:
48,208,10393,5,0,0:0:0:0:
152,152,10621,1,0,0:0:0:0:
204,128,10734,1,0,0:0:0:0:
256,112,10848,1,0,0:0:0:0:
360,64,11075,1,0,0:0:0:0:
116,84,11303,5,0,0:0:0:0:
256,112,11530,1,0,0:0:0:0:
116,84,11757,1,0,0:0:0:0:
360,64,11984,1,0,0:0:0:0:
464,208,12212,5,0,0:0:0:0:
360,152,12440,1,0,0:0:0:0:
308,128,12553,1,0,0:0:0:0:
256,112,12667,1,0,0:0:0:0:
152,64,12894,1,0,0:0:0:0:
396,84,13122,5,0,0:0:0:0:
256,112,13349,1,0,0:0:0:0:
396,84,13576,1,0,0:0:0:0:
152,64,13803,1,0,0:0:0:0:
48,208,14030,5,0,0:0:0:0:
152,152,14258,1,0,0:0:0:0:
204,132,14371,1,0,0:0:0:0:
256,112,14485,1,0,0:0:0:0:
360,64,14712,1,0,0:0:0:0:
116,84,14940,5,0,0:0:0:0:
256,112,15167,1,0,0:0:0:0:
116,84,15394,1,0,0:0:0:0:
360,64,15621,1,0,0:0:0:0:
464,208,15849,5,0,0:0:0:0:
360,152,16077,1,0,0:0:0:0:
308,128,16189,1,0,0:0:0:0:
256,112,16304,1,0,0:0:0:0:
152,64,16531,1,0,0:0:0:0:
396,84,16759,5,0,0:0:0:0:
256,112,16986,1,0,0:0:0:0:
396,84,17213,1,0,0:0:0:0:
152,64,17440,1,0,0:0:0:0:
464,208,17666,5,0,0:0:0:0:
360,152,17894,1,0,0:0:0:0:
308,136,18007,1,0,0:0:0:0:
256,112,18121,1,0,0:0:0:0:
152,64,18348,1,0,0:0:0:0:
396,84,18576,5,0,0:0:0:0:
256,112,18803,1,0,0:0:0:0:
396,84,19030,1,0,0:0:0:0:
152,64,19257,1,0,0:0:0:0:
48,208,19485,5,0,0:0:0:0:
152,152,19713,1,0,0:0:0:0:
204,132,19825,1,0,0:0:0:0:
256,112,19940,1,0,0:0:0:0:
360,64,20167,1,0,0:0:0:0:
116,84,20395,5,0,0:0:0:0:
256,112,20622,1,0,0:0:0:0:
116,84,20849,1,0,0:0:0:0:
360,64,21076,1,0,0:0:0:0:
464,208,21303,5,0,0:0:0:0:
360,152,21531,1,0,0:0:0:0:
308,136,21644,1,0,0:0:0:0:
256,112,21758,1,0,0:0:0:0:
152,64,21985,1,0,0:0:0:0:
396,84,22213,5,0,0:0:0:0:
256,112,22440,1,0,0:0:0:0:
396,84,22667,1,0,0:0:0:0:
152,64,22894,1,0,0:0:0:0:
48,208,23122,5,0,0:0:0:0:
152,152,23350,1,0,0:0:0:0:
204,128,23462,1,0,0:0:0:0:
256,112,23577,1,0,0:0:0:0:
360,64,23804,1,0,0:0:0:0:
116,84,24032,5,0,0:0:0:0:
256,112,24259,1,0,0:0:0:0:
116,84,24486,1,0,0:0:0:0:
360,64,24713,1,0,0:0:0:0:
400,64,24825,1,0,0:0:0:0:
100,176,24939,5,0,0:0:0:0:
264,176,25280,1,0,0:0:0:0:
108,176,25621,1,0,0:0:0:0:
344,176,25848,2,0,B|480:176|480:176|228:176,1,360
412,176,26757,5,0,0:0:0:0:
248,176,27098,1,0,0:0:0:0:
404,176,27439,1,0,0:0:0:0:
168,176,27666,2,0,B|32:176|32:176|284:176,1,360
100,176,28575,5,0,0:0:0:0:
264,176,28916,1,0,0:0:0:0:
108,176,29257,1,0,0:0:0:0:
344,176,29484,2,0,B|480:176|480:176|228:176,1,360
412,176,30393,5,0,0:0:0:0:
248,176,30734,1,0,0:0:0:0:
404,176,31075,1,0,0:0:0:0:
168,176,31302,2,0,B|32:176|32:176|284:176,1,360
412,176,32212,5,0,0:0:0:0:
248,176,32553,1,0,0:0:0:0:
404,176,32894,1,0,0:0:0:0:
168,176,33121,2,0,B|32:176|32:176|284:176,1,360
100,176,34030,5,0,0:0:0:0:
264,176,34371,1,0,0:0:0:0:
108,176,34712,1,0,0:0:0:0:
344,176,34939,2,0,B|480:176|480:176|228:176,1,360
412,176,35848,5,0,0:0:0:0:
248,176,36189,1,0,0:0:0:0:
404,176,36530,1,0,0:0:0:0:
168,176,36757,2,0,B|32:176|32:176|284:176,1,360
100,176,37666,5,0,0:0:0:0:
264,176,38007,1,0,0:0:0:0:
108,176,38348,1,0,0:0:0:0:
344,176,38575,1,0,0:0:0:0:
240,176,38803,1,0,0:0:0:0:
476,176,39030,1,0,0:0:0:0:
396,176,39257,1,0,0:0:0:0:
100,176,39484,5,0,0:0:0:0:
264,176,39825,1,0,0:0:0:0:
108,176,40166,1,0,0:0:0:0:
344,176,40393,2,0,B|480:176|480:176|228:176,1,360
412,176,41302,5,0,0:0:0:0:
248,176,41643,1,0,0:0:0:0:
404,176,41984,1,0,0:0:0:0:
168,176,42211,2,0,B|32:176|32:176|284:176,1,360
100,176,43120,5,0,0:0:0:0:
264,176,43461,1,0,0:0:0:0:
108,176,43802,1,0,0:0:0:0:
344,176,44029,2,0,B|480:176|480:176|228:176,1,360
412,176,44938,5,0,0:0:0:0:
248,176,45279,1,0,0:0:0:0:
404,176,45620,1,0,0:0:0:0:
168,176,45847,2,0,B|32:176|32:176|284:176,1,360
412,176,46757,5,0,0:0:0:0:
248,176,47098,1,0,0:0:0:0:
404,176,47439,1,0,0:0:0:0:
168,176,47666,2,0,B|32:176|32:176|284:176,1,360
100,176,48575,5,0,0:0:0:0:
264,176,48916,1,0,0:0:0:0:
108,176,49257,1,0,0:0:0:0:
344,176,49484,2,0,B|480:176|480:176|228:176,1,360
412,176,50394,5,0,0:0:0:0:
248,176,50735,1,0,0:0:0:0:
404,176,51076,1,0,0:0:0:0:
168,176,51303,2,0,B|32:176|32:176|120:176,1,180
188,176,51757,5,0,0:0:0:0:
28,176,51984,1,0,0:0:0:0:
168,176,52212,1,0,0:0:0:0:
392,176,52439,1,0,0:0:0:0:
272,176,52894,1,0,0:0:0:0:
48,176,53121,1,0,0:0:0:0:
432,176,53575,1,0,0:0:0:0:
344,176,53803,1,0,0:0:0:0:
272,176,53916,1,0,0:0:0:0:
64,120,54030,6,0,L|160:208,3,120
448,120,54939,6,0,L|328:232,3,120
216,120,55848,6,0,L|328:184,3,120
32,120,56757,6,0,L|128:216,3,120
448,120,57666,6,0,L|352:208,3,120
64,120,58575,6,0,L|176:208,3,120
456,200,59484,6,0,L|361:125,3,120
152,296,60393,6,0,L|48:232,1,120
336,296,60848,2,0,L|448:216,1,120
64,120,61303,6,0,L|160:208,3,120
448,120,62212,6,0,L|328:232,3,120
216,120,63121,6,0,L|328:184,3,120
32,120,64030,6,0,L|128:216,3,120
448,120,64939,6,0,L|352:208,3,120
64,120,65848,6,0,L|176:208,3,120
456,200,66757,6,0,L|361:125,3,120
152,296,67666,6,0,L|48:232,1,120
336,296,68121,2,0,L|448:216,1,120
64,120,68575,6,0,L|160:208,3,120
448,120,69484,6,0,L|328:232,3,120
216,120,70393,6,0,L|328:184,3,120
32,120,71302,6,0,L|128:216,3,120
448,120,72211,6,0,L|352:208,3,120
64,120,73120,6,0,L|176:208,3,120
456,200,74029,6,0,L|361:125,3,120
152,296,74938,6,0,L|48:232,1,120
336,296,75393,2,0,L|448:216,1,120
64,120,75848,6,0,L|160:208,3,120
448,120,76757,6,0,L|328:232,3,120
216,120,77666,6,0,L|328:184,3,120
32,120,78575,6,0,L|128:216,3,120
448,120,79484,6,0,L|352:208,3,120
64,120,80393,6,0,L|176:208,1,120
448,120,80848,2,0,L|336:208,2,120
64,120,81530,6,0,L|176:208,2,120
360,296,82212,2,0,L|456:224,1,120
136,168,82666,5,0,0:0:0:0:
88,112,82780,1,0,0:0:0:0:
152,112,82894,1,0,0:0:0:0:
216,112,83007,1,0,0:0:0:0:
448,112,83121,1,0,0:0:0:0:
440,208,84939,5,0,0:0:0:0:
72,200,85166,1,0,0:0:0:0:
128,200,85621,5,0,0:0:0:0:
432,200,85848,1,0,0:0:0:0:
344,104,86075,1,0,0:0:0:0:
24,144,86303,1,0,0:0:0:0:
112,88,86530,1,0,0:0:0:0:
424,112,86757,6,0,P|496:208|328:280,1,360
40,128,87666,1,0,0:0:0:0:
256,152,88121,1,0,0:0:0:0:
448,152,88348,1,0,0:0:0:0:
136,184,88803,1,0,0:0:0:0:
384,200,89257,5,0,0:0:0:0:
80,200,89484,1,0,0:0:0:0:
168,104,89711,1,0,0:0:0:0:
488,144,89939,1,0,0:0:0:0:
400,88,90166,1,0,0:0:0:0:
88,112,90393,6,0,P|16:208|184:280,1,360
472,128,91302,1,0,0:0:0:0:
256,152,91757,1,0,0:0:0:0:
64,152,91984,1,0,0:0:0:0:
376,176,92439,1,0,0:0:0:0:
128,200,92894,5,0,0:0:0:0:
432,200,93121,1,0,0:0:0:0:
344,104,93348,1,0,0:0:0:0:
24,144,93576,1,0,0:0:0:0:
112,88,93803,1,0,0:0:0:0:
424,112,94030,6,0,P|496:208|328:280,1,360
40,128,94939,1,0,0:0:0:0:
256,152,95394,1,0,0:0:0:0:
448,152,95621,1,0,0:0:0:0:
136,216,96076,1,0,0:0:0:0:
384,200,96530,5,0,0:0:0:0:
80,200,96757,1,0,0:0:0:0:
168,104,96984,1,0,0:0:0:0:
488,144,97212,1,0,0:0:0:0:
400,88,97439,1,0,0:0:0:0:
88,112,97666,6,0,P|16:208|184:280,1,360
472,128,98575,1,0,0:0:0:0:
256,152,99030,1,0,0:0:0:0:
64,152,99257,1,0,0:0:0:0:
376,216,99712,1,0,0:0:0:0:
128,200,100166,5,0,0:0:0:0:
432,200,100393,1,0,0:0:0:0:
488,232,100507,1,0,0:0:0:0:
440,280,100621,1,0,0:0:0:0:
384,312,100734,1,0,0:0:0:0:
96,288,100848,1,0,0:0:0:0:
24,128,101075,1,0,0:0:0:0:
424,112,101303,6,0,P|496:208|328:280,1,360
40,128,102212,1,0,0:0:0:0:
256,152,102667,1,0,0:0:0:0:
448,152,102894,1,0,0:0:0:0:
136,224,103349,1,0,0:0:0:0:
384,200,103803,5,0,0:0:0:0:
80,200,104030,1,0,0:0:0:0:
168,104,104257,1,0,0:0:0:0:
488,144,104485,1,0,0:0:0:0:
400,88,104712,1,0,0:0:0:0:
88,112,104939,6,0,P|16:208|184:280,1,360
472,128,105848,1,0,0:0:0:0:
256,152,106303,1,0,0:0:0:0:
64,152,106530,1,0,0:0:0:0:
376,240,106985,1,0,0:0:0:0:
128,200,107440,5,0,0:0:0:0:
432,200,107667,1,0,0:0:0:0:
344,104,107894,1,0,0:0:0:0:
24,144,108122,1,0,0:0:0:0:
112,88,108349,1,0,0:0:0:0:
424,112,108576,6,0,P|496:208|328:280,1,360
40,128,109485,1,0,0:0:0:0:
264,152,109940,1,0,0:0:0:0:
408,152,110167,1,0,0:0:0:0:
104,144,110394,5,0,0:0:0:0:
240,120,110621,1,0,0:0:0:0:
104,144,110848,1,0,0:0:0:0:
408,152,111075,1,0,0:0:0:0:
272,152,111303,1,0,0:0:0:0:
408,152,111530,1,0,0:0:0:0:
104,144,111757,1,0,0:0:0:0:
464,208,112212,5,0,0:0:0:0:
360,152,112440,1,0,0:0:0:0:
308,128,112553,1,0,0:0:0:0:
256,112,112667,1,0,0:0:0:0:
152,64,112894,1,0,0:0:0:0:
396,84,113122,5,0,0:0:0:0:
256,112,113349,1,0,0:0:0:0:
396,84,113576,1,0,0:0:0:0:
152,64,113803,1,0,0:0:0:0:
48,208,114031,5,0,0:0:0:0:
152,152,114259,1,0,0:0:0:0:
204,128,114372,1,0,0:0:0:0:
256,112,114486,1,0,0:0:0:0:
360,64,114713,1,0,0:0:0:0:
116,84,114941,5,0,0:0:0:0:
256,112,115168,1,0,0:0:0:0:
116,84,115395,1,0,0:0:0:0:
360,64,115622,1,0,0:0:0:0:
464,208,115849,5,0,0:0:0:0:
360,152,116077,1,0,0:0:0:0:
308,132,116190,1,0,0:0:0:0:
256,112,116304,1,0,0:0:0:0:
152,64,116531,1,0,0:0:0:0:
396,84,116759,5,0,0:0:0:0:
256,112,116986,1,0,0:0:0:0:
396,84,117213,1,0,0:0:0:0:
152,64,117440,1,0,0:0:0:0:
48,208,117668,5,0,0:0:0:0:
152,152,117896,1,0,0:0:0:0:
204,128,118008,1,0,0:0:0:0:
256,112,118123,1,0,0:0:0:0:
360,64,118350,1,0,0:0:0:0:
116,84,118578,5,0,0:0:0:0:
256,112,118805,1,0,0:0:0:0:
116,84,119032,1,0,0:0:0:0:
360,64,119259,1,0,0:0:0:0:
48,208,119485,5,0,0:0:0:0:
152,152,119713,1,0,0:0:0:0:
204,136,119826,1,0,0:0:0:0:
256,112,119940,1,0,0:0:0:0:
360,64,120167,1,0,0:0:0:0:
116,84,120395,5,0,0:0:0:0:
256,112,120622,1,0,0:0:0:0:
116,84,120849,1,0,0:0:0:0:
360,64,121076,1,0,0:0:0:0:
464,208,121304,5,0,0:0:0:0:
360,152,121532,1,0,0:0:0:0:
308,132,121644,1,0,0:0:0:0:
256,112,121759,1,0,0:0:0:0:
152,64,121986,1,0,0:0:0:0:
396,84,122214,5,0,0:0:0:0:
256,112,122441,1,0,0:0:0:0:
396,84,122668,1,0,0:0:0:0:
152,64,122895,1,0,0:0:0:0:
48,208,123122,5,0,0:0:0:0:
152,152,123350,1,0,0:0:0:0:
204,136,123463,1,0,0:0:0:0:
256,112,123577,1,0,0:0:0:0:
360,64,123804,1,0,0:0:0:0:
116,84,124032,5,0,0:0:0:0:
256,112,124259,1,0,0:0:0:0:
116,84,124486,1,0,0:0:0:0:
360,64,124713,1,0,0:0:0:0:
464,208,124941,5,0,0:0:0:0:
360,152,125169,1,0,0:0:0:0:
308,128,125281,1,0,0:0:0:0:
256,112,125396,1,0,0:0:0:0:
152,64,125623,1,0,0:0:0:0:
396,84,125851,5,0,0:0:0:0:
256,112,126078,1,0,0:0:0:0:
396,84,126305,1,0,0:0:0:0:
152,64,126532,1,0,0:0:0:0:
112,64,126644,1,0,0:0:0:0:
412,176,126758,5,0,0:0:0:0:
248,176,127099,1,0,0:0:0:0:
404,176,127440,1,0,0:0:0:0:
168,176,127667,2,0,B|32:176|32:176|284:176,1,360
100,176,128576,5,0,0:0:0:0:
264,176,128917,1,0,0:0:0:0:
108,176,129258,1,0,0:0:0:0:
344,176,129485,2,0,B|480:176|480:176|228:176,1,360
412,176,130394,5,0,0:0:0:0:
248,176,130735,1,0,0:0:0:0:
404,176,131076,1,0,0:0:0:0:
168,176,131303,2,0,B|32:176|32:176|284:176,1,360
100,176,132212,5,0,0:0:0:0:
264,176,132553,1,0,0:0:0:0:
108,176,132894,1,0,0:0:0:0:
344,176,133121,2,0,B|480:176|480:176|228:176,1,360
100,176,134031,5,0,0:0:0:0:
264,176,134372,1,0,0:0:0:0:
108,176,134713,1,0,0:0:0:0:
344,176,134940,2,0,B|480:176|480:176|228:176,1,360
412,176,135849,5,0,0:0:0:0:
248,176,136190,1,0,0:0:0:0:
404,176,136531,1,0,0:0:0:0:
168,176,136758,2,0,B|32:176|32:176|284:176,1,360
100,176,137667,5,0,0:0:0:0:
264,176,138008,1,0,0:0:0:0:
108,176,138349,1,0,0:0:0:0:
344,176,138576,2,0,B|480:176|480:176|228:176,1,360
412,176,139485,5,0,0:0:0:0:
248,176,139826,1,0,0:0:0:0:
404,176,140167,1,0,0:0:0:0:
168,176,140394,1,0,0:0:0:0:
272,176,140622,1,0,0:0:0:0:
36,176,140849,1,0,0:0:0:0:
116,176,141076,1,0,0:0:0:0:
412,176,141303,5,0,0:0:0:0:
248,176,141644,1,0,0:0:0:0:
404,176,141985,1,0,0:0:0:0:
168,176,142212,2,0,B|32:176|32:176|284:176,1,360
100,176,143121,5,0,0:0:0:0:
264,176,143462,1,0,0:0:0:0:
108,176,143803,1,0,0:0:0:0:
344,176,144030,2,0,B|480:176|480:176|228:176,1,360
412,176,144939,5,0,0:0:0:0:
248,176,145280,1,0,0:0:0:0:
404,176,145621,1,0,0:0:0:0:
168,176,145848,2,0,B|32:176|32:176|284:176,1,360
100,176,146757,5,0,0:0:0:0:
264,176,147098,1,0,0:0:0:0:
108,176,147439,1,0,0:0:0:0:
344,176,147666,2,0,B|480:176|480:176|228:176,1,360
100,176,148576,5,0,0:0:0:0:
264,176,148917,1,0,0:0:0:0:
108,176,149258,1,0,0:0:0:0:
344,176,149485,2,0,B|480:176|480:176|228:176,1,360
412,176,150394,5,0,0:0:0:0:
248,176,150735,1,0,0:0:0:0:
404,176,151076,1,0,0:0:0:0:
168,176,151303,2,0,B|32:176|32:176|284:176,1,360
100,176,152213,5,0,0:0:0:0:
264,176,152554,1,0,0:0:0:0:
108,176,152895,1,0,0:0:0:0:
344,176,153122,2,0,B|480:176|480:176|392:176,1,180
324,176,153576,5,0,0:0:0:0:
484,176,153803,1,0,0:0:0:0:
344,176,154031,1,0,0:0:0:0:
120,176,154258,1,0,0:0:0:0:
240,176,154713,1,0,0:0:0:0:
464,176,154940,1,0,0:0:0:0:
80,176,155394,1,0,0:0:0:0:
168,176,155622,1,0,0:0:0:0:
240,176,155735,1,0,0:0:0:0:
448,120,155849,6,0,L|352:208,3,120
64,120,156758,6,0,L|184:232,3,120
296,120,157667,6,0,L|184:184,3,120
480,120,158576,6,0,L|384:216,3,120
64,120,159485,6,0,L|160:208,3,120
448,120,160394,6,0,L|336:208,3,120
56,200,161303,6,0,L|151:125,3,120
360,296,162212,6,0,L|464:232,1,120
176,296,162667,2,0,L|64:216,1,120
448,120,163122,6,0,L|352:208,3,120
64,120,164031,6,0,L|184:232,3,120
296,120,164940,6,0,L|184:184,3,120
480,120,165849,6,0,L|384:216,3,120
64,120,166758,6,0,L|160:208,3,120
448,120,167667,6,0,L|336:208,3,120
56,200,168576,6,0,L|151:125,3,120
360,296,169485,6,0,L|464:232,1,120
176,296,169940,2,0,L|64:216,1,120
448,120,170394,6,0,L|352:208,3,120
64,120,171303,6,0,L|184:232,3,120
296,120,172212,6,0,L|184:184,3,120
480,120,173121,6,0,L|384:216,3,120
64,120,174030,6,0,L|160:208,3,120
448,120,174939,6,0,L|336:208,3,120
56,200,175848,6,0,L|151:125,3,120
360,296,176757,6,0,L|464:232,1,120
176,296,177212,2,0,L|64:216,1,120
448,120,177667,6,0,L|352:208,3,120
64,120,178576,6,0,L|184:232,3,120
296,120,179485,6,0,L|184:184,3,120
480,120,180394,6,0,L|384:216,3,120
64,120,181303,6,0,L|160:208,3,120
448,120,182212,6,0,L|336:208,1,120
64,120,182667,2,0,L|176:208,2,120
448,120,183349,6,0,L|336:208,2,120
152,296,184031,2,0,L|56:224,1,120
376,168,184485,5,0,0:0:0:0:
424,112,184599,1,0,0:0:0:0:
360,112,184713,1,0,0:0:0:0:
296,112,184826,1,0,0:0:0:0:
64,112,184940,1,0,0:0:0:0:
72,208,186757,5,0,0:0:0:0:
440,200,186984,1,0,0:0:0:0:
384,200,187439,5,0,0:0:0:0:
80,200,187666,1,0,0:0:0:0:
168,104,187893,1,0,0:0:0:0:
488,144,188121,1,0,0:0:0:0:
400,88,188348,1,0,0:0:0:0:
88,112,188575,6,0,P|16:208|184:280,1,360
472,128,189484,1,0,0:0:0:0:
256,152,189939,1,0,0:0:0:0:
64,152,190166,1,0,0:0:0:0:
376,184,190621,1,0,0:0:0:0:
128,200,191075,5,0,0:0:0:0:
432,200,191302,1,0,0:0:0:0:
344,104,191529,1,0,0:0:0:0:
24,144,191757,1,0,0:0:0:0:
112,88,191984,1,0,0:0:0:0:
424,112,192211,6,0,P|496:208|328:280,1,360
40,128,193120,1,0,0:0:0:0:
256,152,193575,1,0,0:0:0:0:
448,152,193802,1,0,0:0:0:0:
136,176,194257,1,0,0:0:0:0:
384,200,194712,5,0,0:0:0:0:
80,200,194939,1,0,0:0:0:0:
168,104,195166,1,0,0:0:0:0:
488,144,195394,1,0,0:0:0:0:
400,88,195621,1,0,0:0:0:0:
88,112,195848,6,0,P|16:208|184:280,1,360
472,128,196757,1,0,0:0:0:0:
256,152,197212,1,0,0:0:0:0:
64,152,197439,1,0,0:0:0:0:
376,216,197894,1,0,0:0:0:0:
128,200,198348,5,0,0:0:0:0:
432,200,198575,1,0,0:0:0:0:
344,104,198802,1,0,0:0:0:0:
24,144,199030,1,0,0:0:0:0:
112,88,199257,1,0,0:0:0:0:
424,112,199484,6,0,P|496:208|328:280,1,360
40,128,200393,1,0,0:0:0:0:
256,152,200848,1,0,0:0:0:0:
448,152,201075,1,0,0:0:0:0:
136,216,201530,1,0,0:0:0:0:
384,200,201984,5,0,0:0:0:0:
80,200,202211,1,0,0:0:0:0:
24,232,202325,1,0,0:0:0:0:
72,280,202439,1,0,0:0:0:0:
128,312,202552,1,0,0:0:0:0:
416,288,202666,1,0,0:0:0:0:
488,128,202893,1,0,0:0:0:0:
88,112,203121,6,0,P|16:208|184:280,1,360
472,128,204030,1,0,0:0:0:0:
256,152,204485,1,0,0:0:0:0:
64,152,204712,1,0,0:0:0:0:
376,224,205167,1,0,0:0:0:0:
128,200,205621,5,0,0:0:0:0:
432,200,205848,1,0,0:0:0:0:
344,104,206075,1,0,0:0:0:0:
24,144,206303,1,0,0:0:0:0:
112,88,206530,1,0,0:0:0:0:
424,112,206757,6,0,P|496:208|328:280,1,360
40,128,207666,1,0,0:0:0:0:
256,152,208121,1,0,0:0:0:0:
448,152,208348,1,0,0:0:0:0:
136,240,208803,1,0,0:0:0:0:
384,200,209258,5,0,0:0:0:0:
80,200,209485,1,0,0:0:0:0:
168,104,209712,1,0,0:0:0:0:
488,144,209940,1,0,0:0:0:0:
400,88,210167,1,0,0:0:0:0:
88,112,210394,6,0,P|16:208|184:280,1,360
472,128,211303,1,0,0:0:0:0:
248,152,211758,1,0,0:0:0:0:
104,152,211985,1,0,0:0:0:0:
408,144,212212,1,0,0:0:0:0:
408,144,212666,5,0,0:0:0:0:
104,152,212893,1,0,0:0:0:0:
240,152,213121,1,0,0:0:0:0:
104,152,213348,1,0,0:0:0:0:
408,144,213575,1,0,0:0:0:0:
480,144,213803,1,0,0:0:0:0:
48,144,214030,5,0,0:0:0:0:
176,144,214484,1,0,0:0:0:0:
480,144,214712,1,0,0:0:0:0:
408,144,215166,1,0,0:0:0:0:
32,136,215394,5,0,0:0:0:0:
408,144,216075,1,0,0:0:0:0:
336,144,216530,1,0,0:0:0:0:
32,144,216758,1,0,0:0:0:0:
256,192,217212,12,0,221303,0:0:0:0:
464,184,235848,6,0,L|336:240,2,120
176,184,236530,1,0,0:0:0:0:
48,184,237212,6,0,L|160:248,2,120
336,184,237894,1,0,0:0:0:0:
432,184,238348,1,0,0:0:0:0:
128,192,238575,2,0,P|80:176|56:104,1,120
368,96,239029,6,0,B|472:160|472:160|352:160|352:160|256:160|256:160|376:256|376:256|352:240|352:240|352:240,1,480
64,200,240393,1,0,0:0:0:0:
376,192,240848,1,0,0:0:0:0:
104,144,241303,5,0,0:0:0:0:
240,120,241530,1,0,0:0:0:0:
104,144,241757,1,0,0:0:0:0:
408,152,241984,1,0,0:0:0:0:
272,152,242212,1,0,0:0:0:0:
408,152,242439,1,0,0:0:0:0:
104,144,242666,5,0,0:0:0:0:
240,120,242893,1,0,0:0:0:0:
104,144,243120,1,0,0:0:0:0:
408,152,243348,1,0,0:0:0:0:
240,184,243575,1,0,0:0:0:0:
384,200,243803,5,0,0:0:0:0:
80,200,244030,1,0,0:0:0:0:
24,232,244144,1,0,0:0:0:0:
72,280,244258,1,0,0:0:0:0:
128,312,244371,1,0,0:0:0:0:
416,288,244485,1,0,0:0:0:0:
488,128,244712,1,0,0:0:0:0:
88,112,244939,6,0,P|16:208|184:280,1,360
472,128,245848,1,0,0:0:0:0:
256,152,246303,1,0,0:0:0:0:
64,152,246530,1,0,0:0:0:0:
376,184,246985,1,0,0:0:0:0:
128,200,247439,5,0,0:0:0:0:
432,200,247666,1,0,0:0:0:0:
344,104,247893,1,0,0:0:0:0:
24,144,248121,1,0,0:0:0:0:
112,88,248348,1,0,0:0:0:0:
424,112,248575,6,0,P|496:208|328:280,1,360
40,128,249484,1,0,0:0:0:0:
256,152,249939,1,0,0:0:0:0:
448,152,250166,1,0,0:0:0:0:
136,176,250621,1,0,0:0:0:0:
384,200,251076,5,0,0:0:0:0:
80,200,251303,1,0,0:0:0:0:
168,104,251530,1,0,0:0:0:0:
488,144,251758,1,0,0:0:0:0:
400,88,251985,1,0,0:0:0:0:
88,112,252212,6,0,P|16:208|184:280,1,360
472,128,253121,1,0,0:0:0:0:
256,152,253576,1,0,0:0:0:0:
64,152,253803,1,0,0:0:0:0:
376,216,254258,1,0,0:0:0:0:
128,200,254712,5,0,0:0:0:0:
432,200,254939,1,0,0:0:0:0:
344,104,255166,1,0,0:0:0:0:
24,144,255394,1,0,0:0:0:0:
112,88,255621,1,0,0:0:0:0:
424,112,255848,6,0,P|496:208|328:280,1,360
40,128,256757,1,0,0:0:0:0:
256,152,257212,1,0,0:0:0:0:
448,152,257439,1,0,0:0:0:0:
128,224,257894,1,0,0:0:0:0:
384,200,258348,5,0,0:0:0:0:
104,224,258575,1,0,0:0:0:0:
32,288,258803,1,0,0:0:0:0:
416,288,259030,1,0,0:0:0:0:
488,128,259257,1,0,0:0:0:0:
88,112,259485,6,0,P|16:208|184:280,1,360
472,128,260394,1,0,0:0:0:0:
256,152,260849,1,0,0:0:0:0:
64,152,261076,1,0,0:0:0:0:
376,224,261531,1,0,0:0:0:0:
128,200,261985,5,0,0:0:0:0:
432,200,262212,1,0,0:0:0:0:
344,104,262439,1,0,0:0:0:0:
24,144,262667,1,0,0:0:0:0:
112,88,262894,1,0,0:0:0:0:
424,112,263121,6,0,P|496:208|328:280,1,360
40,128,264030,1,0,0:0:0:0:
256,152,264485,1,0,0:0:0:0:
448,152,264712,1,0,0:0:0:0:
136,240,265167,1,0,0:0:0:0:
384,200,265622,5,0,0:0:0:0:
80,200,265849,1,0,0:0:0:0:
168,104,266076,1,0,0:0:0:0:
488,144,266304,1,0,0:0:0:0:
400,88,266531,1,0,0:0:0:0:
88,112,266758,6,0,P|16:208|184:280,1,360
472,128,267667,1,0,0:0:0:0:
256,152,268121,1,0,0:0:0:0:
64,152,268348,1,0,0:0:0:0:
376,224,268803,1,0,0:0:0:0:
128,200,269257,5,0,0:0:0:0:
432,200,269484,1,0,0:0:0:0:
344,104,269711,1,0,0:0:0:0:
24,144,269939,1,0,0:0:0:0:
112,88,270166,1,0,0:0:0:0:
424,112,270393,6,0,P|496:208|328:280,1,360
40,128,271303,1,0,0:0:0:0:
256,152,271757,1,0,0:0:0:0:
448,152,271984,1,0,0:0:0:0:
136,240,272439,1,0,0:0:0:0:
384,200,272894,5,0,0:0:0:0:
80,200,273121,1,0,0:0:0:0:
168,104,273348,1,0,0:0:0:0:
488,144,273576,1,0,0:0:0:0:
400,88,273803,1,0,0:0:0:0:
88,112,274030,6,0,P|16:208|184:280,1,360
472,128,274939,1,0,0:0:0:0:
256,152,275393,1,0,0:0:0:0:
64,152,275620,1,0,0:0:0:0:
376,224,276075,1,0,0:0:0:0:
128,200,276529,5,0,0:0:0:0:
432,200,276756,1,0,0:0:0:0:
344,104,276983,1,0,0:0:0:0:
24,144,277211,1,0,0:0:0:0:
112,88,277438,1,0,0:0:0:0:
424,112,277666,6,0,P|496:208|328:280,1,360
40,128,278576,1,0,0:0:0:0:
256,152,279030,1,0,0:0:0:0:
448,152,279257,1,0,0:0:0:0:
136,240,279712,1,0,0:0:0:0:
384,200,280166,5,0,0:0:0:0:
80,200,280393,1,0,0:0:0:0:
168,104,280620,1,0,0:0:0:0:
488,144,280848,1,0,0:0:0:0:
400,88,281075,1,0,0:0:0:0:
88,112,281302,6,0,P|16:208|184:280,1,360
472,128,282211,1,0,0:0:0:0:
248,152,282666,1,0,0:0:0:0:
104,152,282893,1,0,0:0:0:0:
408,144,283121,5,0,0:0:0:0:
272,120,283347,1,0,0:0:0:0:
408,144,283574,1,0,0:0:0:0:
104,152,283801,1,0,0:0:0:0:
240,152,284029,1,0,0:0:0:0:
104,152,284256,1,0,0:0:0:0:
408,144,284483,1,0,0:0:0:0:
504,112,284712,1,0,0:0:0:0:
48,208,284939,5,0,0:0:0:0:
152,152,285167,1,0,0:0:0:0:
204,128,285280,1,0,0:0:0:0:
256,112,285394,1,0,0:0:0:0:
360,64,285621,1,0,0:0:0:0:
116,84,285849,5,0,0:0:0:0:
256,112,286076,1,0,0:0:0:0:
116,84,286303,1,0,0:0:0:0:
360,64,286530,1,0,0:0:0:0:
464,208,286758,5,0,0:0:0:0:
360,152,286986,1,0,0:0:0:0:
308,128,287099,1,0,0:0:0:0:
256,112,287213,1,0,0:0:0:0:
152,64,287440,1,0,0:0:0:0:
396,84,287668,5,0,0:0:0:0:
256,112,287895,1,0,0:0:0:0:
396,84,288122,1,0,0:0:0:0:
152,64,288349,1,0,0:0:0:0:
48,208,288576,5,0,0:0:0:0:
152,152,288804,1,0,0:0:0:0:
204,132,288917,1,0,0:0:0:0:
256,112,289031,1,0,0:0:0:0:
360,64,289258,1,0,0:0:0:0:
116,84,289486,5,0,0:0:0:0:
256,112,289713,1,0,0:0:0:0:
116,84,289940,1,0,0:0:0:0:
360,64,290167,1,0,0:0:0:0:
464,208,290395,5,0,0:0:0:0:
360,152,290623,1,0,0:0:0:0:
308,128,290735,1,0,0:0:0:0:
256,112,290850,1,0,0:0:0:0:
152,64,291077,1,0,0:0:0:0:
396,84,291305,5,0,0:0:0:0:
256,112,291532,1,0,0:0:0:0:
396,84,291759,1,0,0:0:0:0:
152,64,291986,1,0,0:0:0:0:
464,208,292212,5,0,0:0:0:0:
360,152,292440,1,0,0:0:0:0:
308,136,292553,1,0,0:0:0:0:
256,112,292667,1,0,0:0:0:0:
152,64,292894,1,0,0:0:0:0:
396,84,293122,5,0,0:0:0:0:
256,112,293349,1,0,0:0:0:0:
396,84,293576,1,0,0:0:0:0:
152,64,293803,1,0,0:0:0:0:
48,208,294031,5,0,0:0:0:0:
152,152,294259,1,0,0:0:0:0:
204,132,294371,1,0,0:0:0:0:
256,112,294486,1,0,0:0:0:0:
360,64,294713,1,0,0:0:0:0:
116,84,294941,5,0,0:0:0:0:
256,112,295168,1,0,0:0:0:0:
116,84,295395,1,0,0:0:0:0:
360,64,295622,1,0,0:0:0:0:
464,208,295849,5,0,0:0:0:0:
360,152,296077,1,0,0:0:0:0:
308,136,296190,1,0,0:0:0:0:
256,112,296304,1,0,0:0:0:0:
152,64,296531,1,0,0:0:0:0:
396,84,296759,5,0,0:0:0:0:
256,112,296986,1,0,0:0:0:0:
396,84,297213,1,0,0:0:0:0:
152,64,297440,1,0,0:0:0:0:
48,208,297668,5,0,0:0:0:0:
152,152,297896,1,0,0:0:0:0:
204,128,298008,1,0,0:0:0:0:
256,112,298123,1,0,0:0:0:0:
360,64,298350,1,0,0:0:0:0:
116,84,298578,5,0,0:0:0:0:
256,112,298805,1,0,0:0:0:0:
116,84,299032,1,0,0:0:0:0:
360,64,299257,1,0,0:0:0:0:
256,192,299484,12,0,310393,2:2:0:0:
