osu file format v14

[General]
AudioFilename: Tekanan Batin!!!.mp3
AudioLeadIn: 0
PreviewTime: 187212
Countdown: 0
SampleSet: Normal
StackLeniency: 0.7
Mode: 1
LetterboxInBreaks: 0
WidescreenStoryboard: 0

[Editor]
DistanceSpacing: 0.8
BeatDivisor: 4
GridSize: 32
TimelineZoom: 3.500004

[Metadata]
Title:Diary Depresiku
TitleUnicode:Diary Depresiku
Artist:Last Child
ArtistUnicode:Last Child
Creator:Surono
Version:Nishizumi's Bundir Oni
Source:
Tags:bahasa indonesia indonesian pop rock we are everything grow up Nishizumi Volta Grim Rapper Eraser
BeatmapID:1226393
BeatmapSetID:350305

[Difficulty]
HPDrainRate:6.9
CircleSize:6.9
OverallDifficulty:10
ApproachRate:6.9
SliderMultiplier:0.4
SliderTickRate:6.9

[Events]
//Background and Video events
0,0,"BG.jpg",0,0
//Break Periods
//Storyboard Layer 0 (Background)
//Storyboard Layer 1 (Fail)
//Storyboard Layer 2 (Pass)
//Storyboard Layer 3 (Foreground)
//Storyboard Sound Samples

[TimingPoints]
3181,86.095566078347,4,1,0,100,1,0
3181,-100,4,1,0,90,0,1
10394,86.095566078347,4,1,0,100,1,0
83149,-1,4,1,0,100,0,1
84939,-100,4,1,0,100,0,0
86757,-100,4,1,0,90,0,1
112212,-100,4,1,0,90,0,0
184967,-1,4,1,0,100,0,1
186757,-100,4,1,0,100,0,0
188575,-100,4,1,0,90,0,1
214030,-100,4,1,0,90,0,0
244939,-100,4,1,0,90,0,1
292212,-100,4,1,0,75,0,0
294030,-100,4,1,0,70,0,0
295848,-100,4,1,0,65,0,0
297666,-100,4,1,0,60,0,0
299484,-100,4,1,0,55,0,0
301303,-100,4,1,0,50,0,0
303121,-100,4,1,0,45,0,0
304939,-100,4,1,0,40,0,0
306757,-100,4,1,0,30,0,0
308575,-100,4,1,0,20,0,0
310394,-100,4,1,0,10,0,0

[HitObjects]
256,192,10394,5,4,0:0:0:0:
256,192,10734,1,4,0:0:0:0:
256,192,11075,1,4,0:0:0:0:
256,192,11303,1,8,0:0:0:0:
256,192,11757,1,0,0:0:0:0:
256,192,11984,1,8,0:0:0:0:
256,192,12212,1,4,0:0:0:0:
256,192,12553,1,4,0:0:0:0:
256,192,12894,1,4,0:0:0:0:
256,192,13121,1,8,0:0:0:0:
256,192,13575,1,0,0:0:0:0:
256,192,13803,1,8,0:0:0:0:
256,192,14030,1,4,0:0:0:0:
256,192,14371,1,4,0:0:0:0:
256,192,14712,1,4,0:0:0:0:
256,192,14939,1,8,0:0:0:0:
256,192,15394,1,0,0:0:0:0:
256,192,15621,1,8,0:0:0:0:
256,192,15848,1,4,0:0:0:0:
256,192,16189,1,4,0:0:0:0:
256,192,16530,1,4,0:0:0:0:
256,192,16757,1,8,0:0:0:0:
256,192,17212,1,0,0:0:0:0:
256,192,17666,5,4,0:0:0:0:
256,192,18007,1,4,0:0:0:0:
256,192,18348,1,4,0:0:0:0:
256,192,18576,1,8,0:0:0:0:
256,192,19030,1,0,0:0:0:0:
256,192,19257,1,8,0:0:0:0:
256,192,19485,1,4,0:0:0:0:
256,192,19826,1,4,0:0:0:0:
256,192,20167,1,4,0:0:0:0:
256,192,20394,1,8,0:0:0:0:
256,192,20848,1,0,0:0:0:0:
256,192,21076,1,8,0:0:0:0:
256,192,21303,1,4,0:0:0:0:
256,192,21644,1,4,0:0:0:0:
256,192,21985,1,4,0:0:0:0:
256,192,22212,1,8,0:0:0:0:
256,192,22667,1,0,0:0:0:0:
256,192,22894,1,8,0:0:0:0:
256,192,23121,1,4,0:0:0:0:
256,192,23462,5,4,0:0:0:0:
256,192,23803,1,4,0:0:0:0:
256,192,24030,1,8,0:0:0:0:
256,192,24484,1,8,0:0:0:0:
256,192,24939,5,4,0:0:0:0:
256,192,25280,1,4,0:0:0:0:
256,192,25621,1,4,0:0:0:0:
256,192,25848,1,8,0:0:0:0:
256,192,26303,1,8,0:0:0:0:
256,192,26757,1,4,0:0:0:0:
256,192,27098,1,4,0:0:0:0:
256,192,27439,1,4,0:0:0:0:
256,192,27666,1,8,0:0:0:0:
256,192,28121,1,8,0:0:0:0:
256,192,28575,1,4,0:0:0:0:
256,192,28916,1,4,0:0:0:0:
256,192,29257,1,4,0:0:0:0:
256,192,29484,1,8,0:0:0:0:
256,192,29939,1,8,0:0:0:0:
256,192,30394,1,4,0:0:0:0:
256,192,30735,1,4,0:0:0:0:
256,192,31076,1,4,0:0:0:0:
256,192,31303,1,8,0:0:0:0:
256,192,31758,1,8,0:0:0:0:
256,192,32212,1,4,0:0:0:0:
256,192,32553,1,4,0:0:0:0:
256,192,32894,1,4,0:0:0:0:
256,192,33121,1,8,0:0:0:0:
256,192,33576,1,8,0:0:0:0:
256,192,34030,1,4,0:0:0:0:
256,192,34371,1,4,0:0:0:0:
256,192,34712,1,4,0:0:0:0:
256,192,34939,1,8,0:0:0:0:
256,192,35394,1,8,0:0:0:0:
256,192,35848,1,4,0:0:0:0:
256,192,36189,1,4,0:0:0:0:
256,192,36530,1,4,0:0:0:0:
256,192,36757,1,8,0:0:0:0:
256,192,37212,1,8,0:0:0:0:
256,192,37666,1,4,0:0:0:0:
256,192,38007,1,4,0:0:0:0:
256,192,38348,1,4,0:0:0:0:
256,192,38575,1,8,0:0:0:0:
256,192,38803,1,0,0:0:0:0:
256,192,39030,1,8,0:0:0:0:
256,192,39257,1,0,0:0:0:0:
256,192,39484,1,4,0:0:0:0:
256,192,39825,1,4,0:0:0:0:
256,192,40166,1,4,0:0:0:0:
256,192,40393,1,8,0:0:0:0:
256,192,40848,1,8,0:0:0:0:
256,192,41303,1,4,0:0:0:0:
256,192,41644,1,4,0:0:0:0:
256,192,41985,1,4,0:0:0:0:
256,192,42212,1,8,0:0:0:0:
256,192,42667,1,8,0:0:0:0:
256,192,43121,1,4,0:0:0:0:
256,192,43462,1,4,0:0:0:0:
256,192,43803,1,4,0:0:0:0:
256,192,44030,1,8,0:0:0:0:
256,192,44485,1,8,0:0:0:0:
256,192,44939,1,4,0:0:0:0:
256,192,45280,1,4,0:0:0:0:
256,192,45621,1,4,0:0:0:0:
256,192,45848,1,8,0:0:0:0:
256,192,46303,1,8,0:0:0:0:
256,192,46757,1,4,0:0:0:0:
256,192,47098,1,4,0:0:0:0:
256,192,47439,1,4,0:0:0:0:
256,192,47666,1,8,0:0:0:0:
256,192,48121,1,8,0:0:0:0:
256,192,48575,1,4,0:0:0:0:
256,192,48916,1,4,0:0:0:0:
256,192,49257,1,4,0:0:0:0:
256,192,49484,1,8,0:0:0:0:
256,192,49939,1,8,0:0:0:0:
256,192,50394,1,4,0:0:0:0:
256,192,50735,1,4,0:0:0:0:
256,192,51076,1,4,0:0:0:0:
256,192,51303,1,8,0:0:0:0:
256,192,51758,1,8,0:0:0:0:
256,192,51984,1,0,0:0:0:0:
256,192,52212,1,0,0:0:0:0:
256,192,52439,1,8,0:0:0:0:
256,192,52666,1,0,0:0:0:0:
256,192,52894,1,0,0:0:0:0:
256,192,53121,1,8,0:0:0:0:
256,192,53575,1,8,0:0:0:0:
256,192,53803,1,8,0:0:0:0:
256,192,53916,1,8,0:0:0:0:
256,192,54030,1,0,0:0:0:0:
256,192,54087,1,0,0:0:0:0:
256,192,54257,1,0,0:0:0:0:
256,192,54314,1,0,0:0:0:0:
256,192,54484,1,0,0:0:0:0:
256,192,54541,1,0,0:0:0:0:
256,192,54712,1,0,0:0:0:0:
256,192,54769,1,0,0:0:0:0:
256,192,54939,1,8,0:0:0:0:
256,192,54996,1,8,0:0:0:0:
256,192,55166,1,0,0:0:0:0:
256,192,55223,1,0,0:0:0:0:
256,192,55394,1,8,0:0:0:0:
256,192,55450,1,8,0:0:0:0:
256,192,55621,1,0,0:0:0:0:
256,192,55678,1,0,0:0:0:0:
256,192,55848,1,0,0:0:0:0:
256,192,55905,1,0,0:0:0:0:
256,192,56075,1,0,0:0:0:0:
256,192,56132,1,0,0:0:0:0:
256,192,56303,1,0,0:0:0:0:
256,192,56359,1,0,0:0:0:0:
256,192,56530,1,0,0:0:0:0:
256,192,56587,1,0,0:0:0:0:
256,192,56757,1,8,0:0:0:0:
256,192,56814,1,8,0:0:0:0:
256,192,56984,1,0,0:0:0:0:
256,192,57041,1,0,0:0:0:0:
256,192,57212,1,8,0:0:0:0:
256,192,57269,1,8,0:0:0:0:
256,192,57439,1,8,0:0:0:0:
256,192,57496,1,8,0:0:0:0:
256,192,57666,1,0,0:0:0:0:
256,192,57723,1,0,0:0:0:0:
256,192,57894,1,0,0:0:0:0:
256,192,57950,1,0,0:0:0:0:
256,192,58121,1,0,0:0:0:0:
256,192,58178,1,0,0:0:0:0:
256,192,58348,1,0,0:0:0:0:
256,192,58405,1,0,0:0:0:0:
256,192,58575,1,8,0:0:0:0:
256,192,58632,1,8,0:0:0:0:
256,192,58803,1,0,0:0:0:0:
256,192,58859,1,0,0:0:0:0:
256,192,59030,1,0,0:0:0:0:
256,192,59087,1,0,0:0:0:0:
256,192,59257,1,8,0:0:0:0:
256,192,59314,1,8,0:0:0:0:
256,192,59484,1,0,0:0:0:0:
256,192,59541,1,0,0:0:0:0:
256,192,59712,1,0,0:0:0:0:
256,192,59769,1,0,0:0:0:0:
256,192,59939,1,0,0:0:0:0:
256,192,59996,1,0,0:0:0:0:
256,192,60166,1,0,0:0:0:0:
256,192,60223,1,0,0:0:0:0:
256,192,60394,1,8,0:0:0:0:
256,192,60450,1,8,0:0:0:0:
256,192,60621,1,0,0:0:0:0:
256,192,60678,1,0,0:0:0:0:
256,192,60848,1,8,0:0:0:0:
256,192,60905,1,8,0:0:0:0:
256,192,61075,1,8,0:0:0:0:
256,192,61132,1,8,0:0:0:0:
256,192,61303,1,0,0:0:0:0:
256,192,61359,1,0,0:0:0:0:
256,192,61530,1,0,0:0:0:0:
256,192,61587,1,0,0:0:0:0:
256,192,61757,1,0,0:0:0:0:
256,192,61814,1,0,0:0:0:0:
256,192,61984,1,0,0:0:0:0:
256,192,62041,1,0,0:0:0:0:
256,192,62212,1,8,0:0:0:0:
256,192,62269,1,8,0:0:0:0:
256,192,62439,1,0,0:0:0:0:
256,192,62496,1,0,0:0:0:0:
256,192,62666,1,8,0:0:0:0:
256,192,62723,1,8,0:0:0:0:
256,192,62894,1,0,0:0:0:0:
256,192,62950,1,0,0:0:0:0:
256,192,63121,1,0,0:0:0:0:
256,192,63178,1,0,0:0:0:0:
256,192,63348,1,0,0:0:0:0:
256,192,63405,1,0,0:0:0:0:
256,192,63575,1,0,0:0:0:0:
256,192,63632,1,0,0:0:0:0:
256,192,63803,1,0,0:0:0:0:
256,192,63859,1,0,0:0:0:0:
256,192,64030,1,8,0:0:0:0:
256,192,64087,1,8,0:0:0:0:
256,192,64257,1,0,0:0:0:0:
256,192,64314,1,0,0:0:0:0:
256,192,64484,1,8,0:0:0:0:
256,192,64541,1,8,0:0:0:0:
256,192,64712,1,8,0:0:0:0:
256,192,64769,1,8,0:0:0:0:
256,192,64939,1,0,0:0:0:0:
256,192,64996,1,0,0:0:0:0:
256,192,65166,1,0,0:0:0:0:
256,192,65223,1,0,0:0:0:0:
256,192,65394,1,0,0:0:0:0:
256,192,65450,1,0,0:0:0:0:
256,192,65621,1,0,0:0:0:0:
256,192,65678,1,0,0:0:0:0:
256,192,65848,1,8,0:0:0:0:
256,192,65905,1,8,0:0:0:0:
256,192,66075,1,0,0:0:0:0:
256,192,66132,1,0,0:0:0:0:
256,192,66303,1,0,0:0:0:0:
256,192,66359,1,0,0:0:0:0:
256,192,66530,1,8,0:0:0:0:
256,192,66587,1,8,0:0:0:0:
256,192,66757,1,0,0:0:0:0:
256,192,66814,1,0,0:0:0:0:
256,192,66984,1,0,0:0:0:0:
256,192,67041,1,0,0:0:0:0:
256,192,67212,1,0,0:0:0:0:
256,192,67269,1,0,0:0:0:0:
256,192,67439,1,0,0:0:0:0:
256,192,67496,1,0,0:0:0:0:
256,192,67666,1,8,0:0:0:0:
256,192,67723,1,8,0:0:0:0:
256,192,67894,1,0,0:0:0:0:
256,192,67950,1,0,0:0:0:0:
256,192,68121,1,8,0:0:0:0:
256,192,68178,1,8,0:0:0:0:
256,192,68348,1,8,0:0:0:0:
256,192,68405,1,8,0:0:0:0:
256,192,68575,1,0,0:0:0:0:
256,192,68632,1,0,0:0:0:0:
256,192,68802,1,0,0:0:0:0:
256,192,68859,1,0,0:0:0:0:
256,192,69029,1,0,0:0:0:0:
256,192,69086,1,0,0:0:0:0:
256,192,69257,1,0,0:0:0:0:
256,192,69314,1,0,0:0:0:0:
256,192,69484,1,8,0:0:0:0:
256,192,69541,1,8,0:0:0:0:
256,192,69711,1,0,0:0:0:0:
256,192,69768,1,0,0:0:0:0:
256,192,69939,1,8,0:0:0:0:
256,192,69996,1,8,0:0:0:0:
256,192,70167,1,0,0:0:0:0:
256,192,70223,1,0,0:0:0:0:
256,192,70393,1,0,0:0:0:0:
256,192,70450,1,0,0:0:0:0:
256,192,70620,1,0,0:0:0:0:
256,192,70677,1,0,0:0:0:0:
256,192,70848,1,0,0:0:0:0:
256,192,70904,1,0,0:0:0:0:
256,192,71075,1,0,0:0:0:0:
256,192,71132,1,0,0:0:0:0:
256,192,71302,1,8,0:0:0:0:
256,192,71359,1,8,0:0:0:0:
256,192,71529,1,0,0:0:0:0:
256,192,71586,1,0,0:0:0:0:
256,192,71757,1,8,0:0:0:0:
256,192,71814,1,8,0:0:0:0:
256,192,71984,1,8,0:0:0:0:
256,192,72041,1,8,0:0:0:0:
256,192,72211,1,0,0:0:0:0:
256,192,72268,1,0,0:0:0:0:
256,192,72439,1,0,0:0:0:0:
256,192,72495,1,0,0:0:0:0:
256,192,72666,1,0,0:0:0:0:
256,192,72723,1,0,0:0:0:0:
256,192,72893,1,0,0:0:0:0:
256,192,72950,1,0,0:0:0:0:
256,192,73120,1,8,0:0:0:0:
256,192,73177,1,8,0:0:0:0:
256,192,73348,1,0,0:0:0:0:
256,192,73405,1,0,0:0:0:0:
256,192,73576,1,0,0:0:0:0:
256,192,73632,1,0,0:0:0:0:
256,192,73802,1,8,0:0:0:0:
256,192,73859,1,8,0:0:0:0:
256,192,74029,1,0,0:0:0:0:
256,192,74086,1,0,0:0:0:0:
256,192,74257,1,0,0:0:0:0:
256,192,74314,1,0,0:0:0:0:
256,192,74484,1,0,0:0:0:0:
256,192,74541,1,0,0:0:0:0:
256,192,74711,1,0,0:0:0:0:
256,192,74768,1,0,0:0:0:0:
256,192,74939,1,8,0:0:0:0:
256,192,74995,1,8,0:0:0:0:
256,192,75166,1,0,0:0:0:0:
256,192,75223,1,0,0:0:0:0:
256,192,75393,1,8,0:0:0:0:
256,192,75450,1,8,0:0:0:0:
256,192,75620,1,8,0:0:0:0:
256,192,75677,1,8,0:0:0:0:
256,192,75848,1,0,0:0:0:0:
256,192,75904,1,0,0:0:0:0:
256,192,76075,1,0,0:0:0:0:
256,192,76132,1,0,0:0:0:0:
256,192,76302,1,0,0:0:0:0:
256,192,76359,1,0,0:0:0:0:
256,192,76529,1,0,0:0:0:0:
256,192,76586,1,0,0:0:0:0:
256,192,76757,1,8,0:0:0:0:
256,192,76814,1,8,0:0:0:0:
256,192,76984,1,0,0:0:0:0:
256,192,77041,1,0,0:0:0:0:
256,192,77211,1,8,0:0:0:0:
256,192,77268,1,8,0:0:0:0:
256,192,77439,1,0,0:0:0:0:
256,192,77495,1,0,0:0:0:0:
256,192,77666,1,0,0:0:0:0:
256,192,77723,1,0,0:0:0:0:
256,192,77893,1,0,0:0:0:0:
256,192,77950,1,0,0:0:0:0:
256,192,78120,1,0,0:0:0:0:
256,192,78177,1,0,0:0:0:0:
256,192,78348,1,0,0:0:0:0:
256,192,78404,1,0,0:0:0:0:
256,192,78575,1,8,0:0:0:0:
256,192,78632,1,8,0:0:0:0:
256,192,78803,1,0,0:0:0:0:
256,192,78859,1,0,0:0:0:0:
256,192,79030,1,8,0:0:0:0:
256,192,79087,1,8,0:0:0:0:
256,192,79257,1,8,0:0:0:0:
256,192,79314,1,8,0:0:0:0:
256,192,79484,1,0,0:0:0:0:
256,192,79541,1,0,0:0:0:0:
256,192,79712,1,0,0:0:0:0:
256,192,79769,1,0,0:0:0:0:
256,192,79939,1,0,0:0:0:0:
256,192,79996,1,0,0:0:0:0:
256,192,80166,1,0,0:0:0:0:
256,192,80223,1,0,0:0:0:0:
256,192,80394,1,8,0:0:0:0:
256,192,80450,1,8,0:0:0:0:
256,192,80621,1,0,0:0:0:0:
256,192,80678,1,0,0:0:0:0:
256,192,80848,1,8,0:0:0:0:
256,192,80905,1,8,0:0:0:0:
256,192,81075,1,0,0:0:0:0:
256,192,81132,1,0,0:0:0:0:
256,192,81303,1,0,0:0:0:0:
256,192,81359,1,0,0:0:0:0:
256,192,81530,1,8,0:0:0:0:
256,192,81587,1,8,0:0:0:0:
256,192,81757,1,0,0:0:0:0:
256,192,81814,1,0,0:0:0:0:
256,192,81984,1,0,0:0:0:0:
256,192,82040,1,0,0:0:0:0:
256,192,82212,1,8,0:0:0:0:
256,192,82269,1,8,0:0:0:0:
256,192,82439,1,0,0:0:0:0:
256,192,82496,1,0,0:0:0:0:
256,192,82666,1,8,0:0:0:0:
256,192,82723,1,8,0:0:0:0:
256,192,82894,1,8,0:0:0:0:
256,192,82950,1,8,0:0:0:0:
256,192,83121,1,4,0:0:0:0:
101,101,83149,2,4,L|112:102,1,8.75000003725287
101,101,83178,2,4,L|112:102,1,8.75000003725287
101,101,83206,2,4,L|112:102,1,8.75000003725287
101,101,83207,2,4,L|112:102,1,8.75000003725287
101,101,83234,2,4,L|112:102,1,8.75000003725287
101,101,83235,2,4,L|112:102,1,8.75000003725287
101,101,83263,2,4,L|112:102,1,8.75000003725287
101,101,83291,2,4,L|112:102,1,8.75000003725287
101,101,83292,2,4,L|112:102,1,8.75000003725287
101,101,83319,2,4,L|112:102,1,8.75000003725287
101,101,83320,2,4,L|112:102,1,8.75000003725287
101,101,83348,2,4,L|112:102,1,8.75000003725287
101,101,83349,2,4,L|112:102,1,8.75000003725287
101,101,83376,2,4,L|112:102,1,8.75000003725287
101,101,83377,2,4,L|112:102,1,8.75000003725287
101,101,83405,2,4,L|112:102,1,8.75000003725287
101,101,83433,2,4,L|112:102,1,8.75000003725287
101,101,83434,2,4,L|112:102,1,8.75000003725287
101,101,83461,2,4,L|112:102,1,8.75000003725287
101,101,83462,2,4,L|112:102,1,8.75000003725287
101,101,83490,2,4,L|112:102,1,8.75000003725287
101,101,83491,2,4,L|112:102,1,8.75000003725287
101,101,83518,2,4,L|112:102,1,8.75000003725287
101,101,83519,2,4,L|112:102,1,8.75000003725287
101,101,83547,2,4,L|112:102,1,8.75000003725287
101,101,83548,2,4,L|112:102,1,8.75000003725287
101,101,83575,2,4,L|112:102,1,8.75000003725287
101,101,83576,2,4,L|112:102,1,8.75000003725287
101,101,83603,2,4,L|112:102,1,8.75000003725287
101,101,83604,2,4,L|112:102,1,8.75000003725287
101,101,83632,2,4,L|112:102,1,8.75000003725287
101,101,83633,2,4,L|112:102,1,8.75000003725287
101,101,83660,2,4,L|112:102,1,8.75000003725287
101,101,83661,2,4,L|112:102,1,8.75000003725287
101,101,83689,2,4,L|112:102,1,8.75000003725287
101,101,83690,2,4,L|112:102,1,8.75000003725287
101,101,83717,2,4,L|112:102,1,8.75000003725287
101,101,83718,2,4,L|112:102,1,8.75000003725287
101,101,83746,2,4,L|112:102,1,8.75000003725287
101,101,83774,2,4,L|112:102,1,8.75000003725287
101,101,83775,2,4,L|112:102,1,8.75000003725287
101,101,83802,2,4,L|112:102,1,8.75000003725287
101,101,83803,2,4,L|112:102,1,8.75000003725287
101,101,83831,2,4,L|112:102,1,8.75000003725287
101,101,83832,2,4,L|112:102,1,8.75000003725287
101,101,83859,2,4,L|112:102,1,8.75000003725287
101,101,83860,2,4,L|112:102,1,8.75000003725287
101,101,83888,2,4,L|112:102,1,8.75000003725287
101,101,83916,2,4,L|112:102,1,8.75000003725287
101,101,83917,2,4,L|112:102,1,8.75000003725287
101,101,83944,2,4,L|112:102,1,8.75000003725287
101,101,83945,2,4,L|112:102,1,8.75000003725287
101,101,83973,2,4,L|112:102,1,8.75000003725287
101,101,83974,2,4,L|112:102,1,8.75000003725287
101,101,84001,2,4,L|112:102,1,8.75000003725287
101,101,84002,2,4,L|112:102,1,8.75000003725287
101,101,84030,2,4,L|112:102,1,8.75000003725287
101,101,84058,2,4,L|112:102,1,8.75000003725287
101,101,84059,2,4,L|112:102,1,8.75000003725287
101,101,84086,2,4,L|112:102,1,8.75000003725287
101,101,84087,2,4,L|112:102,1,8.75000003725287
101,101,84115,2,4,L|112:102,1,8.75000003725287
101,101,84116,2,4,L|112:102,1,8.75000003725287
101,101,84143,2,4,L|112:102,1,8.75000003725287
101,101,84144,2,4,L|112:102,1,8.75000003725287
101,101,84172,2,4,L|112:102,1,8.75000003725287
101,101,84173,2,4,L|112:102,1,8.75000003725287
101,101,84200,2,4,L|112:102,1,8.75000003725287
101,101,84201,2,4,L|112:102,1,8.75000003725287
101,101,84228,2,4,L|112:102,1,8.75000003725287
101,101,84229,2,4,L|112:102,1,8.75000003725287
101,101,84257,2,4,L|112:102,1,8.75000003725287
101,101,84258,2,4,L|112:102,1,8.75000003725287
101,101,84285,2,4,L|112:102,1,8.75000003725287
101,101,84286,2,4,L|112:102,1,8.75000003725287
101,101,84314,2,4,L|112:102,1,8.75000003725287
101,101,84315,2,4,L|112:102,1,8.75000003725287
101,101,84342,2,4,L|112:102,1,8.75000003725287
101,101,84343,2,4,L|112:102,1,8.75000003725287
101,101,84371,2,4,L|112:102,1,8.75000003725287
101,101,84399,2,4,L|112:102,1,8.75000003725287
101,101,84400,2,4,L|112:102,1,8.75000003725287
101,101,84427,2,4,L|112:102,1,8.75000003725287
101,101,84428,2,4,L|112:102,1,8.75000003725287
101,101,84456,2,4,L|112:102,1,8.75000003725287
101,101,84457,2,4,L|112:102,1,8.75000003725287
101,101,84484,2,4,L|112:102,1,8.75000003725287
101,101,84485,2,4,L|112:102,1,8.75000003725287
101,101,84513,2,4,L|112:102,1,8.75000003725287
101,101,84541,2,4,L|112:102,1,8.75000003725287
101,101,84542,2,4,L|112:102,1,8.75000003725287
101,101,84569,2,4,L|112:102,1,8.75000003725287
101,101,84570,2,4,L|112:102,1,8.75000003725287
101,101,84598,2,4,L|112:102,1,8.75000003725287
101,101,84599,2,4,L|112:102,1,8.75000003725287
101,101,84626,2,4,L|112:102,1,8.75000003725287
101,101,84627,2,4,L|112:102,1,8.75000003725287
101,101,84655,2,4,L|112:102,1,8.75000003725287
101,101,84683,2,4,L|112:102,1,8.75000003725287
101,101,84684,2,4,L|112:102,1,8.75000003725287
101,101,84711,2,4,L|112:102,1,8.75000003725287
101,101,84712,2,4,L|112:102,1,8.75000003725287
101,101,84740,2,4,L|112:102,1,8.75000003725287
101,101,84741,2,4,L|112:102,1,8.75000003725287
101,101,84768,2,4,L|112:102,1,8.75000003725287
101,101,84769,2,4,L|112:102,1,8.75000003725287
101,101,84797,2,4,L|112:102,1,8.75000003725287
101,101,84825,2,4,L|112:102,1,8.75000003725287
101,101,84826,2,4,L|112:102,1,8.75000003725287
101,101,84853,2,4,L|112:102,1,8.75000003725287
101,101,84854,2,4,L|112:102,1,8.75000003725287
101,101,84882,2,4,L|112:102,1,8.75000003725287
256,192,84939,5,12,0:0:0:0:
256,192,85166,1,12,0:0:0:0:
256,192,85621,1,0,0:0:0:0:
256,192,85848,1,8,0:0:0:0:
256,192,86075,1,0,0:0:0:0:
256,192,86303,1,8,0:0:0:0:
256,192,86530,1,0,0:0:0:0:
256,192,86757,1,4,0:0:0:0:
256,192,87439,1,0,0:0:0:0:
256,192,87666,1,8,0:0:0:0:
256,192,88121,1,0,0:0:0:0:
256,192,88348,1,0,0:0:0:0:
256,192,88803,1,8,0:0:0:0:
256,192,89257,1,0,0:0:0:0:
256,192,89484,1,8,0:0:0:0:
256,192,90166,1,0,0:0:0:0:
256,192,90394,1,0,0:0:0:0:
256,192,91075,1,0,0:0:0:0:
256,192,91303,1,8,0:0:0:0:
256,192,91757,1,0,0:0:0:0:
256,192,91984,1,0,0:0:0:0:
256,192,92439,1,8,0:0:0:0:
256,192,92894,1,0,0:0:0:0:
256,192,93121,1,8,0:0:0:0:
256,192,93803,1,0,0:0:0:0:
256,192,94030,1,0,0:0:0:0:
256,192,94712,1,0,0:0:0:0:
256,192,94939,1,8,0:0:0:0:
256,192,95394,1,0,0:0:0:0:
256,192,95621,1,0,0:0:0:0:
256,192,96075,1,8,0:0:0:0:
256,192,96530,1,0,0:0:0:0:
256,192,96757,1,8,0:0:0:0:
256,192,97439,1,0,0:0:0:0:
256,192,97666,1,0,0:0:0:0:
256,192,98348,1,0,0:0:0:0:
256,192,98575,1,8,0:0:0:0:
256,192,99030,1,0,0:0:0:0:
256,192,99257,1,0,0:0:0:0:
256,192,99712,1,8,0:0:0:0:
256,192,99939,1,0,0:0:0:0:
256,192,100166,1,0,0:0:0:0:
256,192,100394,1,8,0:0:0:0:
256,192,100507,1,0,0:0:0:0:
256,192,100621,1,0,0:0:0:0:
256,192,100734,1,0,0:0:0:0:
256,192,100848,1,8,0:0:0:0:
256,192,101075,1,0,0:0:0:0:
256,192,101303,1,4,0:0:0:0:
256,192,101984,1,0,0:0:0:0:
256,192,102212,1,8,0:0:0:0:
256,192,102666,1,0,0:0:0:0:
256,192,102894,1,0,0:0:0:0:
256,192,103348,1,8,0:0:0:0:
256,192,103803,1,0,0:0:0:0:
256,192,104030,1,8,0:0:0:0:
256,192,104712,1,0,0:0:0:0:
256,192,104939,1,0,0:0:0:0:
256,192,105621,1,0,0:0:0:0:
256,192,105848,1,8,0:0:0:0:
256,192,106303,1,0,0:0:0:0:
256,192,106530,1,0,0:0:0:0:
256,192,106984,1,8,0:0:0:0:
256,192,107212,1,0,0:0:0:0:
256,192,107439,1,0,0:0:0:0:
256,192,107666,1,8,0:0:0:0:
256,192,108348,1,0,0:0:0:0:
256,192,108575,1,0,0:0:0:0:
256,192,109257,1,0,0:0:0:0:
256,192,109484,1,8,0:0:0:0:
256,192,110166,1,0,0:0:0:0:
256,192,110394,1,12,0:0:0:0:
256,192,110621,1,0,0:0:0:0:
256,192,110848,1,0,0:0:0:0:
288,192,111075,1,12,0:0:0:0:
256,192,111303,1,0,0:0:0:0:
256,192,111530,1,0,0:0:0:0:
256,192,111757,1,12,0:0:0:0:
256,192,112212,5,4,0:0:0:0:
256,192,112553,1,4,0:0:0:0:
256,192,112894,1,4,0:0:0:0:
256,192,113122,1,8,0:0:0:0:
256,192,113576,1,0,0:0:0:0:
256,192,113803,1,8,0:0:0:0:
256,192,114031,1,4,0:0:0:0:
256,192,114372,1,4,0:0:0:0:
256,192,114713,1,4,0:0:0:0:
256,192,114940,1,8,0:0:0:0:
256,192,115394,1,0,0:0:0:0:
256,192,115622,1,8,0:0:0:0:
256,192,115849,1,4,0:0:0:0:
256,192,116190,1,4,0:0:0:0:
256,192,116531,1,4,0:0:0:0:
256,192,116758,1,8,0:0:0:0:
256,192,117213,1,0,0:0:0:0:
256,192,117440,1,8,0:0:0:0:
256,192,117667,1,4,0:0:0:0:
256,192,118008,1,4,0:0:0:0:
256,192,118349,1,4,0:0:0:0:
256,192,118576,1,8,0:0:0:0:
256,192,119031,1,0,0:0:0:0:
256,192,119484,5,4,0:0:0:0:
256,192,119825,1,4,0:0:0:0:
256,192,120166,1,4,0:0:0:0:
256,192,120394,1,8,0:0:0:0:
256,192,120848,1,0,0:0:0:0:
256,192,121075,1,8,0:0:0:0:
256,192,121303,1,4,0:0:0:0:
256,192,121644,1,4,0:0:0:0:
256,192,121985,1,4,0:0:0:0:
256,192,122212,1,8,0:0:0:0:
256,192,122666,1,0,0:0:0:0:
256,192,122894,1,8,0:0:0:0:
256,192,123121,1,4,0:0:0:0:
256,192,123462,1,4,0:0:0:0:
256,192,123803,1,4,0:0:0:0:
256,192,124030,1,8,0:0:0:0:
256,192,124485,1,0,0:0:0:0:
256,192,124712,1,8,0:0:0:0:
256,192,124939,1,4,0:0:0:0:
256,192,125280,1,4,0:0:0:0:
256,192,125621,1,4,0:0:0:0:
256,192,125848,1,8,0:0:0:0:
256,192,126075,1,0,0:0:0:0:
256,192,126303,1,8,0:0:0:0:
256,192,126530,1,8,0:0:0:0:
256,192,126644,1,8,0:0:0:0:
256,192,126757,5,4,0:0:0:0:
256,192,127098,1,4,0:0:0:0:
256,192,127439,1,4,0:0:0:0:
256,192,127667,1,8,0:0:0:0:
256,192,128121,1,0,0:0:0:0:
256,192,128576,1,4,0:0:0:0:
256,192,128917,1,4,0:0:0:0:
256,192,129258,1,4,0:0:0:0:
256,192,129485,1,8,0:0:0:0:
256,192,129939,1,0,0:0:0:0:
256,192,130394,1,4,0:0:0:0:
256,192,130735,1,4,0:0:0:0:
256,192,131076,1,4,0:0:0:0:
256,192,131303,1,8,0:0:0:0:
256,192,131758,1,0,0:0:0:0:
256,192,132212,1,4,0:0:0:0:
256,192,132553,1,4,0:0:0:0:
256,192,132894,1,4,0:0:0:0:
256,192,133121,1,8,0:0:0:0:
256,192,133576,1,0,0:0:0:0:
256,192,134030,5,4,0:0:0:0:
256,192,134371,1,4,0:0:0:0:
256,192,134712,1,4,0:0:0:0:
256,192,134940,1,8,0:0:0:0:
256,192,135394,1,0,0:0:0:0:
256,192,135849,1,4,0:0:0:0:
256,192,136190,1,4,0:0:0:0:
256,192,136531,1,4,0:0:0:0:
256,192,136758,1,8,0:0:0:0:
256,192,137212,1,0,0:0:0:0:
256,192,137667,1,4,0:0:0:0:
256,192,138008,1,4,0:0:0:0:
256,192,138349,1,4,0:0:0:0:
256,192,138576,1,8,0:0:0:0:
256,192,139031,1,0,0:0:0:0:
256,192,139485,1,4,0:0:0:0:
256,192,139826,1,4,0:0:0:0:
256,192,140167,1,4,0:0:0:0:
256,192,140394,1,8,0:0:0:0:
256,192,140621,1,0,0:0:0:0:
256,192,140849,1,8,0:0:0:0:
256,192,141075,1,0,0:0:0:0:
256,192,141303,5,4,0:0:0:0:
256,192,141644,1,4,0:0:0:0:
256,192,141985,1,4,0:0:0:0:
256,192,142213,1,8,0:0:0:0:
256,192,142667,1,0,0:0:0:0:
256,192,143122,1,4,0:0:0:0:
256,192,143463,1,4,0:0:0:0:
256,192,143804,1,4,0:0:0:0:
256,192,144031,1,8,0:0:0:0:
256,192,144485,1,0,0:0:0:0:
256,192,144940,1,4,0:0:0:0:
256,192,145281,1,4,0:0:0:0:
256,192,145622,1,4,0:0:0:0:
256,192,145849,1,8,0:0:0:0:
256,192,146304,1,0,0:0:0:0:
256,192,146758,1,4,0:0:0:0:
256,192,147099,1,4,0:0:0:0:
256,192,147440,1,4,0:0:0:0:
256,192,147667,1,8,0:0:0:0:
256,192,148122,1,0,0:0:0:0:
256,192,148575,5,4,0:0:0:0:
256,192,148916,1,4,0:0:0:0:
256,192,149257,1,4,0:0:0:0:
256,192,149485,1,8,0:0:0:0:
256,192,149939,1,0,0:0:0:0:
256,192,150394,1,4,0:0:0:0:
256,192,150735,1,4,0:0:0:0:
256,192,151076,1,4,0:0:0:0:
256,192,151303,1,8,0:0:0:0:
256,192,151757,1,0,0:0:0:0:
256,192,152212,1,4,0:0:0:0:
256,192,152553,1,4,0:0:0:0:
256,192,152894,1,4,0:0:0:0:
256,192,153121,1,8,0:0:0:0:
256,192,153576,1,8,0:0:0:0:
256,192,153803,1,0,0:0:0:0:
256,192,154030,1,0,0:0:0:0:
256,192,154257,1,8,0:0:0:0:
256,192,154484,1,0,0:0:0:0:
256,192,154712,1,0,0:0:0:0:
256,192,154939,1,8,0:0:0:0:
256,192,155394,1,8,0:0:0:0:
256,192,155621,1,8,0:0:0:0:
256,192,155734,1,8,0:0:0:0:
256,192,155848,1,0,0:0:0:0:
256,192,155905,1,0,0:0:0:0:
256,192,156075,1,0,0:0:0:0:
256,192,156132,1,0,0:0:0:0:
256,192,156302,1,0,0:0:0:0:
256,192,156359,1,0,0:0:0:0:
256,192,156530,1,0,0:0:0:0:
256,192,156587,1,0,0:0:0:0:
256,192,156757,1,8,0:0:0:0:
256,192,156814,1,8,0:0:0:0:
256,192,156984,1,0,0:0:0:0:
256,192,157041,1,0,0:0:0:0:
256,192,157212,1,8,0:0:0:0:
256,192,157269,1,8,0:0:0:0:
256,192,157440,1,0,0:0:0:0:
256,192,157496,1,0,0:0:0:0:
256,192,157666,1,0,0:0:0:0:
256,192,157723,1,0,0:0:0:0:
256,192,157893,1,0,0:0:0:0:
256,192,157950,1,0,0:0:0:0:
256,192,158121,1,0,0:0:0:0:
256,192,158177,1,0,0:0:0:0:
256,192,158348,1,0,0:0:0:0:
256,192,158405,1,0,0:0:0:0:
256,192,158575,1,8,0:0:0:0:
256,192,158632,1,8,0:0:0:0:
256,192,158802,1,0,0:0:0:0:
256,192,158859,1,0,0:0:0:0:
256,192,159030,1,8,0:0:0:0:
256,192,159087,1,8,0:0:0:0:
256,192,159257,1,8,0:0:0:0:
256,192,159314,1,8,0:0:0:0:
256,192,159484,1,0,0:0:0:0:
256,192,159541,1,0,0:0:0:0:
256,192,159712,1,0,0:0:0:0:
256,192,159768,1,0,0:0:0:0:
256,192,159939,1,0,0:0:0:0:
256,192,159996,1,0,0:0:0:0:
256,192,160166,1,0,0:0:0:0:
256,192,160223,1,0,0:0:0:0:
256,192,160393,1,8,0:0:0:0:
256,192,160450,1,8,0:0:0:0:
256,192,160621,1,0,0:0:0:0:
256,192,160677,1,0,0:0:0:0:
256,192,160848,1,0,0:0:0:0:
256,192,160905,1,0,0:0:0:0:
256,192,161075,1,8,0:0:0:0:
256,192,161132,1,8,0:0:0:0:
256,192,161302,1,0,0:0:0:0:
256,192,161359,1,0,0:0:0:0:
256,192,161530,1,0,0:0:0:0:
256,192,161587,1,0,0:0:0:0:
256,192,161757,1,0,0:0:0:0:
256,192,161814,1,0,0:0:0:0:
256,192,161984,1,0,0:0:0:0:
256,192,162041,1,0,0:0:0:0:
256,192,162212,1,8,0:0:0:0:
256,192,162268,1,8,0:0:0:0:
256,192,162439,1,0,0:0:0:0:
256,192,162496,1,0,0:0:0:0:
256,192,162666,1,8,0:0:0:0:
256,192,162723,1,8,0:0:0:0:
256,192,162893,1,8,0:0:0:0:
256,192,162950,1,8,0:0:0:0:
256,192,163121,1,0,0:0:0:0:
256,192,163177,1,0,0:0:0:0:
256,192,163348,1,0,0:0:0:0:
256,192,163405,1,0,0:0:0:0:
256,192,163575,1,0,0:0:0:0:
256,192,163632,1,0,0:0:0:0:
256,192,163802,1,0,0:0:0:0:
256,192,163859,1,0,0:0:0:0:
256,192,164030,1,8,0:0:0:0:
256,192,164087,1,8,0:0:0:0:
256,192,164257,1,0,0:0:0:0:
256,192,164314,1,0,0:0:0:0:
256,192,164484,1,8,0:0:0:0:
256,192,164541,1,8,0:0:0:0:
256,192,164712,1,0,0:0:0:0:
256,192,164768,1,0,0:0:0:0:
256,192,164939,1,0,0:0:0:0:
256,192,164996,1,0,0:0:0:0:
256,192,165166,1,0,0:0:0:0:
256,192,165223,1,0,0:0:0:0:
256,192,165393,1,0,0:0:0:0:
256,192,165450,1,0,0:0:0:0:
256,192,165621,1,0,0:0:0:0:
256,192,165677,1,0,0:0:0:0:
256,192,165848,1,8,0:0:0:0:
256,192,165905,1,8,0:0:0:0:
256,192,166075,1,0,0:0:0:0:
256,192,166132,1,0,0:0:0:0:
256,192,166302,1,8,0:0:0:0:
256,192,166359,1,8,0:0:0:0:
256,192,166530,1,8,0:0:0:0:
256,192,166587,1,8,0:0:0:0:
256,192,166757,1,0,0:0:0:0:
256,192,166814,1,0,0:0:0:0:
256,192,166984,1,0,0:0:0:0:
256,192,167041,1,0,0:0:0:0:
256,192,167212,1,0,0:0:0:0:
256,192,167268,1,0,0:0:0:0:
256,192,167439,1,0,0:0:0:0:
256,192,167496,1,0,0:0:0:0:
256,192,167666,1,8,0:0:0:0:
256,192,167723,1,8,0:0:0:0:
256,192,167893,1,0,0:0:0:0:
256,192,167950,1,0,0:0:0:0:
256,192,168121,1,0,0:0:0:0:
256,192,168177,1,0,0:0:0:0:
256,192,168348,1,8,0:0:0:0:
256,192,168405,1,8,0:0:0:0:
256,192,168575,1,0,0:0:0:0:
256,192,168632,1,0,0:0:0:0:
256,192,168802,1,0,0:0:0:0:
256,192,168859,1,0,0:0:0:0:
256,192,169030,1,0,0:0:0:0:
256,192,169087,1,0,0:0:0:0:
256,192,169257,1,0,0:0:0:0:
256,192,169314,1,0,0:0:0:0:
256,192,169484,1,8,0:0:0:0:
256,192,169541,1,8,0:0:0:0:
256,192,169712,1,0,0:0:0:0:
256,192,169768,1,0,0:0:0:0:
256,192,169939,1,8,0:0:0:0:
256,192,169996,1,8,0:0:0:0:
256,192,170166,1,8,0:0:0:0:
256,192,170223,1,8,0:0:0:0:
256,192,170393,1,0,0:0:0:0:
256,192,170450,1,0,0:0:0:0:
256,192,170620,1,0,0:0:0:0:
256,192,170677,1,0,0:0:0:0:
256,192,170847,1,0,0:0:0:0:
256,192,170904,1,0,0:0:0:0:
256,192,171075,1,0,0:0:0:0:
256,192,171132,1,0,0:0:0:0:
256,192,171302,1,8,0:0:0:0:
256,192,171359,1,8,0:0:0:0:
256,192,171529,1,0,0:0:0:0:
256,192,171586,1,0,0:0:0:0:
256,192,171757,1,8,0:0:0:0:
256,192,171814,1,8,0:0:0:0:
256,192,171985,1,0,0:0:0:0:
256,192,172041,1,0,0:0:0:0:
256,192,172211,1,0,0:0:0:0:
256,192,172268,1,0,0:0:0:0:
256,192,172438,1,0,0:0:0:0:
256,192,172495,1,0,0:0:0:0:
256,192,172666,1,0,0:0:0:0:
256,192,172722,1,0,0:0:0:0:
256,192,172893,1,0,0:0:0:0:
256,192,172950,1,0,0:0:0:0:
256,192,173120,1,8,0:0:0:0:
256,192,173177,1,8,0:0:0:0:
256,192,173347,1,0,0:0:0:0:
256,192,173404,1,0,0:0:0:0:
256,192,173575,1,8,0:0:0:0:
256,192,173632,1,8,0:0:0:0:
256,192,173802,1,8,0:0:0:0:
256,192,173859,1,8,0:0:0:0:
256,192,174029,1,0,0:0:0:0:
256,192,174086,1,0,0:0:0:0:
256,192,174257,1,0,0:0:0:0:
256,192,174313,1,0,0:0:0:0:
256,192,174484,1,0,0:0:0:0:
256,192,174541,1,0,0:0:0:0:
256,192,174711,1,0,0:0:0:0:
256,192,174768,1,0,0:0:0:0:
256,192,174938,1,8,0:0:0:0:
256,192,174995,1,8,0:0:0:0:
256,192,175166,1,0,0:0:0:0:
256,192,175222,1,0,0:0:0:0:
256,192,175393,1,0,0:0:0:0:
256,192,175450,1,0,0:0:0:0:
256,192,175620,1,8,0:0:0:0:
256,192,175677,1,8,0:0:0:0:
256,192,175847,1,0,0:0:0:0:
256,192,175904,1,0,0:0:0:0:
256,192,176075,1,0,0:0:0:0:
256,192,176132,1,0,0:0:0:0:
256,192,176302,1,0,0:0:0:0:
256,192,176359,1,0,0:0:0:0:
256,192,176529,1,0,0:0:0:0:
256,192,176586,1,0,0:0:0:0:
256,192,176757,1,8,0:0:0:0:
256,192,176813,1,8,0:0:0:0:
256,192,176984,1,0,0:0:0:0:
256,192,177041,1,0,0:0:0:0:
256,192,177211,1,8,0:0:0:0:
256,192,177268,1,8,0:0:0:0:
256,192,177438,1,8,0:0:0:0:
256,192,177495,1,8,0:0:0:0:
256,192,177666,1,0,0:0:0:0:
256,192,177722,1,0,0:0:0:0:
256,192,177893,1,0,0:0:0:0:
256,192,177950,1,0,0:0:0:0:
256,192,178120,1,0,0:0:0:0:
256,192,178177,1,0,0:0:0:0:
256,192,178347,1,0,0:0:0:0:
256,192,178404,1,0,0:0:0:0:
256,192,178575,1,8,0:0:0:0:
256,192,178632,1,8,0:0:0:0:
256,192,178802,1,0,0:0:0:0:
256,192,178859,1,0,0:0:0:0:
256,192,179029,1,8,0:0:0:0:
256,192,179086,1,8,0:0:0:0:
256,192,179257,1,0,0:0:0:0:
256,192,179313,1,0,0:0:0:0:
256,192,179484,1,0,0:0:0:0:
256,192,179541,1,0,0:0:0:0:
256,192,179711,1,0,0:0:0:0:
256,192,179768,1,0,0:0:0:0:
256,192,179938,1,0,0:0:0:0:
256,192,179995,1,0,0:0:0:0:
256,192,180166,1,0,0:0:0:0:
256,192,180222,1,0,0:0:0:0:
256,192,180393,1,8,0:0:0:0:
256,192,180450,1,8,0:0:0:0:
256,192,180621,1,0,0:0:0:0:
256,192,180677,1,0,0:0:0:0:
256,192,180848,1,8,0:0:0:0:
256,192,180905,1,8,0:0:0:0:
256,192,181075,1,8,0:0:0:0:
256,192,181132,1,8,0:0:0:0:
256,192,181302,1,0,0:0:0:0:
256,192,181359,1,0,0:0:0:0:
256,192,181530,1,0,0:0:0:0:
256,192,181587,1,0,0:0:0:0:
256,192,181757,1,0,0:0:0:0:
256,192,181814,1,0,0:0:0:0:
256,192,181984,1,0,0:0:0:0:
256,192,182041,1,0,0:0:0:0:
256,192,182212,1,8,0:0:0:0:
256,192,182268,1,8,0:0:0:0:
256,192,182439,1,0,0:0:0:0:
256,192,182496,1,0,0:0:0:0:
256,192,182666,1,8,0:0:0:0:
256,192,182723,1,8,0:0:0:0:
256,192,182893,1,0,0:0:0:0:
256,192,182950,1,0,0:0:0:0:
256,192,183121,1,0,0:0:0:0:
256,192,183177,1,0,0:0:0:0:
256,192,183348,1,8,0:0:0:0:
256,192,183405,1,8,0:0:0:0:
256,192,183575,1,0,0:0:0:0:
256,192,183632,1,0,0:0:0:0:
256,192,183802,1,0,0:0:0:0:
256,192,183858,1,0,0:0:0:0:
256,192,184030,1,8,0:0:0:0:
256,192,184087,1,8,0:0:0:0:
256,192,184257,1,0,0:0:0:0:
256,192,184314,1,0,0:0:0:0:
256,192,184484,1,8,0:0:0:0:
256,192,184541,1,8,0:0:0:0:
256,192,184712,1,8,0:0:0:0:
256,192,184768,1,8,0:0:0:0:
256,192,184939,1,4,0:0:0:0:
101,101,184967,2,4,L|112:102,1,8.75000003725287
101,101,184996,2,4,L|112:102,1,8.75000003725287
101,101,185024,2,4,L|112:102,1,8.75000003725287
101,101,185025,2,4,L|112:102,1,8.75000003725287
101,101,185052,2,4,L|112:102,1,8.75000003725287
101,101,185053,2,4,L|112:102,1,8.75000003725287
101,101,185081,2,4,L|112:102,1,8.75000003725287
101,101,185109,2,4,L|112:102,1,8.75000003725287
101,101,185110,2,4,L|112:102,1,8.75000003725287
101,101,185137,2,4,L|112:102,1,8.75000003725287
101,101,185138,2,4,L|112:102,1,8.75000003725287
101,101,185166,2,4,L|112:102,1,8.75000003725287
101,101,185167,2,4,L|112:102,1,8.75000003725287
101,101,185194,2,4,L|112:102,1,8.75000003725287
101,101,185195,2,4,L|112:102,1,8.75000003725287
101,101,185223,2,4,L|112:102,1,8.75000003725287
101,101,185251,2,4,L|112:102,1,8.75000003725287
101,101,185252,2,4,L|112:102,1,8.75000003725287
101,101,185279,2,4,L|112:102,1,8.75000003725287
101,101,185280,2,4,L|112:102,1,8.75000003725287
101,101,185308,2,4,L|112:102,1,8.75000003725287
101,101,185309,2,4,L|112:102,1,8.75000003725287
101,101,185336,2,4,L|112:102,1,8.75000003725287
101,101,185337,2,4,L|112:102,1,8.75000003725287
101,101,185365,2,4,L|112:102,1,8.75000003725287
101,101,185366,2,4,L|112:102,1,8.75000003725287
101,101,185393,2,4,L|112:102,1,8.75000003725287
101,101,185394,2,4,L|112:102,1,8.75000003725287
101,101,185421,2,4,L|112:102,1,8.75000003725287
101,101,185422,2,4,L|112:102,1,8.75000003725287
101,101,185450,2,4,L|112:102,1,8.75000003725287
101,101,185451,2,4,L|112:102,1,8.75000003725287
101,101,185478,2,4,L|112:102,1,8.75000003725287
101,101,185479,2,4,L|112:102,1,8.75000003725287
101,101,185507,2,4,L|112:102,1,8.75000003725287
101,101,185508,2,4,L|112:102,1,8.75000003725287
101,101,185535,2,4,L|112:102,1,8.75000003725287
101,101,185536,2,4,L|112:102,1,8.75000003725287
101,101,185564,2,4,L|112:102,1,8.75000003725287
101,101,185592,2,4,L|112:102,1,8.75000003725287
101,101,185593,2,4,L|112:102,1,8.75000003725287
101,101,185620,2,4,L|112:102,1,8.75000003725287
101,101,185621,2,4,L|112:102,1,8.75000003725287
101,101,185649,2,4,L|112:102,1,8.75000003725287
101,101,185650,2,4,L|112:102,1,8.75000003725287
101,101,185677,2,4,L|112:102,1,8.75000003725287
101,101,185678,2,4,L|112:102,1,8.75000003725287
101,101,185706,2,4,L|112:102,1,8.75000003725287
101,101,185734,2,4,L|112:102,1,8.75000003725287
101,101,185735,2,4,L|112:102,1,8.75000003725287
101,101,185762,2,4,L|112:102,1,8.75000003725287
101,101,185763,2,4,L|112:102,1,8.75000003725287
101,101,185791,2,4,L|112:102,1,8.75000003725287
101,101,185792,2,4,L|112:102,1,8.75000003725287
101,101,185819,2,4,L|112:102,1,8.75000003725287
101,101,185820,2,4,L|112:102,1,8.75000003725287
101,101,185848,2,4,L|112:102,1,8.75000003725287
101,101,185876,2,4,L|112:102,1,8.75000003725287
101,101,185877,2,4,L|112:102,1,8.75000003725287
101,101,185904,2,4,L|112:102,1,8.75000003725287
101,101,185905,2,4,L|112:102,1,8.75000003725287
101,101,185933,2,4,L|112:102,1,8.75000003725287
101,101,185934,2,4,L|112:102,1,8.75000003725287
101,101,185961,2,4,L|112:102,1,8.75000003725287
101,101,185962,2,4,L|112:102,1,8.75000003725287
101,101,185990,2,4,L|112:102,1,8.75000003725287
101,101,185991,2,4,L|112:102,1,8.75000003725287
101,101,186018,2,4,L|112:102,1,8.75000003725287
101,101,186019,2,4,L|112:102,1,8.75000003725287
101,101,186046,2,4,L|112:102,1,8.75000003725287
101,101,186047,2,4,L|112:102,1,8.75000003725287
101,101,186075,2,4,L|112:102,1,8.75000003725287
101,101,186076,2,4,L|112:102,1,8.75000003725287
101,101,186103,2,4,L|112:102,1,8.75000003725287
101,101,186104,2,4,L|112:102,1,8.75000003725287
101,101,186132,2,4,L|112:102,1,8.75000003725287
101,101,186133,2,4,L|112:102,1,8.75000003725287
101,101,186160,2,4,L|112:102,1,8.75000003725287
101,101,186161,2,4,L|112:102,1,8.75000003725287
101,101,186189,2,4,L|112:102,1,8.75000003725287
101,101,186217,2,4,L|112:102,1,8.75000003725287
101,101,186218,2,4,L|112:102,1,8.75000003725287
101,101,186245,2,4,L|112:102,1,8.75000003725287
101,101,186246,2,4,L|112:102,1,8.75000003725287
101,101,186274,2,4,L|112:102,1,8.75000003725287
101,101,186275,2,4,L|112:102,1,8.75000003725287
101,101,186302,2,4,L|112:102,1,8.75000003725287
101,101,186303,2,4,L|112:102,1,8.75000003725287
101,101,186331,2,4,L|112:102,1,8.75000003725287
101,101,186359,2,4,L|112:102,1,8.75000003725287
101,101,186360,2,4,L|112:102,1,8.75000003725287
101,101,186387,2,4,L|112:102,1,8.75000003725287
101,101,186388,2,4,L|112:102,1,8.75000003725287
101,101,186416,2,4,L|112:102,1,8.75000003725287
101,101,186417,2,4,L|112:102,1,8.75000003725287
101,101,186444,2,4,L|112:102,1,8.75000003725287
101,101,186445,2,4,L|112:102,1,8.75000003725287
101,101,186473,2,4,L|112:102,1,8.75000003725287
101,101,186501,2,4,L|112:102,1,8.75000003725287
101,101,186502,2,4,L|112:102,1,8.75000003725287
101,101,186529,2,4,L|112:102,1,8.75000003725287
101,101,186530,2,4,L|112:102,1,8.75000003725287
101,101,186558,2,4,L|112:102,1,8.75000003725287
101,101,186559,2,4,L|112:102,1,8.75000003725287
101,101,186586,2,4,L|112:102,1,8.75000003725287
101,101,186587,2,4,L|112:102,1,8.75000003725287
101,101,186615,2,4,L|112:102,1,8.75000003725287
101,101,186643,2,4,L|112:102,1,8.75000003725287
101,101,186644,2,4,L|112:102,1,8.75000003725287
101,101,186671,2,4,L|112:102,1,8.75000003725287
101,101,186672,2,4,L|112:102,1,8.75000003725287
101,101,186700,2,4,L|112:102,1,8.75000003725287
256,192,186757,5,12,0:0:0:0:
256,192,186984,1,12,0:0:0:0:
256,192,187439,1,0,0:0:0:0:
256,192,187666,1,8,0:0:0:0:
256,192,187893,1,0,0:0:0:0:
256,192,188121,1,8,0:0:0:0:
256,192,188348,1,0,0:0:0:0:
256,192,188575,1,4,0:0:0:0:
256,192,189257,1,0,0:0:0:0:
256,192,189484,1,8,0:0:0:0:
256,192,189939,1,0,0:0:0:0:
256,192,190166,1,0,0:0:0:0:
256,192,190621,1,8,0:0:0:0:
256,192,191075,1,0,0:0:0:0:
256,192,191302,1,8,0:0:0:0:
256,192,191984,1,0,0:0:0:0:
256,192,192212,1,0,0:0:0:0:
256,192,192893,1,0,0:0:0:0:
256,192,193121,1,8,0:0:0:0:
256,192,193575,1,0,0:0:0:0:
256,192,193802,1,0,0:0:0:0:
256,192,194257,1,8,0:0:0:0:
256,192,194712,1,0,0:0:0:0:
256,192,194939,1,8,0:0:0:0:
256,192,195621,1,0,0:0:0:0:
256,192,195848,1,0,0:0:0:0:
256,192,196530,1,0,0:0:0:0:
256,192,196757,1,8,0:0:0:0:
256,192,197212,1,0,0:0:0:0:
256,192,197439,1,0,0:0:0:0:
256,192,197893,1,8,0:0:0:0:
256,192,198348,1,0,0:0:0:0:
256,192,198575,1,8,0:0:0:0:
256,192,199257,1,0,0:0:0:0:
256,192,199484,1,0,0:0:0:0:
256,192,200166,1,0,0:0:0:0:
256,192,200393,1,8,0:0:0:0:
256,192,200848,1,0,0:0:0:0:
256,192,201075,1,0,0:0:0:0:
256,192,201530,1,8,0:0:0:0:
256,192,201757,1,0,0:0:0:0:
256,192,201984,1,0,0:0:0:0:
256,192,202212,1,8,0:0:0:0:
256,192,202325,1,0,0:0:0:0:
256,192,202439,1,0,0:0:0:0:
256,192,202552,1,0,0:0:0:0:
256,192,202666,1,8,0:0:0:0:
256,192,202893,1,0,0:0:0:0:
256,192,203121,1,4,0:0:0:0:
256,192,203802,1,0,0:0:0:0:
256,192,204030,1,8,0:0:0:0:
256,192,204484,1,0,0:0:0:0:
256,192,204712,1,0,0:0:0:0:
256,192,205166,1,8,0:0:0:0:
256,192,205621,1,0,0:0:0:0:
256,192,205848,1,8,0:0:0:0:
256,192,206530,1,0,0:0:0:0:
256,192,206757,1,0,0:0:0:0:
256,192,207439,1,0,0:0:0:0:
256,192,207666,1,8,0:0:0:0:
256,192,208121,1,0,0:0:0:0:
256,192,208348,1,0,0:0:0:0:
256,192,208802,1,8,0:0:0:0:
256,192,209030,1,0,0:0:0:0:
256,192,209257,1,0,0:0:0:0:
256,192,209484,1,8,0:0:0:0:
256,192,210166,1,0,0:0:0:0:
256,192,210393,1,0,0:0:0:0:
256,192,211075,1,0,0:0:0:0:
256,192,211302,1,8,0:0:0:0:
256,192,211984,1,0,0:0:0:0:
256,192,212212,1,12,0:0:0:0:
256,192,212439,1,0,0:0:0:0:
256,192,212666,1,0,0:0:0:0:
288,192,212893,1,12,0:0:0:0:
256,192,213121,1,0,0:0:0:0:
256,192,213348,1,0,0:0:0:0:
256,192,213575,1,12,0:0:0:0:
256,192,214030,5,4,0:0:0:0:
256,192,214484,1,0,0:0:0:0:
256,192,214712,1,8,0:0:0:0:
256,192,215166,1,0,0:0:0:0:
256,192,215394,1,4,0:0:0:0:
256,192,215848,1,0,0:0:0:0:
256,192,216075,1,8,0:0:0:0:
256,192,216530,1,0,0:0:0:0:
256,192,216757,1,8,0:0:0:0:
256,192,217212,1,4,0:0:0:0:
256,192,218121,1,0,0:0:0:0:
256,192,218575,1,8,0:0:0:0:
256,192,219030,1,8,0:0:0:0:
256,192,219257,1,0,0:0:0:0:
256,192,219484,1,0,0:0:0:0:
256,192,219712,1,8,0:0:0:0:
256,192,220166,1,0,0:0:0:0:
256,192,220394,1,8,0:0:0:0:
256,192,220848,1,8,0:0:0:0:
256,192,220962,1,8,0:0:0:0:
256,192,221075,1,8,0:0:0:0:
256,192,221189,1,8,0:0:0:0:
256,192,221303,1,4,0:0:0:0:
256,192,221757,1,0,0:0:0:0:
256,192,221984,1,8,0:0:0:0:
256,192,222439,1,0,0:0:0:0:
256,192,222666,1,4,0:0:0:0:
256,192,223348,1,8,0:0:0:0:
256,192,223803,1,0,0:0:0:0:
256,192,224030,1,8,0:0:0:0:
256,192,224484,1,4,0:0:0:0:
256,192,225394,1,0,0:0:0:0:
256,192,225848,1,8,0:0:0:0:
256,192,226303,1,8,0:0:0:0:
256,192,226530,1,0,0:0:0:0:
256,192,226757,1,0,0:0:0:0:
256,192,226984,1,8,0:0:0:0:
256,192,227439,1,0,0:0:0:0:
256,192,227666,1,8,0:0:0:0:
256,192,228121,1,8,0:0:0:0:
256,192,228234,1,0,0:0:0:0:
256,192,228348,1,8,0:0:0:0:
256,192,228462,1,8,0:0:0:0:
256,192,228575,1,4,0:0:0:0:
256,192,229030,1,0,0:0:0:0:
256,192,229257,1,8,0:0:0:0:
256,192,229712,1,0,0:0:0:0:
256,192,229939,1,4,0:0:0:0:
256,192,230621,1,8,0:0:0:0:
256,192,231076,1,0,0:0:0:0:
256,192,231303,1,8,0:0:0:0:
256,192,231757,1,4,0:0:0:0:
256,192,232666,1,0,0:0:0:0:
256,192,233121,1,8,0:0:0:0:
256,192,233575,1,8,0:0:0:0:
256,192,233803,1,0,0:0:0:0:
256,192,234030,1,0,0:0:0:0:
256,192,234257,1,8,0:0:0:0:
256,192,234371,1,8,0:0:0:0:
256,192,234484,1,8,0:0:0:0:
256,192,234598,1,8,0:0:0:0:
256,192,234712,1,0,0:0:0:0:
256,192,234939,1,8,0:0:0:0:
256,192,235053,1,8,0:0:0:0:
256,192,235166,1,8,0:0:0:0:
256,192,235280,1,8,0:0:0:0:
256,192,235394,1,0,0:0:0:0:
256,192,235621,1,8,0:0:0:0:
256,192,235734,1,8,0:0:0:0:
256,192,235848,1,4,0:0:0:0:
256,192,236303,1,0,0:0:0:0:
256,192,236530,1,8,0:0:0:0:
256,192,236984,1,0,0:0:0:0:
256,192,237212,1,4,0:0:0:0:
256,192,237894,1,8,0:0:0:0:
256,192,238348,1,0,0:0:0:0:
256,192,238575,1,8,0:0:0:0:
256,192,239030,1,4,0:0:0:0:
256,192,239939,1,0,0:0:0:0:
256,192,240394,1,8,0:0:0:0:
256,192,240848,1,8,0:0:0:0:
256,192,241075,1,0,0:0:0:0:
256,192,241303,1,8,0:0:0:0:
256,192,241530,1,0,0:0:0:0:
256,192,241757,1,0,0:0:0:0:
256,192,241984,1,8,0:0:0:0:
256,192,242212,1,0,0:0:0:0:
256,192,242439,1,0,0:0:0:0:
256,192,242666,1,8,0:0:0:0:
256,192,242894,1,0,0:0:0:0:
256,192,243121,1,0,0:0:0:0:
256,192,243348,1,8,0:0:0:0:
256,192,243575,1,8,0:0:0:0:
256,192,244030,1,8,0:0:0:0:
256,192,244144,1,0,0:0:0:0:
256,192,244257,1,0,0:0:0:0:
256,192,244371,1,0,0:0:0:0:
256,192,244484,1,8,0:0:0:0:
256,192,244939,1,4,0:0:0:0:
256,192,245621,1,0,0:0:0:0:
256,192,245848,1,8,0:0:0:0:
256,192,246303,1,0,0:0:0:0:
256,192,246530,1,0,0:0:0:0:
256,192,246985,1,8,0:0:0:0:
256,192,247439,1,0,0:0:0:0:
256,192,247666,1,8,0:0:0:0:
256,192,248348,1,0,0:0:0:0:
256,192,248576,1,0,0:0:0:0:
256,192,249257,1,0,0:0:0:0:
256,192,249485,1,8,0:0:0:0:
256,192,249939,1,0,0:0:0:0:
256,192,250166,1,0,0:0:0:0:
256,192,250621,1,8,0:0:0:0:
256,192,251076,1,0,0:0:0:0:
256,192,251303,1,8,0:0:0:0:
256,192,251985,1,0,0:0:0:0:
256,192,252212,1,0,0:0:0:0:
256,192,252894,1,0,0:0:0:0:
256,192,253121,1,8,0:0:0:0:
256,192,253576,1,0,0:0:0:0:
256,192,253803,1,0,0:0:0:0:
256,192,254257,1,8,0:0:0:0:
256,192,254712,1,0,0:0:0:0:
256,192,254939,1,8,0:0:0:0:
256,192,255621,1,0,0:0:0:0:
256,192,255848,1,0,0:0:0:0:
256,192,256530,1,0,0:0:0:0:
256,192,256757,1,8,0:0:0:0:
256,192,257212,1,0,0:0:0:0:
256,192,257439,1,0,0:0:0:0:
256,192,257894,1,8,0:0:0:0:
256,192,258348,1,0,0:0:0:0:
256,192,258576,1,8,0:0:0:0:
256,192,259257,1,0,0:0:0:0:
256,192,259485,1,4,0:0:0:0:
256,192,260166,1,0,0:0:0:0:
256,192,260394,1,8,0:0:0:0:
256,192,260848,1,0,0:0:0:0:
256,192,261076,1,0,0:0:0:0:
256,192,261530,1,8,0:0:0:0:
256,192,261985,1,0,0:0:0:0:
256,192,262212,1,8,0:0:0:0:
256,192,262894,1,0,0:0:0:0:
256,192,263121,1,0,0:0:0:0:
256,192,263803,1,0,0:0:0:0:
256,192,264030,1,8,0:0:0:0:
256,192,264485,1,0,0:0:0:0:
256,192,264712,1,0,0:0:0:0:
256,192,265166,1,8,0:0:0:0:
256,192,265394,1,0,0:0:0:0:
256,192,265621,1,0,0:0:0:0:
256,192,265848,1,8,0:0:0:0:
256,192,266530,1,0,0:0:0:0:
256,192,266757,1,0,0:0:0:0:
256,192,267439,1,0,0:0:0:0:
256,192,267666,1,8,0:0:0:0:
256,192,268121,1,0,0:0:0:0:
256,192,268348,1,0,0:0:0:0:
256,192,268803,1,8,0:0:0:0:
288,192,269257,1,0,0:0:0:0:
256,192,269484,1,8,0:0:0:0:
256,192,270166,1,0,0:0:0:0:
256,192,270394,5,4,0:0:0:0:
256,192,271075,1,0,0:0:0:0:
288,192,271303,1,8,0:0:0:0:
256,192,271757,1,0,0:0:0:0:
256,192,271984,1,0,0:0:0:0:
256,192,272439,1,8,0:0:0:0:
256,192,272666,1,0,0:0:0:0:
256,192,272894,1,0,0:0:0:0:
256,192,273121,1,8,0:0:0:0:
256,192,273803,1,0,0:0:0:0:
256,192,274030,1,0,0:0:0:0:
256,192,274712,1,0,0:0:0:0:
256,192,274939,1,8,0:0:0:0:
256,192,275394,1,0,0:0:0:0:
256,192,275621,1,0,0:0:0:0:
256,192,276075,1,8,0:0:0:0:
256,192,276530,1,0,0:0:0:0:
256,192,276757,1,8,0:0:0:0:
256,192,277439,1,0,0:0:0:0:
256,192,277666,1,0,0:0:0:0:
256,192,278348,1,0,0:0:0:0:
256,192,278575,1,8,0:0:0:0:
256,192,279030,1,0,0:0:0:0:
256,192,279257,1,0,0:0:0:0:
256,192,279712,1,8,0:0:0:0:
256,192,279939,1,0,0:0:0:0:
256,192,280166,1,0,0:0:0:0:
256,192,280394,1,8,0:0:0:0:
288,224,280848,1,0,0:0:0:0:
288,224,281075,1,0,0:0:0:0:
256,192,281984,1,0,0:0:0:0:
256,192,282212,1,8,0:0:0:0:
256,192,282894,1,0,0:0:0:0:
256,192,283121,1,8,0:0:0:0:
256,192,283348,1,0,0:0:0:0:
256,192,283575,1,0,0:0:0:0:
256,192,283803,1,8,0:0:0:0:
256,192,284030,1,0,0:0:0:0:
256,192,284257,1,0,0:0:0:0:
256,192,284484,1,8,0:0:0:0:
256,192,284712,1,0,0:0:0:0:
256,192,284939,5,4,0:0:0:0:
256,192,285280,1,4,0:0:0:0:
256,192,285621,1,4,0:0:0:0:
256,192,285849,1,8,0:0:0:0:
256,192,286303,1,0,0:0:0:0:
256,192,286530,1,8,0:0:0:0:
256,192,286758,1,4,0:0:0:0:
256,192,287099,1,4,0:0:0:0:
256,192,287440,1,4,0:0:0:0:
256,192,287667,1,8,0:0:0:0:
256,192,288121,1,0,0:0:0:0:
256,192,288349,1,8,0:0:0:0:
256,192,288576,1,4,0:0:0:0:
256,192,288917,1,4,0:0:0:0:
256,192,289258,1,4,0:0:0:0:
256,192,289485,1,8,0:0:0:0:
256,192,289940,1,0,0:0:0:0:
256,192,290167,1,8,0:0:0:0:
256,192,290394,1,4,0:0:0:0:
256,192,290735,1,4,0:0:0:0:
256,192,291076,1,4,0:0:0:0:
256,192,291303,1,8,0:0:0:0:
256,192,291758,1,0,0:0:0:0:
256,192,292212,5,4,0:0:0:0:
256,192,292553,1,4,0:0:0:0:
256,192,292894,1,4,0:0:0:0:
256,192,293122,1,8,0:0:0:0:
256,192,293576,1,0,0:0:0:0:
256,192,293803,1,8,0:0:0:0:
256,192,294031,1,4,0:0:0:0:
256,192,294372,1,4,0:0:0:0:
256,192,294713,1,4,0:0:0:0:
256,192,294940,1,8,0:0:0:0:
256,192,295394,1,0,0:0:0:0:
256,192,295622,1,8,0:0:0:0:
256,192,295849,1,4,0:0:0:0:
256,192,296190,1,4,0:0:0:0:
256,192,296531,1,4,0:0:0:0:
256,192,296758,1,8,0:0:0:0:
256,192,297213,1,0,0:0:0:0:
256,192,297440,1,8,0:0:0:0:
256,192,297667,1,4,0:0:0:0:
256,192,298008,5,4,0:0:0:0:
256,192,298349,1,4,0:0:0:0:
256,192,298576,1,8,0:0:0:0:
256,192,299030,1,8,0:0:0:0:
256,192,299485,5,4,0:0:0:0:
256,192,299826,1,4,0:0:0:0:
256,192,300167,1,4,0:0:0:0:
256,192,300394,1,8,0:0:0:0:
256,192,300849,1,8,0:0:0:0:
256,192,301303,1,4,0:0:0:0:
256,192,301644,1,4,0:0:0:0:
256,192,301985,1,4,0:0:0:0:
256,192,302212,1,8,0:0:0:0:
256,192,302667,1,8,0:0:0:0:
256,192,303121,1,4,0:0:0:0:
256,192,303462,1,4,0:0:0:0:
256,192,303803,1,4,0:0:0:0:
256,192,304030,1,8,0:0:0:0:
256,192,304485,1,8,0:0:0:0:
256,192,304940,1,4,0:0:0:0:
256,192,305281,1,4,0:0:0:0:
256,192,305622,1,4,0:0:0:0:
256,192,305849,1,8,0:0:0:0:
256,192,306304,1,8,0:0:0:0:
256,192,306758,1,4,0:0:0:0:
256,192,307099,1,4,0:0:0:0:
256,192,307440,1,4,0:0:0:0:
256,192,307667,1,8,0:0:0:0:
256,192,308122,1,8,0:0:0:0:
256,192,308576,1,4,0:0:0:0:
256,192,308917,1,4,0:0:0:0:
256,192,309258,1,4,0:0:0:0:
256,192,309485,1,8,0:0:0:0:
256,192,309940,1,8,0:0:0:0:
256,192,310394,1,4,0:0:0:0:
256,192,310735,1,4,0:0:0:0:
256,192,311076,1,4,0:0:0:0:
256,192,311303,1,8,0:0:0:0:
