osu file format v14

[General]
AudioFilename: Tekanan Batin!!!.mp3
AudioLeadIn: 0
PreviewTime: 187212
Countdown: 0
SampleSet: Normal
StackLeniency: 0.7
Mode: 0
LetterboxInBreaks: 0
WidescreenStoryboard: 0

[Editor]
Bookmarks: 274029
DistanceSpacing: 0.8
BeatDivisor: 4
GridSize: 4
TimelineZoom: 1.900006

[Metadata]
Title:Diary Depresiku
TitleUnicode:Diary Depresiku
Artist:Last Child
ArtistUnicode:Last Child
Creator:Surono
Version:Grim Rapper's Broken Home
Source:
Tags:bahasa indonesia indonesian pop rock we are everything grow up Nishizumi Volta Grim Rapper Eraser
BeatmapID:1225282
BeatmapSetID:350305

[Difficulty]
HPDrainRate:3
CircleSize:4
OverallDifficulty:6
ApproachRate:8
SliderMultiplier:1.6
SliderTickRate:1

[Events]
//Background and Video events
0,0,"BG.jpg",0,0
//Break Periods
2,116048,118734
//Storyboard Layer 0 (Background)
//Storyboard Layer 1 (Fail)
//Storyboard Layer 2 (Pass)
//Storyboard Layer 3 (Foreground)
//Storyboard Sound Samples

[TimingPoints]
10394,454.545454545455,4,1,1,90,1,0
25166,-111.111111111111,4,1,1,90,0,0
52666,-105.263157894737,4,1,1,90,0,0
53348,-100,4,1,1,90,0,0
84939,-50,4,1,1,90,0,0
85394,-100,4,1,1,90,0,0
86530,-95.2380952380952,4,1,1,90,0,0
86757,-90.9090909090909,4,1,1,90,0,1
112212,-100,4,1,1,90,0,0
126984,-111.111111111111,4,1,1,90,0,0
154484,-105.263157894737,4,1,1,90,0,0
155166,-100,4,1,1,90,0,0
186757,-25,4,1,1,90,0,0
187212,-100,4,1,1,90,0,0
188348,-95.2380952380952,4,1,1,90,0,0
188575,-90.9090909090909,4,1,1,90,0,1
214030,-100,4,1,1,90,0,0
217212,-105.263157894737,4,1,1,90,0,0
219712,-100,4,1,1,90,0,0
224484,-105.263157894737,4,1,1,90,0,0
226984,-100,4,1,1,90,0,0
231757,-105.263157894737,4,1,1,90,0,0
234257,-100,4,1,1,90,0,0
239030,-105.263157894737,4,1,1,90,0,0
241303,454.545454545455,4,1,1,90,1,0
241984,-95.2380952380952,4,1,1,90,0,0
242666,-90.9090909090909,4,1,1,90,0,0
243348,-86.9565217391304,4,1,1,90,0,0
244030,-83.3333333333333,4,1,1,90,0,0
244939,-90.9090909090909,4,1,1,90,0,1
292212,-100,4,1,1,75,0,0
294030,-100,4,1,1,55,0,0
295848,-100,4,1,1,50,0,0
297666,-100,4,1,1,45,0,0
297679,-100,4,1,1,35,0,0
299484,-100,4,1,1,25,0,0
301303,-100,4,1,1,20,0,0
304939,-100,4,1,1,15,0,0

[HitObjects]
256,192,3348,12,0,10166,0:0:0:0:
120,120,10393,6,0,L|216:204,1,120,4|0,0:0|0:0,0:0:0:0:
296,196,10848,1,0,0:0:0:0:
336,32,11075,2,0,L|376:120,1,80,0|8,0:0|0:0,0:0:0:0:
396,192,11530,2,0,L|448:120,1,80
496,48,11984,1,8,0:0:0:0:
336,32,12212,6,0,B|276:28|236:88,1,120
256,160,12666,1,0,0:0:0:0:
304,264,12894,2,0,P|272:312|240:324,1,80,0|8,0:0|0:0,0:0:0:0:
176,312,13348,2,0,P|208:264|240:252,1,80
380,264,13803,1,8,0:0:0:0:
312,152,14030,6,0,B|252:120|252:120|192:124,1,120
188,196,14484,1,0,0:0:0:0:
144,88,14712,2,0,B|176:52|176:52|220:56,1,80,0|8,0:0|0:0,0:0:0:0:
312,152,15166,2,0,B|312:111|312:111|281:86,1,80
212,128,15621,1,8,0:0:0:0:
192,204,15848,6,0,B|192:240|224:264|224:264|256:252|278:265,1,120
332,316,16303,1,0,0:0:0:0:
404,252,16530,2,0,B|424:240|448:244|448:244|448:224|464:212,1,80,0|8,0:0|0:0,0:0:0:0:
400,176,16984,2,0,B|413:165|413:145|413:145|437:149|457:137,1,80
476,60,17439,1,0,0:0:0:0:
328,44,17666,6,0,B|312:92|272:112|272:112|300:140|306:171,1,160,12|0,0:0|0:0,0:0:0:0:
340,280,18348,1,0,0:0:0:0:
319,271,18575,2,0,B|274:281|274:281|244:317,1,80,8|0,0:0|0:0,0:0:0:0:
204,372,19030,2,0,P|174:345|167:307,1,80,0|8,0:0|0:0,0:0:0:0:
157,138,19484,6,0,B|226:175|226:175|176:240,1,160
88,272,20166,1,0,0:0:0:0:
76,252,20394,2,0,L|60:156,1,80,8|0,0:0|0:0,0:0:0:0:
197,69,20848,2,0,L|157:138,1,80,0|8,0:0|0:0,0:0:0:0:
224,206,21303,6,0,P|178:143|197:68,1,160
264,148,21984,1,0,0:0:0:0:
272,156,22212,2,0,P|295:183|304:228,1,80,8|0,0:0|0:0,0:0:0:0:
372,124,22666,2,0,P|372:80|404:32,1,80,0|8,0:0|0:0,0:0:0:0:
464,140,23121,6,0,L|436:228,1,80
340,288,23575,2,0,L|364:211,1,80
316,112,24030,2,0,L|291:188,1,80,8|0,0:0|0:0,0:0:0:0:
196,248,24484,2,0,L|220:171,1,80,8|0,0:0|0:0,0:0:0:0:
228,160,24825,5,0,0:0:0:0:
220,148,24939,2,0,B|169:120|169:120|128:172,1,120,4|0,0:0|0:0,0:0:0:0:
76,216,25621,2,0,L|44:136,1,71.9999978027344,0|8,0:0|0:0,0:0:0:0:
148,268,26075,2,0,L|160:188,1,71.9999978027344
212,332,26530,5,0,0:0:0:0:
224,308,26757,2,0,B|248:260|248:260|304:240,1,107.999996704102
396,208,27439,1,0,0:0:0:0:
384,200,27666,2,0,L|323:160,1,71.9999978027344,8|0,0:0|0:0,0:0:0:0:
408,84,28121,2,0,L|472:48,1,71.9999978027344
464,156,28575,6,0,P|488:201|465:248,2,107.999996704102
320,184,29484,2,0,P|286:211|276:240,1,71.9999978027344,8|0,0:0|0:0,0:0:0:0:
248,135,29939,2,0,P|268:106|278:72,1,71.9999978027344
192,80,30394,2,0,P|152:115|142:167,2,107.999996704102
208,208,31303,2,0,L|176:280,1,71.9999978027344,8|0,0:0|0:0,0:0:0:0:
112,344,31757,2,0,L|104:268,1,71.9999978027344
96,144,32212,6,0,P|61:90|11:79,2,107.999996704102
152,216,33121,2,0,L|220:248,1,71.9999978027344,8|0,0:0|0:0,0:0:0:0:
292,136,33575,2,0,L|216:176,1,71.9999978027344
135,291,34030,2,0,P|164:336|215:350,2,107.999996704102
176,180,34939,2,0,L|208:252,1,71.9999978027344,8|0,0:0|0:0,0:0:0:0:
244,128,35394,2,0,L|177:100,1,71.9999978027344
156,28,35848,6,0,B|96:48|96:48|68:83,2,107.999996704102
208,164,36757,2,0,L|264:104,1,71.9999978027344,8|0,0:0|0:0,0:0:0:0:
336,52,37212,2,0,L|344:136,1,71.9999978027344
340,228,37666,2,0,B|376:260|376:260|399:228|436:216,1,107.999996704102
440,216,38121,1,0,0:0:0:0:
432,96,38348,5,0,0:0:0:0:
312,120,38575,1,8,0:0:0:0:
284,40,38803,5,0,0:0:0:0:
192,156,39030,1,8,0:0:0:0:
140,84,39257,5,0,0:0:0:0:
184,268,39484,2,0,P|224:228|280:216,1,107.999996704102,4|0,0:0|0:0,0:0:0:0:
376,260,39939,1,0,0:0:0:0:
400,128,40166,1,0,0:0:0:0:
400,140,40394,2,0,P|392:180|368:216,1,71.9999978027344,8|0,0:0|0:0,0:0:0:0:
400,328,40848,2,0,P|412:288|432:260,1,71.9999978027344
496,164,41303,6,0,P|503:112|479:64,1,107.999996704102
360,24,41757,1,0,0:0:0:0:
288,184,41984,1,0,0:0:0:0:
284,176,42212,2,0,P|261:148|228:134,1,71.9999978027344,8|0,0:0|0:0,0:0:0:0:
136,148,42666,2,0,P|142:112|158:80,1,71.9999978027344
60,120,43121,6,0,P|56:172|88:220,1,107.999996704102
192,256,43575,1,0,0:0:0:0:
268,136,43803,1,0,0:0:0:0:
284,136,44030,2,0,P|316:150|343:174,1,71.9999978027344,8|0,0:0|0:0,0:0:0:0:
376,332,44484,2,0,L|308:268,1,71.9999978027344
191,255,44939,6,0,P|139:265|103:303,1,107.999996704102
24,208,45394,1,0,0:0:0:0:
84,96,45621,1,0,0:0:0:0:
92,108,45848,2,0,L|128:170,1,71.9999978027344,8|0,0:0|0:0,0:0:0:0:
191,255,46303,2,0,L|215:179,1,71.9999978027344
340,34,46757,6,0,P|288:36|260:80,1,107.999996704102
284,224,47212,1,0,0:0:0:0:
440,120,47439,1,0,0:0:0:0:
440,136,47666,2,0,L|412:212,1,71.9999978027344,8|0,0:0|0:0,0:0:0:0:
464,336,48121,2,0,L|420:268,1,71.9999978027344
256,248,48575,6,0,B|303:268|303:268|368:244,2,107.999996704102
200,100,49484,2,0,P|177:127|168:162,1,71.9999978027344,8|0,0:0|0:0,0:0:0:0:
160,256,49939,2,0,L|100:200,1,71.9999978027344
88,56,50394,6,0,P|47:88|43:141,2,107.999996704102
224,72,51303,2,0,L|272:136,1,71.9999978027344,8|0,0:0|0:0,0:0:0:0:
336,192,51757,2,0,L|340:120,1,71.9999978027344
428,64,52211,1,0,0:0:0:0:
428,176,52439,2,0,L|471:233,1,71.9999978027344,8|0,0:0|0:0,0:0:0:0:
328,340,52894,1,0,0:0:0:0:
336,328,53121,2,0,L|388:268,1,75.9999979705811,8|0,0:0|0:0,0:0:0:0:
280,152,53575,6,0,L|312:236,1,80,8|8,0:0|0:0,0:0:0:0:
308,244,53916,1,0,0:0:0:0:
303,264,54030,2,0,P|270:285|232:298,1,80,4|0,0:0|0:0,0:0:0:0:
96,216,54484,2,0,P|113:251|139:282,1,80
336,280,54939,2,0,P|302:301|264:314,1,80,8|0,0:0|0:0,0:0:0:0:
128,231,55393,2,0,P|145:266|171:297,1,80
354,324,55848,6,0,P|384:296|404:256,1,80
480,264,56303,2,0,P|470:212|442:165,1,80
404,60,56757,2,0,P|400:104|380:144,1,80,8|0,0:0|0:0,0:0:0:0:
284,168,57212,5,0,0:0:0:0:
286,176,57439,2,0,L|306:280,1,80,8|0,0:0|0:0,0:0:0:0:
360,332,57894,2,0,L|384:248,1,80
212,184,58348,1,0,0:0:0:0:
216,196,58575,2,0,L|232:284,2,80,8|0|0,0:0|0:0|0:0,0:0:0:0:
152,92,59257,5,8,0:0:0:0:
140,88,59484,2,0,L|68:48,2,80
140,234,60166,1,0,0:0:0:0:
139,245,60394,2,0,P|107:288|74:305,1,80,8|0,0:0|0:0,0:0:0:0:
16,152,60848,2,0,P|35:117|66:92,1,80,8|0,0:0|0:0,0:0:0:0:
152,168,61303,6,0,P|200:201|216:258,1,120,4|0,0:0|0:0,0:0:0:0:
168,364,61757,1,0,0:0:0:0:
312,304,61984,1,0,0:0:0:0:
320,292,62212,2,0,P|345:256|344:212,1,80,8|0,0:0|0:0,0:0:0:0:
428,200,62666,2,0,P|439:240|484:264,1,80
456,344,63121,1,0,0:0:0:0:
448,336,63348,2,0,P|405:330|367:362,1,80
432,192,63803,1,0,0:0:0:0:
427,200,64030,2,0,P|437:238|469:261,1,80,8|0,0:0|0:0,0:0:0:0:
500,144,64484,5,0,0:0:0:0:
492,128,64712,2,0,P|472:96|428:80,1,80,8|0,0:0|0:0,0:0:0:0:
311,160,65166,2,0,P|344:140|384:144,2,80
249,207,65848,1,8,0:0:0:0:
109,164,66075,2,0,L|168:220,1,80
243,310,66530,1,8,0:0:0:0:
255,284,66757,2,0,P|261:238|239:193,1,80
168,304,67212,2,0,L|96:364,1,80
56,336,67666,5,8,0:0:0:0:
100,184,67894,1,0,0:0:0:0:
4,264,68121,1,8,0:0:0:0:
200,272,68348,1,0,0:0:0:0:
150,124,68575,6,0,P|118:148|99:183,1,80,4|0,0:0|0:0,0:0:0:0:
248,132,69030,2,0,P|279:156|298:191,1,80
272,312,69484,1,8,0:0:0:0:
392,368,69712,2,0,P|423:343|442:308,1,80
428,196,70166,2,0,L|376:272,1,80
352,92,70621,2,0,L|352:180,1,80
348,332,71075,1,0,0:0:0:0:
480,112,71303,1,8,0:0:0:0:
480,112,71984,5,8,0:0:0:0:
382,262,72212,2,0,L|426:195,2,80
292,300,72894,1,0,0:0:0:0:
352,172,73121,2,0,L|352:92,2,80,8|0|0,0:0|0:0|0:0,0:0:0:0:
436,24,73803,1,8,0:0:0:0:
272,140,74030,2,0,L|200:68,2,80
260,260,74712,1,0,0:0:0:0:
183,175,74939,2,0,L|104:172,1,80,8|0,0:0|0:0,0:0:0:0:
136,252,75394,2,0,L|100:332,1,80,8|0,0:0|0:0,0:0:0:0:
43,215,75848,6,0,P|33:158|112:88,1,160,4|0,0:0|0:0,0:0:0:0:
240,44,76530,1,0,0:0:0:0:
227,52,76757,2,0,P|197:76|181:113,1,80,8|0,0:0|0:0,0:0:0:0:
200,264,77212,1,0,0:0:0:0:
220,259,77439,2,0,P|250:235|266:198,1,80
328,44,77894,2,0,P|358:68|374:105,1,80
360,224,78348,1,0,0:0:0:0:
235,76,78575,2,0,P|196:68|156:80,2,80,8|0|0,0:0|0:0|0:0,0:0:0:0:
256,100,79257,5,8,0:0:0:0:
252,224,79484,2,0,P|287:251|328:256,2,80
188,96,80166,1,0,0:0:0:0:
84,252,80394,1,8,0:0:0:0:
40,100,80621,1,0,0:0:0:0:
252,224,80848,1,8,0:0:0:0:
56,336,81075,5,0,0:0:0:0:
256,344,81303,1,0,0:0:0:0:
260,132,81530,1,8,0:0:0:0:
96,308,81757,1,0,0:0:0:0:
324,244,82212,5,8,0:0:0:0:
144,144,82439,1,0,0:0:0:0:
298,99,82666,1,8,0:0:0:0:
323,129,82779,1,8,0:0:0:0:
337,166,82893,1,0,0:0:0:0:
337,206,83006,1,0,0:0:0:0:
323,243,83121,1,4,0:0:0:0:
256,192,83234,12,0,84484,0:0:0:0:
268,332,84939,5,12,0:0:0:0:
64,136,85166,1,12,0:0:0:0:
192,116,85621,1,0,0:0:0:0:
184,136,85848,2,0,P|182:175|196:212,1,80,8|0,0:0|0:0,0:0:0:0:
284,319,86303,2,0,P|311:291|326:254,1,80,8|0,0:0|0:0,0:0:0:0:
312,36,86757,6,0,B|344:88|336:144|336:144|300:132|274:150,1,176.000005371094,12|0,0:0|0:0,0:0:0:0:
216,204,87439,1,0,0:0:0:0:
272,32,87666,1,8,0:0:0:0:
88,40,87894,1,0,0:0:0:0:
8,164,88121,2,0,L|28:208,1,44.0000013427735
52,184,88348,2,0,P|86:227|138:232,1,88.000002685547
239,175,88803,2,0,P|216:139|175:125,1,88.000002685547,8|0,0:0|0:0,0:0:0:0:
280,48,89257,5,0,0:0:0:0:
320,144,89484,2,0,L|404:172,1,88.000002685547,8|0,0:0|0:0,0:0:0:0:
228,224,89939,2,0,L|144:272,1,88.000002685547
264,308,90394,2,0,P|348:324|427:288,1,176.000005371094
476,156,91075,1,0,0:0:0:0:
268,312,91303,1,8,0:0:0:0:
464,264,91530,1,0,0:0:0:0:
368,164,91757,2,0,L|327:146,1,44.0000013427735
327,135,91984,2,0,P|303:99|295:56,1,88.000002685547
436,180,92439,2,0,P|460:216|467:259,1,88.000002685547,8|0,0:0|0:0,0:0:0:0:
368,292,92894,5,0,0:0:0:0:
352,284,93121,2,0,P|312:248|296:204,1,88.000002685547,8|0,0:0|0:0,0:0:0:0:
248,80,93575,2,0,P|208:112|192:152,1,88.000002685547
164,268,94030,2,0,B|193:297|197:345|197:345|245:323|288:331,1,176.000005371094
224,216,94712,1,0,0:0:0:0:
208,200,94939,2,0,P|156:192|104:216,1,88.000002685547,8|0,0:0|0:0,0:0:0:0:
40,328,95394,1,0,0:0:0:0:
60,344,95621,2,0,P|112:352|164:328,1,88.000002685547
284,288,96075,2,0,L|230:218,1,88.000002685547,8|0,0:0|0:0,0:0:0:0:
124,64,96530,2,0,L|172:137,1,88.000002685547,0|8,0:0|0:0,0:0:0:0:
328,104,96984,6,0,L|252:148,1,88.000002685547
128,192,97439,1,0,0:0:0:0:
124,276,97666,2,0,L|64:352,2,88.000002685547
224,192,98348,1,0,0:0:0:0:
69,345,98575,2,0,P|103:304|108:264,1,88.000002685547,8|0,0:0|0:0,0:0:0:0:
64,192,99030,5,0,0:0:0:0:
52,176,99257,2,0,P|67:113|94:97,1,88.000002685547
228,68,99712,1,8,0:0:0:0:
196,160,99939,1,0,0:0:0:0:
252,248,100166,1,0,0:0:0:0:
380,288,100394,1,8,0:0:0:0:
351,320,100507,1,0,0:0:0:0:
313,343,100621,1,0,0:0:0:0:
270,352,100734,1,0,0:0:0:0:
226,347,100848,1,8,0:0:0:0:
64,204,101075,5,0,0:0:0:0:
52,184,101303,2,0,P|64:136|100:104,1,88.000002685547,12|0,0:0|0:0,0:0:0:0:
156,216,101757,2,0,P|144:264|108:296,2,88.000002685547,0|0|8,0:0|0:0|0:0,0:0:0:0:
112,120,102439,1,0,0:0:0:0:
104,104,102666,2,0,P|112:61|142:29,1,88.000002685547
232,80,103121,2,0,L|272:164,1,88.000002685547,0|8,0:0|0:0,0:0:0:0:
368,200,103575,1,0,0:0:0:0:
360,212,103803,2,0,L|300:284,1,88.000002685547,0|8,0:0|0:0,0:0:0:0:
203,316,104257,2,0,P|164:334|140:370,2,88.000002685547
303,279,104939,6,0,P|335:239|343:199,1,88.000002685547
236,92,105394,1,0,0:0:0:0:
232,100,105621,2,0,L|176:180,1,88.000002685547,0|8,0:0|0:0,0:0:0:0:
277,194,106075,2,0,L|305:286,1,88.000002685547
192,300,106530,2,0,P|152:332|100:344,1,88.000002685547
48,244,106984,1,8,0:0:0:0:
72,128,107212,2,0,L|124:48,1,88.000002685547
196,136,107666,1,8,0:0:0:0:
208,260,107894,2,0,P|248:228|300:216,1,88.000002685547
368,288,108348,1,0,0:0:0:0:
464,232,108575,6,0,B|456:128|456:128|410:72,1,176.000005371094
272,28,109257,2,0,P|244:68|239:109,1,88.000002685547,0|8,0:0|0:0,0:0:0:0:
344,180,109712,1,0,0:0:0:0:
339,192,109939,2,0,P|316:228|278:249,1,88.000002685547
120,236,110394,2,0,L|180:304,1,88.000002685547,12|0,0:0|0:0,0:0:0:0:
288,317,110848,5,0,0:0:0:0:
393,202,111075,1,8,0:0:0:0:
267,129,111303,1,0,0:0:0:0:
375,275,111530,1,0,0:0:0:0:
389,81,111757,1,4,0:0:0:0:
247,223,111984,1,0,0:0:0:0:
483,164,112212,1,12,0:0:0:0:
256,192,112325,12,0,115848,0:0:0:0:
204,112,119484,6,0,P|240:144|248:184,1,80
232,320,119939,1,0,0:0:0:0:
224,312,120166,2,0,P|188:284|176:248,1,80,0|8,0:0|0:0,0:0:0:0:
96,188,120621,2,0,P|104:144|92:104,2,80,0|0|8,0:0|0:0|0:0,0:0:0:0:
112,325,121303,2,0,P|132:285|176:257,1,80
296,208,121757,1,0,0:0:0:0:
304,212,121984,2,0,P|344:236|360:268,1,80,0|8,0:0|0:0,0:0:0:0:
456,352,122439,2,0,L|463:272,2,80,0|0|8,0:0|0:0|0:0,0:0:0:0:
328,328,123121,6,0,B|280:316|280:316|260:276,1,80
232,160,123575,1,0,0:0:0:0:
235,148,123803,2,0,B|236:116|236:116|216:80|204:84,1,80,0|8,0:0|0:0,0:0:0:0:
112,196,124257,2,0,L|95:274,2,80,0|0|8,0:0|0:0|0:0,0:0:0:0:
152,120,124939,6,0,L|228:72,1,80
176,232,125394,2,0,L|160:312,1,80
232,152,125848,2,0,L|312:112,1,80,8|0,0:0|0:0,0:0:0:0:
248,264,126303,2,0,L|255:343,1,80,8|0,0:0|0:0,0:0:0:0:
276,356,126644,1,0,0:0:0:0:
296,360,126757,6,0,P|347:331|375:279,1,120,4|0,0:0|0:0,0:0:0:0:
303,116,127439,1,0,0:0:0:0:
295,124,127666,2,0,P|277:154|274:189,1,71.9999978027344,8|0,0:0|0:0,0:0:0:0:
192,320,128121,2,0,L|256:272,1,71.9999978027344
348,248,128575,6,0,P|356:195|392:156,2,107.999996704102
488,296,129484,2,0,L|472:224,1,71.9999978027344,8|0,0:0|0:0,0:0:0:0:
392,128,129939,2,0,L|380:199,1,71.9999978027344
360,232,130280,1,0,0:0:0:0:
328,240,130394,6,0,P|279:219|255:172,1,107.999996704102
360,92,131075,1,0,0:0:0:0:
365,102,131303,2,0,L|384:172,1,71.9999978027344,8|0,0:0|0:0,0:0:0:0:
252,236,131757,2,0,L|276:160,1,71.9999978027344
292,72,132212,6,0,P|253:35|201:30,2,107.999996704102
288,96,133007,1,0,0:0:0:0:
255,120,133121,2,0,P|220:120|189:102,1,71.9999978027344,8|0,0:0|0:0,0:0:0:0:
187,192,133575,2,0,P|173:224|170:260,1,71.9999978027344
88,343,134030,6,0,B|100:296|100:296|72:244,2,107.999996704102
28,180,134939,2,0,L|80:120,1,71.9999978027344,8|0,0:0|0:0,0:0:0:0:
120,184,135394,2,0,L|156:252,1,71.9999978027344
224,328,135848,6,0,P|274:347|327:345,2,107.999996704102
208,296,136644,1,0,0:0:0:0:
220,255,136757,2,0,P|239:226|240:188,1,71.9999978027344,8|0,0:0|0:0,0:0:0:0:
192,88,137212,2,0,P|156:112|132:148,1,71.9999978027344
240,190,137666,6,0,P|287:162|344:160,2,107.999996704102
292,280,138575,2,0,L|360:302,1,71.9999978027344,8|0,0:0|0:0,0:0:0:0:
376,232,139030,2,0,L|440:199,1,71.9999978027344
480,128,139484,6,0,P|434:99|381:101,2,107.999996704102
424,240,140394,5,8,0:0:0:0:
336,324,140621,1,0,0:0:0:0:
216,324,140848,5,8,0:0:0:0:
228,160,141075,1,0,0:0:0:0:
160,88,141303,6,0,P|184:48|248:32,2,107.999996704102,4|0|0,0:0|0:0|0:0,0:0:0:0:
188,112,142098,1,0,0:0:0:0:
204,148,142212,2,0,P|182:181|152:200,1,71.9999978027344,8|0,0:0|0:0,0:0:0:0:
296,168,142666,2,0,P|312:136|342:117,1,71.9999978027344
460,140,143121,2,0,P|464:192|440:248,1,107.999996704102
392,356,143575,1,0,0:0:0:0:
376,336,143803,6,0,P|352:300|352:268,1,71.9999978027344,0|8,0:0|0:0,0:0:0:0:
383,183,144257,2,0,P|313:194|270:250,1,143.999995605469
240,332,145166,2,0,B|216:316|194:275|194:275|172:316|141:324,1,143.999995605469
8,176,146075,2,0,B|84:176|124:240|124:240|80:260|64:304,1,215.999993408203
8,248,147098,1,0,0:0:0:0:
96,112,147439,1,0,0:0:0:0:
180,232,147666,6,0,P|184:284|172:312,1,71.9999978027344,8|0,0:0|0:0,0:0:0:0:
116,148,148121,2,0,P|93:195|94:225,1,71.9999978027344
88,120,148462,1,0,0:0:0:0:
68,128,148575,2,0,P|39:173|32:232,1,107.999996704102
92,312,149257,5,0,0:0:0:0:
104,324,149484,2,0,P|132:344|168:348,1,71.9999978027344,8|0,0:0|0:0,0:0:0:0:
272,284,149939,2,0,P|269:248|252:212,1,71.9999978027344
192,108,150394,2,0,P|140:148|128:200,2,107.999996704102
232,96,151189,1,0,0:0:0:0:
272,104,151303,2,0,P|301:127|320:164,1,71.9999978027344,8|0,0:0|0:0,0:0:0:0:
224,220,151757,2,0,P|195:243|176:280,1,71.9999978027344
295,331,152212,6,0,P|346:317|375:273,1,107.999996704102
456,120,152894,1,0,0:0:0:0:
440,242,153121,2,0,L|372:274,1,71.9999978027344,8|0,0:0|0:0,0:0:0:0:
272,164,153575,2,0,L|340:184,1,71.9999978027344,8|0,0:0|0:0,0:0:0:0:
444,60,154030,5,0,0:0:0:0:
432,64,154257,2,0,L|364:96,1,71.9999978027344,8|0,0:0|0:0,0:0:0:0:
276,240,154712,1,0,0:0:0:0:
288,244,154939,2,0,L|356:264,1,71.9999978027344,8|0,0:0|0:0,0:0:0:0:
324,112,155394,1,8,0:0:0:0:
176,56,155621,5,8,0:0:0:0:
151,87,155734,1,8,0:0:0:0:
139,124,155848,2,0,P|133:164|145:202,1,80,4|0,0:0|0:0,0:0:0:0:
212,168,156303,2,0,P|217:207|205:245,1,80
290,325,156757,2,0,P|278:287|284:248,1,80,8|0,0:0|0:0,0:0:0:0:
348,204,157212,2,0,P|358:242|351:281,1,80
148,248,157666,6,0,L|108:168,1,80
148,84,158121,2,0,L|188:164,1,80
208,168,158462,1,0,0:0:0:0:
232,172,158575,2,0,L|309:152,1,80,8|0,0:0|0:0,0:0:0:0:
436,24,159030,1,0,0:0:0:0:
435,36,159257,2,0,L|392:104,1,80,8|0,0:0|0:0,0:0:0:0:
313,204,159712,5,0,0:0:0:0:
224,272,159939,1,0,0:0:0:0:
134,236,160166,1,0,0:0:0:0:
128,134,160394,1,8,0:0:0:0:
134,115,160621,5,0,0:0:0:0:
140,217,160849,1,0,0:0:0:0:
230,252,161076,1,8,0:0:0:0:
319,185,161303,1,0,0:0:0:0:
319,169,161530,5,0,0:0:0:0:
230,236,161757,1,0,0:0:0:0:
140,201,161984,1,0,0:0:0:0:
134,99,162212,5,8,0:0:0:0:
230,252,162439,1,0,0:0:0:0:
140,184,162666,5,8,0:0:0:0:
319,185,162894,1,0,0:0:0:0:
252,56,163121,6,0,P|214:42|174:41,1,80,4|0,0:0|0:0,0:0:0:0:
109,96,163575,1,0,0:0:0:0:
121,108,163803,2,0,P|141:160|137:192,1,80,0|8,0:0|0:0,0:0:0:0:
64,316,164257,2,0,P|112:324|148:304,1,80
200,172,164712,2,0,P|180:228|196:272,1,80
279,367,165166,2,0,P|257:334|229:306,1,80
108,204,165621,1,0,0:0:0:0:
99,221,165848,2,0,P|90:259|97:299,1,80,8|0,0:0|0:0,0:0:0:0:
184,132,166303,1,0,0:0:0:0:
196,144,166530,2,0,P|223:172|234:210,1,80,8|0,0:0|0:0,0:0:0:0:
104,184,166984,6,0,P|72:152|56:112,1,80
188,128,167439,2,0,P|203:88|232:64,1,80,0|8,0:0|0:0,0:0:0:0:
296,148,167894,2,0,P|336:148|384:172,1,80
428,300,168348,1,8,0:0:0:0:
416,304,168575,2,0,P|376:304|339:288,1,80
296,148,169030,2,0,P|256:147|219:163,1,80
156,272,169484,5,8,0:0:0:0:
296,148,169712,1,0,0:0:0:0:
136,152,169939,1,8,0:0:0:0:
336,288,170166,1,0,0:0:0:0:
216,208,170394,6,0,L|136:240,1,80,4|0,0:0|0:0,0:0:0:0:
300,260,170848,1,0,0:0:0:0:
156,245,171075,2,0,L|100:310,1,80,0|8,0:0|0:0,0:0:0:0:
76,208,171530,2,0,L|48:132,1,80
72,24,171984,2,0,P|111:28|144:50,1,80
260,84,172439,2,0,P|220:88|187:110,1,80
124,224,172894,1,0,0:0:0:0:
288,152,173121,2,0,L|200:192,1,80,8|0,0:0|0:0,0:0:0:0:
144,224,173575,5,0,0:0:0:0:
289,294,173803,2,0,L|211:257,1,80,8|0,0:0|0:0,0:0:0:0:
144,224,174257,1,0,0:0:0:0:
92,120,174484,1,0,0:0:0:0:
168,40,174712,1,0,0:0:0:0:
280,56,174939,2,0,P|308:108|304:136,1,80,8|0,0:0|0:0,0:0:0:0:
256,224,175394,5,0,0:0:0:0:
308,320,175621,1,8,0:0:0:0:
420,304,175848,2,0,L|467:219,1,80
448,116,176303,1,0,0:0:0:0:
356,52,176530,1,0,0:0:0:0:
236,56,176757,2,0,P|197:64|168:91,2,80,8|0|8,0:0|0:0|0:0,0:0:0:0:
332,148,177439,1,0,0:0:0:0:
240,248,177666,6,0,P|220:292|220:336,1,80,4|0,0:0|0:0,0:0:0:0:
332,280,178121,1,0,0:0:0:0:
348,268,178348,2,0,P|376:232|376:188,1,80,0|8,0:0|0:0,0:0:0:0:
312,72,178803,2,0,L|268:144,1,80
392,168,179257,2,0,L|432:244,1,80
264,252,179712,2,0,P|239:292|208:312,1,80
60,328,180166,2,0,P|84:287|116:268,1,80,0|8,0:0|0:0,0:0:0:0:
268,232,180621,1,0,0:0:0:0:
276,212,180848,2,8,P|284:172|272:124,1,80,0|8,0:0|0:0,0:0:0:0:
184,24,181303,6,0,L|136:104,1,80
228,128,181757,1,0,0:0:0:0:
237,141,181984,2,0,L|275:211,1,80,0|8,0:0|0:0,0:0:0:0:
316,276,182439,1,0,0:0:0:0:
159,100,182666,1,8,0:0:0:0:
324,180,182894,6,0,P|325:237|303:262,1,80
136,288,183348,1,8,0:0:0:0:
168,88,183575,1,0,0:0:0:0:
60,136,184030,5,8,0:0:0:0:
240,264,184257,1,0,0:0:0:0:
268,72,184484,1,8,0:0:0:0:
294,42,184597,1,8,0:0:0:0:
330,26,184711,1,0,0:0:0:0:
370,27,184824,1,0,0:0:0:0:
405,45,184939,1,4,0:0:0:0:
256,192,185053,12,0,186303,0:0:0:0:
268,332,186757,5,12,0:0:0:0:
448,136,186984,1,12,0:0:0:0:
326,253,187439,2,0,P|311:290|284:319,1,80,0|8,0:0|0:0,0:0:0:0:
196,212,187894,2,0,P|182:175|184:136,1,80,0|8,0:0|0:0,0:0:0:0:
244,40,188348,1,0,0:0:0:0:
376,96,188575,6,0,B|429:141|430:106|389:124|413:161|404:214|345:231,1,176.000005371094,12|0,0:0|0:0,0:0:0:0:
224,276,189257,1,0,0:0:0:0:
248,108,189484,2,0,L|325:150,1,88.000002685547,8|0,0:0|0:0,0:0:0:0:
388,200,189939,2,0,P|376:216|348:232,1,44.0000013427735
340,232,190166,2,0,P|296:284|288:320,1,88.000002685547
424,268,190621,1,8,0:0:0:0:
436,259,190848,2,0,P|462:224|470:181,1,88.000002685547
463,67,191303,2,0,P|429:41|386:31,1,88.000002685547,8|0,0:0|0:0,0:0:0:0:
264,92,191757,2,0,L|352:124,1,88.000002685547
364,144,192098,1,0,0:0:0:0:
360,168,192212,6,0,P|348:216|308:248,2,88.000002685547
264,92,192894,2,0,P|272:49|302:18,2,88.000002685547,0|8|0,0:0|0:0|0:0,0:0:0:0:
321,241,193575,1,0,0:0:0:0:
212,188,193803,2,0,P|170:201|142:234,1,88.000002685547
112,348,194257,1,8,0:0:0:0:
32,216,194484,2,0,L|56:128,1,88.000002685547
160,100,194939,5,8,0:0:0:0:
40,144,195166,1,0,0:0:0:0:
184,84,195394,1,0,0:0:0:0:
100,256,195621,1,0,0:0:0:0:
160,172,195848,2,0,P|208:200|224:240,1,88.000002685547
196,320,196303,1,0,0:0:0:0:
296,324,196530,2,0,L|388:344,1,88.000002685547,0|8,0:0|0:0,0:0:0:0:
475,227,196984,2,0,L|392:256,1,88.000002685547
248,184,197439,6,0,P|269:222|316:252,1,88.000002685547
400,104,197894,2,0,P|378:142|343:167,1,88.000002685547,8|0,0:0|0:0,0:0:0:0:
248,184,198348,2,0,P|208:199|177:230,1,88.000002685547,0|8,0:0|0:0,0:0:0:0:
120,320,198803,1,0,0:0:0:0:
64,224,199030,2,0,P|40:180|40:136,2,88.000002685547
204,168,199712,5,0,0:0:0:0:
212,175,199939,2,0,P|243:206|256:248,1,88.000002685547
312,312,200394,1,8,0:0:0:0:
320,304,200621,2,0,P|350:273|363:231,1,88.000002685547
239,184,201075,2,0,P|226:225|200:261,1,88.000002685547
120,320,201530,1,8,0:0:0:0:
107,148,201757,2,0,P|92:188|96:232,1,88.000002685547
116,280,202098,5,0,0:0:0:0:
148,299,202212,1,8,0:0:0:0:
191,294,202325,1,8,0:0:0:0:
228,271,202439,1,0,0:0:0:0:
248,232,202552,1,0,0:0:0:0:
253,189,202666,1,8,0:0:0:0:
140,104,202894,1,0,0:0:0:0:
37,240,203121,6,0,L|117:280,1,88.000002685547,12|0,0:0|0:0,0:0:0:0:
253,189,203575,1,0,0:0:0:0:
120,224,203803,2,0,L|208:213,1,88.000002685547,0|8,0:0|0:0,0:0:0:0:
288,56,204257,2,0,P|240:64|204:88,1,88.000002685547
312,148,204712,2,0,P|360:140|396:116,1,88.000002685547
480,104,205166,2,0,L|440:192,1,88.000002685547,8|0,0:0|0:0,0:0:0:0:
400,292,205621,2,0,L|372:196,1,88.000002685547,0|8,0:0|0:0,0:0:0:0:
328,28,206075,1,0,0:0:0:0:
336,40,206303,2,0,P|333:83|313:121,1,88.000002685547
248,188,206757,6,0,P|227:226|225:269,1,88.000002685547
208,344,207212,1,0,0:0:0:0:
196,336,207439,2,0,P|158:302|154:261,1,88.000002685547,0|8,0:0|0:0,0:0:0:0:
68,196,207894,2,0,L|85:282,1,88.000002685547
152,104,208348,2,0,L|152:200,1,88.000002685547
153,266,208803,1,8,0:0:0:0:
284,168,209030,2,0,L|204:232,1,88.000002685547
153,266,209484,1,8,0:0:0:0:
300,312,209712,2,0,P|257:322|215:312,2,88.000002685547
368,236,210394,6,0,P|335:151|272:96,1,176.000005371094
160,132,211075,1,0,0:0:0:0:
249,165,211303,2,0,P|281:194|298:234,1,88.000002685547,8|0,0:0|0:0,0:0:0:0:
172,372,211757,1,0,0:0:0:0:
232,324,211984,2,0,P|237:280|224:239,1,88.000002685547,8|0,0:0|0:0,0:0:0:0:
156,188,212439,2,0,P|195:205|224:238,1,88.000002685547
232,324,212894,1,8,0:0:0:0:
260,156,213121,2,0,P|287:121|326:103,1,88.000002685547
480,72,213575,1,8,0:0:0:0:
444,252,213803,1,0,0:0:0:0:
248,180,214030,6,0,L|328:156,1,80,4|0,0:0|0:0,0:0:0:0:
308,256,214484,2,8,L|272:328,1,80,0|8,0:0|0:0,0:0:0:0:
200,252,214939,1,0,0:0:0:0:
68,112,215166,1,0,0:0:0:0:
84,104,215394,2,0,P|136:124|156:156,1,80,4|0,0:0|0:0,0:0:0:0:
120,260,215848,2,0,L|88:184,1,80,0|8,0:0|0:0,0:0:0:0:
148,48,216303,1,0,0:0:0:0:
208,240,216530,1,0,0:0:0:0:
320,136,216757,2,0,P|341:99|330:52,1,80,8|0,0:0|0:0,0:0:0:0:
420,120,217212,2,0,B|464:276|464:272,1,151.999995941162,12|0,0:0|0:0,0:0:0:0:
424,356,217894,5,0,0:0:0:0:
309,301,218121,2,0,L|360:244,1,75.9999979705811
328,96,218575,1,8,0:0:0:0:
312,104,218803,2,0,P|272:144|264:172,1,75.9999979705811,0|8,0:0|0:0,0:0:0:0:
208,312,219257,1,0,0:0:0:0:
72,160,219484,2,0,L|122:217,1,75.9999979705811,0|8,0:0|0:0,0:0:0:0:
224,320,219939,1,0,0:0:0:0:
204,88,220166,1,0,0:0:0:0:
204,104,220394,2,0,L|212:196,1,80,8|0,0:0|0:0,0:0:0:0:
236,336,220848,5,8,0:0:0:0:
271,318,220961,1,8,0:0:0:0:
299,290,221075,1,8,0:0:0:0:
317,254,221188,1,8,0:0:0:0:
321,214,221303,1,4,0:0:0:0:
224,144,221530,1,0,0:0:0:0:
248,144,221757,2,0,P|292:168|316:204,1,80,0|8,0:0|0:0,0:0:0:0:
216,232,222212,2,0,L|177:307,1,80
120,196,222666,6,0,B|88:156|91:122,1,80,4|0,0:0|0:0,0:0:0:0:
184,44,223121,2,0,L|164:140,1,80,0|8,0:0|0:0,0:0:0:0:
272,196,223575,1,0,0:0:0:0:
280,176,223803,2,0,L|249:82,1,80,0|8,0:0|0:0,0:0:0:0:
340,28,224257,1,0,0:0:0:0:
432,104,224484,6,0,P|450:175|411:238,1,151.999995941162,4|0,0:0|0:0,0:0:0:0:
340,172,225166,1,0,0:0:0:0:
332,163,225394,2,0,P|304:137|268:128,1,75.9999979705811
268,232,225848,2,0,L|312:296,1,75.9999979705811,8|0,0:0|0:0,0:0:0:0:
220,300,226303,2,0,L|180:376,1,75.9999979705811,8|0,0:0|0:0,0:0:0:0:
128,264,226757,5,0,0:0:0:0:
116,256,226984,2,0,P|80:204|80:176,1,80,8|0,0:0|0:0,0:0:0:0:
220,160,227439,1,0,0:0:0:0:
230,165,227666,2,0,P|266:217|266:245,1,80,8|0,0:0|0:0,0:0:0:0:
204,328,228121,1,8,0:0:0:0:
165,339,228234,1,0,0:0:0:0:
127,350,228348,1,0,0:0:0:0:
87,348,228461,1,0,0:0:0:0:
47,345,228575,5,12,0:0:0:0:
144,148,228803,1,0,0:0:0:0:
140,284,229030,1,0,0:0:0:0:
32,196,229257,1,8,0:0:0:0:
104,44,229484,1,0,0:0:0:0:
224,220,229712,1,0,0:0:0:0:
232,212,229939,6,0,P|252:177|257:138,1,80,12|0,0:0|0:0,0:0:0:0:
196,16,230394,1,0,0:0:0:0:
144,160,230621,1,8,0:0:0:0:
284,280,230848,1,0,0:0:0:0:
257,138,231075,1,0,0:0:0:0:
224,220,231303,2,0,P|206:255|176:282,1,80,8|0,0:0|0:0,0:0:0:0:
296,264,231757,6,0,B|332:212|376:204|376:204|398:248,1,151.999995941162,4|0,0:0|0:0,0:0:0:0:
460,316,232439,1,0,0:0:0:0:
468,304,232666,2,0,L|480:224,1,75.9999979705811
356,212,233121,2,0,B|312:232|287:273,1,75.9999979705811,8|0,0:0|0:0,0:0:0:0:
264,344,233575,1,8,0:0:0:0:
172,212,233803,1,0,0:0:0:0:
376,216,234030,1,0,0:0:0:0:
356,336,234257,5,8,0:0:0:0:
337,300,234370,1,0,0:0:0:0:
307,274,234484,1,8,0:0:0:0:
270,259,234598,1,8,0:0:0:0:
163,315,234939,6,0,P|147:304|135:288,1,40,8|0,0:0|0:0,0:0:0:0:
128,256,235166,1,8,0:0:0:0:
140,216,235280,1,8,0:0:0:0:
164,188,235394,2,0,P|188:165|240:161,1,80
268,172,235734,1,8,0:0:0:0:
296,192,235848,6,0,P|320:215|372:219,1,80,4|0,0:0|0:0,0:0:0:0:
412,148,236303,2,0,L|376:76,2,80,0|8|0,0:0|0:0|0:0,0:0:0:0:
396,288,236984,1,0,0:0:0:0:
387,300,237212,2,0,P|347:303|310:288,1,80,4|0,0:0|0:0,0:0:0:0:
256,200,237666,2,0,P|295:196|332:211,1,80,0|8,0:0|0:0,0:0:0:0:
392,288,238121,1,0,0:0:0:0:
444,156,238348,1,0,0:0:0:0:
435,143,238575,2,0,P|412:112|376:96,1,80,8|0,0:0|0:0,0:0:0:0:
256,200,239030,2,0,L|223:348,1,151.999995941162,4|0,0:0|0:0,0:0:0:0:
104,264,239712,5,0,0:0:0:0:
95,251,239939,2,0,P|88:214|100:178,1,75.9999979705811
208,140,240394,2,0,P|234:168|240:216,1,75.9999979705811,8|0,0:0|0:0,0:0:0:0:
247,320,240848,2,0,P|270:289|302:269,1,75.9999979705811,8|0,0:0|0:0,0:0:0:0:
448,312,241303,6,0,P|423:281|386:267,1,80,8|0,0:0|0:0,0:0:0:0:
228,212,241757,1,0,0:0:0:0:
236,204,241984,2,0,L|300:148,1,83.9999974365235,8|0,0:0|0:0,0:0:0:0:
440,24,242439,1,0,0:0:0:0:
448,36,242666,2,0,L|428:132,1,88.000002685547,8|0,0:0|0:0,0:0:0:0:
408,288,243121,1,0,0:0:0:0:
420,292,243348,2,0,P|452:326|471:368,2,92.0000017547608,8|8|0,0:0|0:0|0:0,0:0:0:0:
364,216,244030,2,0,P|317:189|298:147,1,95.9999970703126,8|8,0:0|0:0,0:0:0:0:
308,120,244371,1,0,0:0:0:0:
288,88,244484,2,0,P|244:105|214:142,1,95.9999970703126,8|0,0:0|0:0,0:0:0:0:
128,176,244939,6,0,B|157:205|161:253|161:253|209:231|252:239,1,176.000005371094,12|0,0:0|0:0,0:0:0:0:
336,280,245621,1,0,0:0:0:0:
224,316,245848,2,0,P|182:331|128:331,1,88.000002685547,8|0,0:0|0:0,0:0:0:0:
72,264,246303,2,0,P|56:235|52:212,1,44.0000013427735
47,203,246530,2,0,P|54:160|77:123,1,88.000002685547
240,64,246984,1,8,0:0:0:0:
155,239,247212,2,0,P|123:212|132:172,1,88.000002685547
196,128,247666,1,8,0:0:0:0:
280,160,247893,1,0,0:0:0:0:
304,244,248121,1,0,0:0:0:0:
252,312,248348,1,0,0:0:0:0:
196,127,248575,6,0,P|215:88|249:61,1,88.000002685547
268,172,249030,1,0,0:0:0:0:
280,160,249257,2,0,P|323:157|364:173,2,88.000002685547,0|8|0,0:0|0:0|0:0,0:0:0:0:
168,264,249939,1,0,0:0:0:0:
64,124,250166,1,0,0:0:0:0:
59,136,250393,2,0,P|42:176|39:219,1,88.000002685547,0|8,0:0|0:0,0:0:0:0:
124,60,250848,1,0,0:0:0:0:
128,72,251075,2,0,P|145:112|148:155,1,88.000002685547,0|8,0:0|0:0,0:0:0:0:
104,216,251530,2,0,P|107:259|124:299,2,88.000002685547
136,76,252212,6,0,P|221:71|289:124,1,176.000005371094,4|0,0:0|0:0,0:0:0:0:
208,144,252893,2,0,P|236:176|238:219,1,88.000002685547,0|8,0:0|0:0,0:0:0:0:
132,268,253348,2,0,P|103:300|101:343,1,88.000002685547
60,236,253803,2,0,L|32:148,1,88.000002685547
144,48,254257,2,0,L|124:136,1,88.000002685547,8|0,0:0|0:0,0:0:0:0:
188,224,254712,1,0,0:0:0:0:
360,72,254939,1,8,0:0:0:0:
372,80,255166,2,0,P|400:107|409:145,2,80
224,136,255848,6,0,B|189:225|189:225|221:305,1,176.000005371094
320,296,256529,2,0,P|286:257|276:212,1,88.000002685547,0|8,0:0|0:0,0:0:0:0:
320,164,256984,2,0,P|286:202|276:244,1,88.000002685547
320,296,257439,2,0,P|354:315|404:316,1,88.000002685547
371,225,257893,2,0,L|312:152,1,88.000002685547,8|0,0:0|0:0,0:0:0:0:
368,72,258348,5,0,0:0:0:0:
444,208,258575,1,8,0:0:0:0:
296,144,258802,5,8,0:0:0:0:
364,304,259029,1,0,0:0:0:0:
220,208,259257,5,0,0:0:0:0:
208,384,259484,2,0,L|124:352,1,88.000002685547,4|0,0:0|0:0,0:0:0:0:
84,228,259939,1,0,0:0:0:0:
80,215,260166,2,0,P|98:180|132:144,1,88.000002685547,0|8,0:0|0:0,0:0:0:0:
128,32,260620,2,0,P|98:59|76:104,1,88.000002685547
68,232,261075,2,0,P|100:254|148:268,1,88.000002685547,8|0,0:0|0:0,0:0:0:0:
176,368,261529,2,0,P|137:358|96:328,1,88.000002685547,8|0,0:0|0:0,0:0:0:0:
60,216,261984,1,0,0:0:0:0:
184,96,262211,1,8,0:0:0:0:
196,80,262439,2,0,P|228:36|228:-4,1,88.000002685547
264,112,262893,5,0,0:0:0:0:
264,112,263120,2,0,P|280:161|305:192,2,88.000002685547
376,32,263803,2,0,P|415:35|444:72,1,88.000002685547,0|8,0:0|0:0,0:0:0:0:
400,176,264257,2,0,P|372:224|368:260,1,88.000002685547
312,344,264712,2,0,L|268:264,1,88.000002685547
216,148,265166,1,8,0:0:0:0:
120,316,265393,2,0,P|127:277|156:232,1,88.000002685547
228,136,265848,1,8,0:0:0:0:
224,124,266075,2,0,P|206:84|173:54,2,88.000002685547
288,208,266757,6,0,P|219:266|144:238,1,176.000005371094
68,88,267439,2,0,L|40:172,1,88.000002685547,0|8,0:0|0:0,0:0:0:0:
129,164,267893,2,0,L|152:248,1,88.000002685547
68,256,268348,2,0,L|36:340,1,88.000002685547
148,308,268802,1,8,0:0:0:0:
160,304,269029,2,0,P|200:276|216:224,1,88.000002685547
304,68,269484,5,8,0:0:0:0:
252,196,269711,1,0,0:0:0:0:
368,128,269939,5,0,0:0:0:0:
428,244,270166,1,0,0:0:0:0:
312,264,270393,2,0,P|260:280|316:360,1,176.000005371094,4|0,0:0|0:0,0:0:0:0:
412,256,271075,1,0,0:0:0:0:
356,140,271303,2,0,L|280:184,1,88.000002685547,8|0,0:0|0:0,0:0:0:0:
456,204,271757,1,0,0:0:0:0:
478,77,271984,2,0,L|388:64,1,88.000002685547
288,180,272439,1,8,0:0:0:0:
280,356,272666,2,0,P|306:326|312:276,1,88.000002685547
272,184,273120,5,8,0:0:0:0:
256,192,273348,2,0,L|216:272,1,88.000002685547
120,340,273802,1,0,0:0:0:0:
99,326,274030,2,0,B|68:276|76:220|76:220|96:232|140:216,1,176.000005371094
200,176,274711,2,0,P|220:140|216:88,1,88.000002685547,0|8,0:0|0:0,0:0:0:0:
168,36,275166,2,0,P|130:25|80:32,1,88.000002685547
48,104,275620,1,0,0:0:0:0:
40,124,275848,2,0,P|53:161|92:188,1,88.000002685547,0|8,0:0|0:0,0:0:0:0:
192,184,276302,1,0,0:0:0:0:
208,188,276529,2,0,P|237:214|256:260,1,88.000002685547,0|8,0:0|0:0,0:0:0:0:
320,328,276984,2,0,P|352:292|356:248,2,88.000002685547
228,344,277666,6,0,P|180:296|80:308,1,176.000005371094
8,360,278348,1,0,0:0:0:0:
24,240,278575,2,0,L|68:160,1,88.000002685547,8|0,0:0|0:0,0:0:0:0:
144,20,279029,1,0,0:0:0:0:
136,32,279257,2,0,L|92:116,1,88.000002685547
216,192,279711,1,8,0:0:0:0:
212,180,279939,2,0,L|180:80,1,88.000002685547
296,144,280393,2,0,P|328:172|336:224,1,88.000002685547,8|0,0:0|0:0,0:0:0:0:
360,296,280848,2,0,L|432:352,1,88.000002685547
400,205,281302,6,0,B|371:176|367:128|367:128|332:148|280:144,1,176.000005371094
472,168,281984,2,0,P|444:132|440:76,1,88.000002685547,0|8,0:0|0:0,0:0:0:0:
276,60,282439,2,0,P|314:69|360:48,1,88.000002685547
400,200,282893,2,0,L|368:285,1,88.000002685547,0|8,0:0|0:0,0:0:0:0:
303,127,283348,1,0,0:0:0:0:
295,143,283575,2,0,L|232:204,1,88.000002685547,0|4,0:0|0:0,0:0:0:0:
8,136,284029,6,0,L|80:192,1,88.000002685547
116,44,284484,2,0,L|160:120,1,88.000002685547,8|0,0:0|0:0,0:0:0:0:
104,288,284939,2,0,P|195:264|238:199,2,176.000005371094,4|0|8,0:0|0:0|0:0,0:0:0:0:
64,208,286075,1,0,0:0:0:0:
96,128,286303,2,0,P|84:76|56:52,1,88.000002685547,0|8,0:0|0:0,0:0:0:0:
168,64,286757,2,0,B|276:68|276:68|329:115,2,176.000005371094,0|0|8,0:0|0:0|0:0,0:0:0:0:
192,160,287893,1,0,0:0:0:0:
256,216,288120,2,0,P|288:264|288:300,1,88.000002685547,0|8,0:0|0:0,0:0:0:0:
276,364,288575,6,0,B|331:359|352:342|352:342|355:286|392:252,2,176.000005371094,0|0|8,0:0|0:0|0:0,0:0:0:0:
208,320,289711,1,0,0:0:0:0:
256,220,289939,2,0,P|301:199|340:205,1,88.000002685547,0|8,0:0|0:0,0:0:0:0:
275,111,290393,2,0,P|200:122|164:208,1,176.000005371094
60,273,291075,2,0,P|91:203|184:192,1,176.000005371094
168,272,291757,2,0,L|112:340,1,88.000002685547
228,328,292211,6,0,P|280:304|312:240,1,132.00000402832
272,120,292666,1,0,0:0:0:0:
260,132,292893,2,0,P|236:176|232:212,1,80,0|8,0:0|0:0,0:0:0:0:
352,192,293348,2,0,P|388:168|408:128,2,80,0|0|8,0:0|0:0|0:0,0:0:0:0:
259,131,294029,2,0,P|213:95|154:92,1,120
40,176,294484,1,0,0:0:0:0:
28,204,294711,2,0,L|52:284,1,80,0|8,0:0|0:0,0:0:0:0:
164,328,295166,1,0,0:0:0:0:
176,300,295393,2,0,L|152:220,1,80,0|8,0:0|0:0,0:0:0:0:
136,132,295848,6,0,B|196:108|196:108|247:128,1,120
352,180,296302,1,0,0:0:0:0:
364,172,296529,2,0,P|394:136|394:98,1,80,0|8,0:0|0:0,0:0:0:0:
296,248,296984,1,0,0:0:0:0:
284,256,297211,2,0,P|253:291|253:329,1,80,0|8,0:0|0:0,0:0:0:0:
364,316,297666,2,0,B|374:297|416:274|416:274|409:222,1,120
392,92,298120,1,0,0:0:0:0:
376,92,298348,2,0,L|316:144,1,80,0|8,0:0|0:0,0:0:0:0:
196,136,298802,1,0,0:0:0:0:
212,136,299030,2,0,L|272:84,1,80
336,160,299484,6,0,P|344:248|296:296,1,160
219,299,300166,2,0,P|142:311|87:368,1,160
28,324,300848,2,0,P|22:285|43:251,1,80,0|8,0:0|0:0,0:0:0:0:
108,192,301302,6,0,P|136:144|96:52,1,160
184,28,301984,2,0,B|260:57|260:57|294:128,1,160
224,176,302666,2,0,P|208:232|216:260,1,80,0|8,0:0|0:0,0:0:0:0:
293,295,303120,6,0,B|344:296|384:264|384:264|392:224|364:207,1,160
364,128,303802,2,0,B|312:120|273:159|273:159|265:199|293:215,1,160
365,208,304484,2,0,P|384:248|368:280,1,80,0|8,0:0|0:0,0:0:0:0:
192,304,304939,6,0,B|221:275|225:227|225:227|260:247|296:242,1,160
376,256,305620,2,0,B|347:285|343:333|343:333|308:313|271:317,1,160
224,228,306302,2,0,P|256:240|304:240,1,80
256,192,306757,12,0,312212,0:0:0:0:
