osu file format v14

[General]
AudioFilename: Tekanan Batin!!!.mp3
AudioLeadIn: 0
PreviewTime: 187212
Countdown: 0
SampleSet: Normal
StackLeniency: 0.7
Mode: 3
LetterboxInBreaks: 0
SpecialStyle: 0
WidescreenStoryboard: 1

[Editor]
Bookmarks: 17666,24939,39484,54030,68575,83121,86757,101303,112212,126757,141303,155848,170394,188575,203121,214030,228575,235848,241303,244939,259484,274030,284939,299484,306757
DistanceSpacing: 0.8
BeatDivisor: 4
GridSize: 4
TimelineZoom: 2.600005

[Metadata]
Title:Diary Depresiku
TitleUnicode:Diary Depresiku
Artist:Last Child
ArtistUnicode:Last Child
Creator:Surono
Version:Eraser's Crippling Mania Depression
Source:
Tags:bahasa indonesia indonesian pop rock we are everything grow up Nishizumi Volta Grim Rapper Eraser
BeatmapID:1225283
BeatmapSetID:350305

[Difficulty]
HPDrainRate:9.9
CircleSize:4
OverallDifficulty:0.1
ApproachRate:4
SliderMultiplier:1.6
SliderTickRate:1

[Events]
//Background and Video events
0,0,"BG.jpg",0,0
//Break Periods
//Storyboard Layer 0 (Background)
//Storyboard Layer 1 (Fail)
//Storyboard Layer 2 (Pass)
//Storyboard Layer 3 (Foreground)
//Storyboard Sound Samples

[TimingPoints]
10394,454.545454545455,4,1,1,20,1,0

[HitObjects]
64,192,10393,5,0,0:0:0:0:
192,192,10393,1,0,0:0:0:0:
320,192,10393,1,0,0:0:0:0:
448,192,10393,1,0,0:0:0:0:
64,192,10621,1,0,0:0:0:0:
320,192,10621,1,0,0:0:0:0:
64,192,10734,1,0,0:0:0:0:
448,192,10734,1,0,0:0:0:0:
192,192,10734,1,0,0:0:0:0:
448,192,10848,1,0,0:0:0:0:
320,192,10848,1,0,0:0:0:0:
192,192,11075,1,0,0:0:0:0:
64,192,11075,1,0,0:0:0:0:
448,192,11075,1,0,0:0:0:0:
64,192,11303,1,0,0:0:0:0:
192,192,11303,1,0,0:0:0:0:
320,192,11303,1,0,0:0:0:0:
448,192,11303,1,0,0:0:0:0:
320,192,11530,1,0,0:0:0:0:
64,192,11530,1,0,0:0:0:0:
320,192,11757,1,0,0:0:0:0:
192,192,11757,1,0,0:0:0:0:
64,192,11984,1,0,0:0:0:0:
192,192,11984,1,0,0:0:0:0:
448,192,11984,1,0,0:0:0:0:
320,192,11984,1,0,0:0:0:0:
192,192,12212,1,0,0:0:0:0:
64,192,12212,1,0,0:0:0:0:
448,192,12212,1,0,0:0:0:0:
448,192,12439,1,0,0:0:0:0:
192,192,12439,1,0,0:0:0:0:
64,192,12553,1,0,0:0:0:0:
320,192,12553,1,0,0:0:0:0:
448,192,12553,1,0,0:0:0:0:
64,192,12666,1,0,0:0:0:0:
192,192,12666,1,0,0:0:0:0:
64,192,12894,1,0,0:0:0:0:
320,192,12894,1,0,0:0:0:0:
448,192,12894,1,0,0:0:0:0:
64,192,13121,1,0,0:0:0:0:
192,192,13121,1,0,0:0:0:0:
320,192,13121,1,0,0:0:0:0:
448,192,13121,1,0,0:0:0:0:
192,192,13348,1,0,0:0:0:0:
448,192,13348,1,0,0:0:0:0:
192,192,13575,1,0,0:0:0:0:
320,192,13575,1,0,0:0:0:0:
64,192,13803,1,0,0:0:0:0:
192,192,13803,1,0,0:0:0:0:
320,192,13803,1,0,0:0:0:0:
448,192,13803,1,0,0:0:0:0:
64,192,14030,1,0,0:0:0:0:
320,192,14030,1,0,0:0:0:0:
448,192,14030,1,0,0:0:0:0:
64,192,14257,1,0,0:0:0:0:
448,192,14257,1,0,0:0:0:0:
320,192,14371,1,0,0:0:0:0:
64,192,14371,1,0,0:0:0:0:
192,192,14371,1,0,0:0:0:0:
320,192,14484,1,0,0:0:0:0:
448,192,14484,1,0,0:0:0:0:
320,192,14712,1,0,0:0:0:0:
64,192,14712,1,0,0:0:0:0:
192,192,14712,1,0,0:0:0:0:
64,192,14939,1,0,0:0:0:0:
192,192,14939,1,0,0:0:0:0:
320,192,14939,1,0,0:0:0:0:
448,192,14939,1,0,0:0:0:0:
448,192,15166,1,0,0:0:0:0:
64,192,15166,1,0,0:0:0:0:
448,192,15394,1,0,0:0:0:0:
192,192,15394,1,0,0:0:0:0:
320,192,15621,1,0,0:0:0:0:
192,192,15621,1,0,0:0:0:0:
64,192,15621,1,0,0:0:0:0:
448,192,15621,1,0,0:0:0:0:
192,192,15848,1,0,0:0:0:0:
64,192,15848,1,0,0:0:0:0:
320,192,15848,1,0,0:0:0:0:
64,192,16075,1,0,0:0:0:0:
320,192,16075,1,0,0:0:0:0:
320,192,16189,1,0,0:0:0:0:
448,192,16189,1,0,0:0:0:0:
192,192,16189,1,0,0:0:0:0:
64,192,16303,1,0,0:0:0:0:
192,192,16303,1,0,0:0:0:0:
192,192,16530,1,0,0:0:0:0:
320,192,16530,1,0,0:0:0:0:
448,192,16530,1,0,0:0:0:0:
64,192,16757,1,0,0:0:0:0:
192,192,16757,1,0,0:0:0:0:
448,192,16757,1,0,0:0:0:0:
320,192,16757,1,0,0:0:0:0:
64,192,16984,1,0,0:0:0:0:
448,192,16984,1,0,0:0:0:0:
64,192,17212,1,0,0:0:0:0:
320,192,17212,1,0,0:0:0:0:
64,192,17439,1,0,0:0:0:0:
192,192,17439,1,0,0:0:0:0:
64,192,17666,1,0,0:0:0:0:
192,192,17666,1,0,0:0:0:0:
320,192,17666,1,0,0:0:0:0:
448,192,17666,1,0,0:0:0:0:
320,192,17894,1,0,0:0:0:0:
448,192,17894,1,0,0:0:0:0:
64,192,18007,1,0,0:0:0:0:
192,192,18007,1,0,0:0:0:0:
448,192,18007,1,0,0:0:0:0:
320,192,18121,1,0,0:0:0:0:
192,192,18121,1,0,0:0:0:0:
192,192,18348,1,0,0:0:0:0:
448,192,18348,1,0,0:0:0:0:
64,192,18348,1,0,0:0:0:0:
192,192,18575,1,0,0:0:0:0:
64,192,18575,1,0,0:0:0:0:
448,192,18575,1,0,0:0:0:0:
320,192,18575,1,0,0:0:0:0:
320,192,18803,1,0,0:0:0:0:
192,192,18803,1,0,0:0:0:0:
320,192,19030,1,0,0:0:0:0:
64,192,19030,1,0,0:0:0:0:
320,192,19257,1,0,0:0:0:0:
192,192,19257,1,0,0:0:0:0:
64,192,19257,1,0,0:0:0:0:
448,192,19257,1,0,0:0:0:0:
64,192,19484,1,0,0:0:0:0:
192,192,19484,1,0,0:0:0:0:
448,192,19484,1,0,0:0:0:0:
64,192,19712,1,0,0:0:0:0:
448,192,19712,1,0,0:0:0:0:
320,192,19825,1,0,0:0:0:0:
64,192,19825,1,0,0:0:0:0:
192,192,19825,1,0,0:0:0:0:
320,192,19939,1,0,0:0:0:0:
448,192,19939,1,0,0:0:0:0:
64,192,20166,1,0,0:0:0:0:
192,192,20166,1,0,0:0:0:0:
320,192,20166,1,0,0:0:0:0:
192,192,20394,1,0,0:0:0:0:
64,192,20394,1,0,0:0:0:0:
320,192,20394,1,0,0:0:0:0:
448,192,20394,1,0,0:0:0:0:
448,192,20621,1,0,0:0:0:0:
192,192,20621,1,0,0:0:0:0:
448,192,20848,1,0,0:0:0:0:
64,192,20848,1,0,0:0:0:0:
64,192,21075,1,0,0:0:0:0:
320,192,21075,1,0,0:0:0:0:
192,192,21075,1,0,0:0:0:0:
448,192,21075,1,0,0:0:0:0:
320,192,21303,1,0,0:0:0:0:
192,192,21303,1,0,0:0:0:0:
64,192,21303,1,0,0:0:0:0:
64,192,21530,1,0,0:0:0:0:
320,192,21530,1,0,0:0:0:0:
192,192,21644,1,0,0:0:0:0:
320,192,21644,1,0,0:0:0:0:
448,192,21644,1,0,0:0:0:0:
64,192,21757,1,0,0:0:0:0:
192,192,21757,1,0,0:0:0:0:
192,192,21984,1,0,0:0:0:0:
320,192,21984,1,0,0:0:0:0:
448,192,21984,1,0,0:0:0:0:
64,192,22212,1,0,0:0:0:0:
192,192,22212,1,0,0:0:0:0:
448,192,22212,1,0,0:0:0:0:
320,192,22212,1,0,0:0:0:0:
64,192,22439,1,0,0:0:0:0:
320,192,22439,1,0,0:0:0:0:
64,192,22666,1,0,0:0:0:0:
448,192,22666,1,0,0:0:0:0:
64,192,22894,1,0,0:0:0:0:
192,192,22894,1,0,0:0:0:0:
320,192,22894,1,0,0:0:0:0:
448,192,22894,1,0,0:0:0:0:
192,192,23121,1,0,0:0:0:0:
320,192,23121,1,0,0:0:0:0:
448,192,23121,1,0,0:0:0:0:
64,192,23348,1,0,0:0:0:0:
192,192,23348,1,0,0:0:0:0:
64,192,23462,1,0,0:0:0:0:
448,192,23462,1,0,0:0:0:0:
320,192,23462,1,0,0:0:0:0:
192,192,23575,1,0,0:0:0:0:
448,192,23575,1,0,0:0:0:0:
64,192,23803,1,0,0:0:0:0:
320,192,23803,1,0,0:0:0:0:
448,192,23803,1,0,0:0:0:0:
64,192,24030,1,0,0:0:0:0:
192,192,24030,1,0,0:0:0:0:
448,192,24030,1,0,0:0:0:0:
320,192,24030,1,0,0:0:0:0:
192,192,24257,1,0,0:0:0:0:
320,192,24257,1,0,0:0:0:0:
64,192,24257,1,0,0:0:0:0:
192,192,24484,1,0,0:0:0:0:
448,192,24484,1,0,0:0:0:0:
320,192,24484,1,0,0:0:0:0:
64,192,24484,1,0,0:0:0:0:
64,192,24712,1,0,0:0:0:0:
320,192,24712,1,0,0:0:0:0:
448,192,24712,1,0,0:0:0:0:
64,192,24825,1,0,0:0:0:0:
192,192,24825,1,0,0:0:0:0:
448,192,24825,1,0,0:0:0:0:
320,192,24939,1,0,0:0:0:0:
192,192,24939,1,0,0:0:0:0:
448,192,24939,1,0,0:0:0:0:
64,192,24939,1,0,0:0:0:0:
448,192,25166,1,0,0:0:0:0:
192,192,25166,1,0,0:0:0:0:
320,192,25280,1,0,0:0:0:0:
64,192,25280,1,0,0:0:0:0:
192,192,25280,1,0,0:0:0:0:
320,192,25394,1,0,0:0:0:0:
448,192,25394,1,0,0:0:0:0:
64,192,25621,1,0,0:0:0:0:
192,192,25621,1,0,0:0:0:0:
320,192,25621,1,0,0:0:0:0:
192,192,25848,1,0,0:0:0:0:
64,192,25848,1,0,0:0:0:0:
320,192,25848,1,0,0:0:0:0:
448,192,25848,128,0,26757:0:0:0:0:
64,192,26075,128,0,26303:0:0:0:0:
192,192,26303,128,0,26530:0:0:0:0:
320,192,26530,128,0,26700:0:0:0:0:
320,192,26757,1,0,0:0:0:0:
192,192,26757,1,0,0:0:0:0:
64,192,26757,1,0,0:0:0:0:
320,192,26984,1,0,0:0:0:0:
448,192,26984,1,0,0:0:0:0:
64,192,27098,1,0,0:0:0:0:
192,192,27098,1,0,0:0:0:0:
448,192,27098,1,0,0:0:0:0:
64,192,27212,1,0,0:0:0:0:
320,192,27212,1,0,0:0:0:0:
192,192,27439,1,0,0:0:0:0:
320,192,27439,1,0,0:0:0:0:
448,192,27439,1,0,0:0:0:0:
192,192,27666,1,0,0:0:0:0:
320,192,27666,1,0,0:0:0:0:
448,192,27666,1,0,0:0:0:0:
64,192,27666,128,0,28575:0:0:0:0:
448,192,27894,128,0,28121:0:0:0:0:
320,192,28121,128,0,28348:0:0:0:0:
192,192,28348,128,0,28519:0:0:0:0:
192,192,28575,1,0,0:0:0:0:
320,192,28575,1,0,0:0:0:0:
448,192,28575,1,0,0:0:0:0:
320,192,28803,1,0,0:0:0:0:
64,192,28803,1,0,0:0:0:0:
64,192,28916,1,0,0:0:0:0:
448,192,28916,1,0,0:0:0:0:
192,192,28916,1,0,0:0:0:0:
448,192,29030,1,0,0:0:0:0:
320,192,29030,1,0,0:0:0:0:
192,192,29257,1,0,0:0:0:0:
448,192,29257,1,0,0:0:0:0:
64,192,29257,1,0,0:0:0:0:
64,192,29484,1,0,0:0:0:0:
192,192,29484,1,0,0:0:0:0:
448,192,29484,1,0,0:0:0:0:
320,192,29484,128,0,30394:0:0:0:0:
64,192,29712,128,0,29939:0:0:0:0:
192,192,29939,128,0,30166:0:0:0:0:
448,192,30166,128,0,30337:0:0:0:0:
192,192,30394,1,0,0:0:0:0:
64,192,30394,1,0,0:0:0:0:
448,192,30394,1,0,0:0:0:0:
320,192,30621,1,0,0:0:0:0:
64,192,30621,1,0,0:0:0:0:
320,192,30734,1,0,0:0:0:0:
448,192,30734,1,0,0:0:0:0:
192,192,30734,1,0,0:0:0:0:
64,192,30848,1,0,0:0:0:0:
192,192,30848,1,0,0:0:0:0:
64,192,31075,1,0,0:0:0:0:
320,192,31075,1,0,0:0:0:0:
448,192,31075,1,0,0:0:0:0:
64,192,31303,1,0,0:0:0:0:
320,192,31303,1,0,0:0:0:0:
448,192,31303,1,0,0:0:0:0:
192,192,31303,128,0,32212:0:0:0:0:
448,192,31530,128,0,31757:0:0:0:0:
320,192,31757,128,0,31984:0:0:0:0:
64,192,31984,128,0,32155:0:0:0:0:
64,192,32212,1,0,0:0:0:0:
320,192,32212,1,0,0:0:0:0:
448,192,32212,1,0,0:0:0:0:
64,192,32439,1,0,0:0:0:0:
448,192,32439,1,0,0:0:0:0:
64,192,32553,1,0,0:0:0:0:
192,192,32553,1,0,0:0:0:0:
320,192,32553,1,0,0:0:0:0:
448,192,32666,1,0,0:0:0:0:
320,192,32666,1,0,0:0:0:0:
192,192,32894,1,0,0:0:0:0:
64,192,32894,1,0,0:0:0:0:
320,192,32894,1,0,0:0:0:0:
64,192,33121,1,0,0:0:0:0:
192,192,33121,1,0,0:0:0:0:
320,192,33121,1,0,0:0:0:0:
448,192,33121,128,0,34030:0:0:0:0:
192,192,33348,128,0,33575:0:0:0:0:
64,192,33575,128,0,33803:0:0:0:0:
320,192,33803,128,0,33973:0:0:0:0:
320,192,34030,1,0,0:0:0:0:
192,192,34030,1,0,0:0:0:0:
64,192,34030,1,0,0:0:0:0:
64,192,34257,1,0,0:0:0:0:
320,192,34257,1,0,0:0:0:0:
64,192,34371,1,0,0:0:0:0:
192,192,34371,1,0,0:0:0:0:
448,192,34371,1,0,0:0:0:0:
320,192,34484,1,0,0:0:0:0:
448,192,34484,1,0,0:0:0:0:
192,192,34712,1,0,0:0:0:0:
64,192,34712,1,0,0:0:0:0:
448,192,34712,1,0,0:0:0:0:
192,192,34939,1,0,0:0:0:0:
64,192,34939,1,0,0:0:0:0:
448,192,34939,1,0,0:0:0:0:
320,192,34939,128,0,35848:0:0:0:0:
192,192,35166,128,0,35394:0:0:0:0:
64,192,35394,128,0,35621:0:0:0:0:
448,192,35621,128,0,35791:0:0:0:0:
192,192,35848,1,0,0:0:0:0:
64,192,35848,1,0,0:0:0:0:
448,192,35848,1,0,0:0:0:0:
448,192,36075,1,0,0:0:0:0:
192,192,36075,1,0,0:0:0:0:
448,192,36189,1,0,0:0:0:0:
320,192,36189,1,0,0:0:0:0:
64,192,36189,1,0,0:0:0:0:
192,192,36303,1,0,0:0:0:0:
64,192,36303,1,0,0:0:0:0:
448,192,36530,1,0,0:0:0:0:
320,192,36530,1,0,0:0:0:0:
64,192,36530,1,0,0:0:0:0:
64,192,36757,1,0,0:0:0:0:
320,192,36757,1,0,0:0:0:0:
448,192,36757,1,0,0:0:0:0:
192,192,36757,128,0,37666:0:0:0:0:
320,192,36984,128,0,37212:0:0:0:0:
448,192,37212,128,0,37439:0:0:0:0:
64,192,37439,128,0,37609:0:0:0:0:
64,192,37666,1,0,0:0:0:0:
320,192,37666,1,0,0:0:0:0:
448,192,37666,1,0,0:0:0:0:
320,192,37894,1,0,0:0:0:0:
448,192,37894,1,0,0:0:0:0:
64,192,38007,1,0,0:0:0:0:
192,192,38007,1,0,0:0:0:0:
320,192,38007,1,0,0:0:0:0:
64,192,38121,1,0,0:0:0:0:
448,192,38121,1,0,0:0:0:0:
320,192,38348,1,0,0:0:0:0:
192,192,38348,1,0,0:0:0:0:
64,192,38348,1,0,0:0:0:0:
64,192,38575,1,0,0:0:0:0:
192,192,38575,1,0,0:0:0:0:
448,192,38575,1,0,0:0:0:0:
320,192,38575,1,0,0:0:0:0:
192,192,38803,1,0,0:0:0:0:
320,192,38803,1,0,0:0:0:0:
448,192,38803,1,0,0:0:0:0:
64,192,39030,1,0,0:0:0:0:
192,192,39030,1,0,0:0:0:0:
320,192,39030,1,0,0:0:0:0:
448,192,39030,1,0,0:0:0:0:
64,192,39257,1,0,0:0:0:0:
192,192,39257,1,0,0:0:0:0:
448,192,39257,1,0,0:0:0:0:
64,192,39484,1,0,0:0:0:0:
192,192,39484,1,0,0:0:0:0:
320,192,39484,1,0,0:0:0:0:
448,192,39484,1,0,0:0:0:0:
64,192,39712,1,0,0:0:0:0:
192,192,39712,1,0,0:0:0:0:
64,192,39825,1,0,0:0:0:0:
320,192,39825,1,0,0:0:0:0:
448,192,39825,1,0,0:0:0:0:
192,192,39939,1,0,0:0:0:0:
448,192,39939,1,0,0:0:0:0:
64,192,40166,1,0,0:0:0:0:
320,192,40166,1,0,0:0:0:0:
448,192,40166,1,0,0:0:0:0:
64,192,40394,1,0,0:0:0:0:
320,192,40394,1,0,0:0:0:0:
448,192,40394,1,0,0:0:0:0:
192,192,40394,128,0,41303:0:0:0:0:
448,192,40621,128,0,40848:0:0:0:0:
320,192,40848,128,0,41075:0:0:0:0:
64,192,41075,128,0,41246:0:0:0:0:
64,192,41303,1,0,0:0:0:0:
320,192,41303,1,0,0:0:0:0:
448,192,41303,1,0,0:0:0:0:
448,192,41530,1,0,0:0:0:0:
320,192,41530,1,0,0:0:0:0:
448,192,41644,1,0,0:0:0:0:
192,192,41644,1,0,0:0:0:0:
64,192,41644,1,0,0:0:0:0:
320,192,41757,1,0,0:0:0:0:
64,192,41757,1,0,0:0:0:0:
192,192,41984,1,0,0:0:0:0:
64,192,41984,1,0,0:0:0:0:
448,192,41984,1,0,0:0:0:0:
192,192,42212,1,0,0:0:0:0:
64,192,42212,1,0,0:0:0:0:
448,192,42212,1,0,0:0:0:0:
320,192,42212,128,0,43121:0:0:0:0:
64,192,42439,128,0,42666:0:0:0:0:
192,192,42666,128,0,42894:0:0:0:0:
448,192,42894,128,0,43064:0:0:0:0:
448,192,43121,1,0,0:0:0:0:
192,192,43121,1,0,0:0:0:0:
64,192,43121,1,0,0:0:0:0:
64,192,43348,1,0,0:0:0:0:
448,192,43348,1,0,0:0:0:0:
320,192,43462,1,0,0:0:0:0:
448,192,43462,1,0,0:0:0:0:
192,192,43462,1,0,0:0:0:0:
64,192,43575,1,0,0:0:0:0:
192,192,43575,1,0,0:0:0:0:
192,192,43803,1,0,0:0:0:0:
320,192,43803,1,0,0:0:0:0:
448,192,43803,1,0,0:0:0:0:
192,192,44030,1,0,0:0:0:0:
320,192,44030,1,0,0:0:0:0:
448,192,44030,1,0,0:0:0:0:
64,192,44030,128,0,44939:0:0:0:0:
448,192,44257,128,0,44484:0:0:0:0:
320,192,44484,128,0,44712:0:0:0:0:
192,192,44712,128,0,44882:0:0:0:0:
192,192,44939,1,0,0:0:0:0:
320,192,44939,1,0,0:0:0:0:
448,192,44939,1,0,0:0:0:0:
64,192,45166,1,0,0:0:0:0:
448,192,45166,1,0,0:0:0:0:
64,192,45280,1,0,0:0:0:0:
192,192,45280,1,0,0:0:0:0:
320,192,45280,1,0,0:0:0:0:
448,192,45394,1,0,0:0:0:0:
320,192,45394,1,0,0:0:0:0:
64,192,45621,1,0,0:0:0:0:
192,192,45621,1,0,0:0:0:0:
320,192,45621,1,0,0:0:0:0:
64,192,45848,1,0,0:0:0:0:
192,192,45848,1,0,0:0:0:0:
320,192,45848,1,0,0:0:0:0:
448,192,45848,128,0,46757:0:0:0:0:
64,192,46075,128,0,46303:0:0:0:0:
192,192,46303,128,0,46530:0:0:0:0:
320,192,46530,128,0,46700:0:0:0:0:
64,192,46757,1,0,0:0:0:0:
320,192,46757,1,0,0:0:0:0:
192,192,46757,1,0,0:0:0:0:
448,192,46984,1,0,0:0:0:0:
192,192,46984,1,0,0:0:0:0:
448,192,47098,1,0,0:0:0:0:
64,192,47098,1,0,0:0:0:0:
320,192,47098,1,0,0:0:0:0:
64,192,47212,1,0,0:0:0:0:
192,192,47212,1,0,0:0:0:0:
64,192,47439,1,0,0:0:0:0:
320,192,47439,1,0,0:0:0:0:
448,192,47439,1,0,0:0:0:0:
64,192,47666,1,0,0:0:0:0:
320,192,47666,1,0,0:0:0:0:
448,192,47666,1,0,0:0:0:0:
192,192,47666,128,0,48575:0:0:0:0:
320,192,47894,128,0,48121:0:0:0:0:
448,192,48121,128,0,48348:0:0:0:0:
64,192,48348,128,0,48519:0:0:0:0:
64,192,48575,1,0,0:0:0:0:
320,192,48575,1,0,0:0:0:0:
448,192,48575,1,0,0:0:0:0:
64,192,48803,1,0,0:0:0:0:
320,192,48803,1,0,0:0:0:0:
192,192,48916,1,0,0:0:0:0:
448,192,48916,1,0,0:0:0:0:
64,192,48916,1,0,0:0:0:0:
448,192,49030,1,0,0:0:0:0:
320,192,49030,1,0,0:0:0:0:
192,192,49257,1,0,0:0:0:0:
64,192,49257,1,0,0:0:0:0:
448,192,49257,1,0,0:0:0:0:
64,192,49484,1,0,0:0:0:0:
192,192,49484,1,0,0:0:0:0:
448,192,49484,1,0,0:0:0:0:
320,192,49484,128,0,50394:0:0:0:0:
192,192,49712,128,0,49939:0:0:0:0:
64,192,49939,128,0,50166:0:0:0:0:
448,192,50166,128,0,50337:0:0:0:0:
448,192,50394,1,0,0:0:0:0:
192,192,50394,1,0,0:0:0:0:
64,192,50394,1,0,0:0:0:0:
448,192,50621,1,0,0:0:0:0:
320,192,50621,1,0,0:0:0:0:
192,192,50734,1,0,0:0:0:0:
448,192,50734,1,0,0:0:0:0:
64,192,50734,1,0,0:0:0:0:
64,192,50848,1,0,0:0:0:0:
320,192,50848,1,0,0:0:0:0:
64,192,51075,1,0,0:0:0:0:
448,192,51075,1,0,0:0:0:0:
320,192,51075,1,0,0:0:0:0:
192,192,51303,1,0,0:0:0:0:
64,192,51303,1,0,0:0:0:0:
320,192,51303,1,0,0:0:0:0:
448,192,51303,1,0,0:0:0:0:
192,192,51530,1,0,0:0:0:0:
448,192,51530,1,0,0:0:0:0:
192,192,51757,1,0,0:0:0:0:
64,192,51757,1,0,0:0:0:0:
320,192,51757,1,0,0:0:0:0:
448,192,51757,1,0,0:0:0:0:
64,192,51984,1,0,0:0:0:0:
320,192,51984,1,0,0:0:0:0:
192,192,51984,1,0,0:0:0:0:
64,192,52212,1,0,0:0:0:0:
320,192,52212,1,0,0:0:0:0:
448,192,52212,1,0,0:0:0:0:
192,192,52439,1,0,0:0:0:0:
64,192,52439,1,0,0:0:0:0:
448,192,52439,1,0,0:0:0:0:
320,192,52439,1,0,0:0:0:0:
192,192,52666,1,0,0:0:0:0:
448,192,52666,1,0,0:0:0:0:
64,192,52894,1,0,0:0:0:0:
192,192,52894,1,0,0:0:0:0:
320,192,52894,1,0,0:0:0:0:
64,192,53121,1,0,0:0:0:0:
320,192,53121,1,0,0:0:0:0:
192,192,53121,1,0,0:0:0:0:
448,192,53121,1,0,0:0:0:0:
320,192,53348,1,0,0:0:0:0:
448,192,53348,1,0,0:0:0:0:
192,192,53575,1,0,0:0:0:0:
64,192,53575,1,0,0:0:0:0:
448,192,53575,1,0,0:0:0:0:
320,192,53575,1,0,0:0:0:0:
192,192,53803,1,0,0:0:0:0:
64,192,53803,1,0,0:0:0:0:
448,192,53803,1,0,0:0:0:0:
320,192,53916,1,0,0:0:0:0:
448,192,53916,1,0,0:0:0:0:
192,192,53916,1,0,0:0:0:0:
192,192,54030,1,0,0:0:0:0:
320,192,54030,1,0,0:0:0:0:
448,192,54030,1,0,0:0:0:0:
64,192,54030,128,0,54087:0:0:0:0:
64,192,54257,128,0,54314:0:0:0:0:
320,192,54257,1,0,0:0:0:0:
64,192,54484,128,0,54541:0:0:0:0:
448,192,54484,1,0,0:0:0:0:
64,192,54712,128,0,54769:0:0:0:0:
320,192,54712,1,0,0:0:0:0:
448,192,54712,1,0,0:0:0:0:
64,192,54939,128,0,54996:0:0:0:0:
192,192,54939,1,0,0:0:0:0:
320,192,54939,1,0,0:0:0:0:
448,192,54939,1,0,0:0:0:0:
64,192,55166,128,0,55223:0:0:0:0:
320,192,55166,1,0,0:0:0:0:
64,192,55394,128,0,55450:0:0:0:0:
448,192,55394,1,0,0:0:0:0:
64,192,55621,128,0,55678:0:0:0:0:
448,192,55621,1,0,0:0:0:0:
320,192,55621,1,0,0:0:0:0:
448,192,55848,128,0,55905:0:0:0:0:
192,192,55848,1,0,0:0:0:0:
64,192,55848,1,0,0:0:0:0:
448,192,56075,128,0,56132:0:0:0:0:
192,192,56075,1,0,0:0:0:0:
448,192,56303,128,0,56359:0:0:0:0:
64,192,56303,1,0,0:0:0:0:
448,192,56530,128,0,56587:0:0:0:0:
64,192,56530,1,0,0:0:0:0:
192,192,56530,1,0,0:0:0:0:
448,192,56757,128,0,56814:0:0:0:0:
64,192,56757,1,0,0:0:0:0:
192,192,56757,1,0,0:0:0:0:
320,192,56757,1,0,0:0:0:0:
448,192,56984,128,0,57041:0:0:0:0:
192,192,56984,1,0,0:0:0:0:
448,192,57212,128,0,57269:0:0:0:0:
64,192,57212,1,0,0:0:0:0:
448,192,57439,128,0,57496:0:0:0:0:
192,192,57439,1,0,0:0:0:0:
64,192,57439,1,0,0:0:0:0:
320,192,57439,1,0,0:0:0:0:
192,192,57666,128,0,57723:0:0:0:0:
320,192,57666,1,0,0:0:0:0:
448,192,57666,1,0,0:0:0:0:
192,192,57894,128,0,57950:0:0:0:0:
320,192,57894,1,0,0:0:0:0:
192,192,58121,128,0,58178:0:0:0:0:
448,192,58121,1,0,0:0:0:0:
192,192,58348,128,0,58405:0:0:0:0:
320,192,58348,1,0,0:0:0:0:
448,192,58348,1,0,0:0:0:0:
320,192,58575,128,0,58632:0:0:0:0:
192,192,58575,1,0,0:0:0:0:
64,192,58575,1,0,0:0:0:0:
448,192,58575,1,0,0:0:0:0:
320,192,58803,128,0,58859:0:0:0:0:
64,192,58803,1,0,0:0:0:0:
320,192,59030,128,0,59087:0:0:0:0:
192,192,59030,1,0,0:0:0:0:
320,192,59257,128,0,59314:0:0:0:0:
64,192,59257,1,0,0:0:0:0:
192,192,59257,1,0,0:0:0:0:
448,192,59257,1,0,0:0:0:0:
64,192,59484,128,0,59541:0:0:0:0:
320,192,59484,1,0,0:0:0:0:
448,192,59484,1,0,0:0:0:0:
64,192,59712,128,0,59769:0:0:0:0:
448,192,59712,1,0,0:0:0:0:
64,192,59939,128,0,59996:0:0:0:0:
320,192,59939,1,0,0:0:0:0:
64,192,60166,128,0,60223:0:0:0:0:
320,192,60166,1,0,0:0:0:0:
448,192,60166,1,0,0:0:0:0:
448,192,60394,128,0,60450:0:0:0:0:
192,192,60394,1,0,0:0:0:0:
64,192,60394,1,0,0:0:0:0:
320,192,60394,1,0,0:0:0:0:
448,192,60621,128,0,60678:0:0:0:0:
192,192,60621,1,0,0:0:0:0:
64,192,60621,1,0,0:0:0:0:
448,192,60848,128,0,60905:0:0:0:0:
192,192,60848,1,0,0:0:0:0:
64,192,60876,1,0,0:0:0:0:
320,192,60905,1,0,0:0:0:0:
448,192,61075,128,0,61132:0:0:0:0:
192,192,61075,1,0,0:0:0:0:
64,192,61075,1,0,0:0:0:0:
192,192,61303,128,0,61359:0:0:0:0:
64,192,61303,1,0,0:0:0:0:
320,192,61303,1,0,0:0:0:0:
448,192,61303,1,0,0:0:0:0:
192,192,61530,128,0,61587:0:0:0:0:
320,192,61530,1,0,0:0:0:0:
192,192,61757,128,0,61814:0:0:0:0:
448,192,61757,1,0,0:0:0:0:
192,192,61984,128,0,62041:0:0:0:0:
320,192,61984,1,0,0:0:0:0:
448,192,61984,1,0,0:0:0:0:
192,192,62212,128,0,62269:0:0:0:0:
320,192,62212,1,0,0:0:0:0:
64,192,62212,1,0,0:0:0:0:
448,192,62212,1,0,0:0:0:0:
192,192,62439,128,0,62496:0:0:0:0:
320,192,62439,1,0,0:0:0:0:
192,192,62666,128,0,62723:0:0:0:0:
448,192,62666,1,0,0:0:0:0:
192,192,62894,128,0,62950:0:0:0:0:
320,192,62894,1,0,0:0:0:0:
448,192,62894,1,0,0:0:0:0:
192,192,63121,128,0,63178:0:0:0:0:
320,192,63121,1,0,0:0:0:0:
448,192,63121,1,0,0:0:0:0:
192,192,63348,128,0,63405:0:0:0:0:
320,192,63348,1,0,0:0:0:0:
192,192,63575,128,0,63632:0:0:0:0:
448,192,63575,1,0,0:0:0:0:
192,192,63803,128,0,63859:0:0:0:0:
320,192,63803,1,0,0:0:0:0:
448,192,63803,1,0,0:0:0:0:
192,192,64030,128,0,64087:0:0:0:0:
320,192,64030,1,0,0:0:0:0:
448,192,64030,1,0,0:0:0:0:
64,192,64030,1,0,0:0:0:0:
192,192,64257,128,0,64314:0:0:0:0:
320,192,64257,1,0,0:0:0:0:
192,192,64484,128,0,64541:0:0:0:0:
448,192,64484,1,0,0:0:0:0:
192,192,64712,128,0,64769:0:0:0:0:
320,192,64712,1,0,0:0:0:0:
64,192,64712,1,0,0:0:0:0:
448,192,64712,1,0,0:0:0:0:
320,192,64939,128,0,64996:0:0:0:0:
192,192,64939,1,0,0:0:0:0:
64,192,64939,1,0,0:0:0:0:
320,192,65166,128,0,65223:0:0:0:0:
64,192,65166,1,0,0:0:0:0:
320,192,65394,128,0,65450:0:0:0:0:
192,192,65394,1,0,0:0:0:0:
320,192,65621,128,0,65678:0:0:0:0:
192,192,65621,1,0,0:0:0:0:
64,192,65621,1,0,0:0:0:0:
320,192,65848,128,0,65905:0:0:0:0:
192,192,65848,1,0,0:0:0:0:
64,192,65848,1,0,0:0:0:0:
448,192,65848,1,0,0:0:0:0:
320,192,66075,128,0,66132:0:0:0:0:
64,192,66075,1,0,0:0:0:0:
320,192,66303,128,0,66359:0:0:0:0:
192,192,66303,1,0,0:0:0:0:
320,192,66530,128,0,66587:0:0:0:0:
192,192,66530,1,0,0:0:0:0:
64,192,66530,1,0,0:0:0:0:
448,192,66530,1,0,0:0:0:0:
320,192,66757,128,0,66814:0:0:0:0:
64,192,66757,1,0,0:0:0:0:
192,192,66757,1,0,0:0:0:0:
320,192,66984,128,0,67041:0:0:0:0:
64,192,66984,1,0,0:0:0:0:
320,192,67212,128,0,67269:0:0:0:0:
192,192,67212,1,0,0:0:0:0:
320,192,67439,128,0,67496:0:0:0:0:
64,192,67439,1,0,0:0:0:0:
192,192,67439,1,0,0:0:0:0:
320,192,67666,128,0,67723:0:0:0:0:
64,192,67666,1,0,0:0:0:0:
192,192,67666,1,0,0:0:0:0:
448,192,67666,1,0,0:0:0:0:
320,192,67894,128,0,67950:0:0:0:0:
192,192,67894,1,0,0:0:0:0:
64,192,67894,1,0,0:0:0:0:
320,192,68121,128,0,68178:0:0:0:0:
192,192,68121,1,0,0:0:0:0:
64,192,68149,1,0,0:0:0:0:
448,192,68178,1,0,0:0:0:0:
320,192,68348,128,0,68405:0:0:0:0:
192,192,68348,1,0,0:0:0:0:
64,192,68348,1,0,0:0:0:0:
192,192,68575,1,0,0:0:0:0:
320,192,68575,1,0,0:0:0:0:
448,192,68575,1,0,0:0:0:0:
64,192,68575,128,0,68632:0:0:0:0:
192,192,68803,128,0,68859:0:0:0:0:
320,192,68803,1,0,0:0:0:0:
64,192,69030,128,0,69087:0:0:0:0:
448,192,69030,1,0,0:0:0:0:
192,192,69257,128,0,69314:0:0:0:0:
320,192,69257,1,0,0:0:0:0:
448,192,69257,1,0,0:0:0:0:
64,192,69484,128,0,69541:0:0:0:0:
192,192,69484,1,0,0:0:0:0:
320,192,69484,1,0,0:0:0:0:
448,192,69484,1,0,0:0:0:0:
192,192,69712,128,0,69769:0:0:0:0:
320,192,69712,1,0,0:0:0:0:
64,192,69939,128,0,69996:0:0:0:0:
448,192,69939,1,0,0:0:0:0:
192,192,70166,128,0,70223:0:0:0:0:
448,192,70166,1,0,0:0:0:0:
320,192,70166,1,0,0:0:0:0:
448,192,70394,128,0,70450:0:0:0:0:
192,192,70394,1,0,0:0:0:0:
64,192,70394,1,0,0:0:0:0:
320,192,70621,128,0,70678:0:0:0:0:
64,192,70621,1,0,0:0:0:0:
448,192,70848,128,0,70905:0:0:0:0:
192,192,70848,1,0,0:0:0:0:
320,192,71075,128,0,71132:0:0:0:0:
64,192,71075,1,0,0:0:0:0:
192,192,71075,1,0,0:0:0:0:
448,192,71303,128,0,71359:0:0:0:0:
64,192,71303,1,0,0:0:0:0:
192,192,71303,1,0,0:0:0:0:
320,192,71303,1,0,0:0:0:0:
320,192,71530,128,0,71587:0:0:0:0:
64,192,71530,1,0,0:0:0:0:
448,192,71757,128,0,71814:0:0:0:0:
192,192,71757,1,0,0:0:0:0:
320,192,71984,128,0,72041:0:0:0:0:
64,192,71984,1,0,0:0:0:0:
192,192,71984,1,0,0:0:0:0:
448,192,71984,1,0,0:0:0:0:
64,192,72212,128,0,72269:0:0:0:0:
448,192,72212,1,0,0:0:0:0:
320,192,72212,1,0,0:0:0:0:
320,192,72439,128,0,72496:0:0:0:0:
192,192,72439,1,0,0:0:0:0:
64,192,72666,128,0,72723:0:0:0:0:
448,192,72666,1,0,0:0:0:0:
320,192,72894,128,0,72950:0:0:0:0:
192,192,72894,1,0,0:0:0:0:
64,192,72894,1,0,0:0:0:0:
64,192,73121,128,0,73178:0:0:0:0:
192,192,73121,1,0,0:0:0:0:
448,192,73121,1,0,0:0:0:0:
320,192,73121,1,0,0:0:0:0:
192,192,73348,128,0,73405:0:0:0:0:
448,192,73348,1,0,0:0:0:0:
64,192,73575,128,0,73632:0:0:0:0:
320,192,73575,1,0,0:0:0:0:
192,192,73803,128,0,73859:0:0:0:0:
448,192,73803,1,0,0:0:0:0:
320,192,73803,1,0,0:0:0:0:
64,192,73803,1,0,0:0:0:0:
448,192,74030,128,0,74087:0:0:0:0:
192,192,74030,1,0,0:0:0:0:
64,192,74030,1,0,0:0:0:0:
320,192,74257,128,0,74314:0:0:0:0:
192,192,74257,1,0,0:0:0:0:
448,192,74484,128,0,74541:0:0:0:0:
64,192,74484,1,0,0:0:0:0:
320,192,74712,128,0,74769:0:0:0:0:
192,192,74712,1,0,0:0:0:0:
64,192,74712,1,0,0:0:0:0:
448,192,74939,128,0,74996:0:0:0:0:
64,192,74939,1,0,0:0:0:0:
192,192,74939,1,0,0:0:0:0:
320,192,74939,1,0,0:0:0:0:
192,192,75166,128,0,75223:0:0:0:0:
320,192,75166,1,0,0:0:0:0:
448,192,75166,1,0,0:0:0:0:
448,192,75394,128,0,75450:0:0:0:0:
320,192,75394,1,0,0:0:0:0:
64,192,75394,1,0,0:0:0:0:
192,192,75394,1,0,0:0:0:0:
192,192,75621,128,0,75678:0:0:0:0:
320,192,75621,1,0,0:0:0:0:
448,192,75621,1,0,0:0:0:0:
192,192,75848,1,0,0:0:0:0:
320,192,75848,1,0,0:0:0:0:
448,192,75848,1,0,0:0:0:0:
64,192,75848,128,0,75905:0:0:0:0:
448,192,76075,128,0,76132:0:0:0:0:
192,192,76075,1,0,0:0:0:0:
64,192,76303,128,0,76359:0:0:0:0:
320,192,76303,1,0,0:0:0:0:
448,192,76530,128,0,76587:0:0:0:0:
192,192,76530,1,0,0:0:0:0:
64,192,76530,1,0,0:0:0:0:
64,192,76757,128,0,76814:0:0:0:0:
192,192,76757,1,0,0:0:0:0:
320,192,76757,1,0,0:0:0:0:
448,192,76757,1,0,0:0:0:0:
448,192,76984,128,0,77041:0:0:0:0:
192,192,76984,1,0,0:0:0:0:
64,192,77212,128,0,77269:0:0:0:0:
320,192,77212,1,0,0:0:0:0:
448,192,77439,128,0,77496:0:0:0:0:
192,192,77439,1,0,0:0:0:0:
64,192,77439,1,0,0:0:0:0:
64,192,77666,128,0,77723:0:0:0:0:
320,192,77666,1,0,0:0:0:0:
448,192,77666,1,0,0:0:0:0:
448,192,77894,128,0,77950:0:0:0:0:
192,192,77894,1,0,0:0:0:0:
64,192,78121,128,0,78178:0:0:0:0:
320,192,78121,1,0,0:0:0:0:
448,192,78348,128,0,78405:0:0:0:0:
192,192,78348,1,0,0:0:0:0:
64,192,78348,1,0,0:0:0:0:
64,192,78575,128,0,78632:0:0:0:0:
192,192,78575,1,0,0:0:0:0:
320,192,78575,1,0,0:0:0:0:
448,192,78575,1,0,0:0:0:0:
448,192,78803,128,0,78859:0:0:0:0:
192,192,78803,1,0,0:0:0:0:
64,192,79030,128,0,79087:0:0:0:0:
320,192,79030,1,0,0:0:0:0:
448,192,79257,128,0,79314:0:0:0:0:
192,192,79257,1,0,0:0:0:0:
64,192,79257,1,0,0:0:0:0:
320,192,79257,1,0,0:0:0:0:
192,192,79484,128,0,79541:0:0:0:0:
448,192,79484,1,0,0:0:0:0:
320,192,79484,1,0,0:0:0:0:
320,192,79712,128,0,79769:0:0:0:0:
64,192,79712,1,0,0:0:0:0:
192,192,79939,128,0,79996:0:0:0:0:
448,192,79939,1,0,0:0:0:0:
320,192,80166,128,0,80223:0:0:0:0:
192,192,80166,1,0,0:0:0:0:
64,192,80166,1,0,0:0:0:0:
192,192,80394,128,0,80450:0:0:0:0:
320,192,80394,1,0,0:0:0:0:
448,192,80394,1,0,0:0:0:0:
64,192,80394,1,0,0:0:0:0:
320,192,80621,128,0,80678:0:0:0:0:
64,192,80621,1,0,0:0:0:0:
192,192,80848,128,0,80905:0:0:0:0:
320,192,80848,1,0,0:0:0:0:
448,192,80848,1,0,0:0:0:0:
64,192,80848,1,0,0:0:0:0:
320,192,81075,128,0,81132:0:0:0:0:
192,192,81075,1,0,0:0:0:0:
64,192,81075,1,0,0:0:0:0:
192,192,81303,128,0,81359:0:0:0:0:
320,192,81303,1,0,0:0:0:0:
448,192,81303,1,0,0:0:0:0:
320,192,81530,128,0,81587:0:0:0:0:
192,192,81530,1,0,0:0:0:0:
64,192,81530,1,0,0:0:0:0:
448,192,81530,1,0,0:0:0:0:
192,192,81757,128,0,81814:0:0:0:0:
448,192,81757,1,0,0:0:0:0:
320,192,81984,128,0,82041:0:0:0:0:
64,192,81984,1,0,0:0:0:0:
192,192,81984,1,0,0:0:0:0:
192,192,82212,128,0,82269:0:0:0:0:
64,192,82212,1,0,0:0:0:0:
320,192,82212,1,0,0:0:0:0:
448,192,82212,1,0,0:0:0:0:
320,192,82439,128,0,82496:0:0:0:0:
192,192,82439,1,0,0:0:0:0:
64,192,82439,1,0,0:0:0:0:
64,192,82666,1,0,0:0:0:0:
320,192,82666,1,0,0:0:0:0:
448,192,82666,1,0,0:0:0:0:
192,192,82666,1,0,0:0:0:0:
448,192,82780,1,0,0:0:0:0:
320,192,82780,1,0,0:0:0:0:
64,192,82780,1,0,0:0:0:0:
192,192,82894,1,0,0:0:0:0:
320,192,82894,1,0,0:0:0:0:
64,192,82894,1,0,0:0:0:0:
320,192,83007,1,0,0:0:0:0:
64,192,83007,1,0,0:0:0:0:
448,192,83007,1,0,0:0:0:0:
64,192,83121,128,0,84825:0:0:0:0:
192,192,83121,128,0,84825:0:0:0:0:
320,192,83121,128,0,84825:0:0:0:0:
448,192,83121,128,0,84825:0:0:0:0:
64,192,84939,128,0,85053:0:0:0:0:
192,192,84939,128,0,85053:0:0:0:0:
320,192,84939,128,0,85053:0:0:0:0:
448,192,84939,128,0,85053:0:0:0:0:
64,192,85166,128,0,85394:0:0:0:0:
192,192,85166,128,0,85394:0:0:0:0:
320,192,85166,128,0,85394:0:0:0:0:
448,192,85166,128,0,85394:0:0:0:0:
64,192,85621,1,0,0:0:0:0:
320,192,85621,1,0,0:0:0:0:
448,192,85621,1,0,0:0:0:0:
192,192,85848,1,0,0:0:0:0:
64,192,85848,1,0,0:0:0:0:
320,192,85848,1,0,0:0:0:0:
448,192,85848,1,0,0:0:0:0:
64,192,86075,1,0,0:0:0:0:
192,192,86075,1,0,0:0:0:0:
448,192,86075,1,0,0:0:0:0:
448,192,86303,1,0,0:0:0:0:
192,192,86303,1,0,0:0:0:0:
320,192,86331,1,0,0:0:0:0:
64,192,86359,1,0,0:0:0:0:
192,192,86530,1,0,0:0:0:0:
448,192,86530,1,0,0:0:0:0:
320,192,86530,1,0,0:0:0:0:
64,192,86757,1,0,0:0:0:0:
320,192,86757,1,0,0:0:0:0:
192,192,86757,1,0,0:0:0:0:
448,192,86757,128,0,90394:0:0:0:0:
192,192,86984,128,0,87325:0:0:0:0:
320,192,87212,128,0,87553:0:0:0:0:
192,192,87439,1,0,0:0:0:0:
64,192,87439,128,0,87553:0:0:0:0:
64,192,87666,1,0,0:0:0:0:
192,192,87666,128,0,88007:0:0:0:0:
320,192,87666,1,0,0:0:0:0:
320,192,87894,128,0,88348:0:0:0:0:
192,192,88121,1,0,0:0:0:0:
64,192,88121,128,0,88234:0:0:0:0:
64,192,88348,1,0,0:0:0:0:
192,192,88348,128,0,88689:0:0:0:0:
320,192,88575,128,0,88689:0:0:0:0:
320,192,88803,1,0,0:0:0:0:
192,192,88803,1,0,0:0:0:0:
64,192,88803,128,0,89144:0:0:0:0:
192,192,89030,128,0,89371:0:0:0:0:
64,192,89257,1,0,0:0:0:0:
320,192,89257,128,0,89371:0:0:0:0:
192,192,89484,1,0,0:0:0:0:
320,192,89484,1,0,0:0:0:0:
64,192,89484,128,0,90053:0:0:0:0:
192,192,89712,128,0,90053:0:0:0:0:
320,192,89939,128,0,90394:0:0:0:0:
64,192,90166,1,0,0:0:0:0:
192,192,90166,128,0,90280:0:0:0:0:
64,192,90394,128,0,94030:0:0:0:0:
192,192,90394,1,0,0:0:0:0:
320,192,90621,128,0,90962:0:0:0:0:
192,192,90848,128,0,91189:0:0:0:0:
448,192,91075,128,0,91189:0:0:0:0:
320,192,91075,1,0,0:0:0:0:
192,192,91303,1,0,0:0:0:0:
320,192,91303,128,0,91644:0:0:0:0:
448,192,91303,1,0,0:0:0:0:
192,192,91530,128,0,91984:0:0:0:0:
448,192,91757,128,0,91871:0:0:0:0:
320,192,91757,1,0,0:0:0:0:
320,192,91984,128,0,92325:0:0:0:0:
448,192,91984,1,0,0:0:0:0:
192,192,92212,128,0,92325:0:0:0:0:
448,192,92439,128,0,92780:0:0:0:0:
320,192,92439,1,0,0:0:0:0:
192,192,92439,1,0,0:0:0:0:
320,192,92666,128,0,93007:0:0:0:0:
192,192,92894,128,0,93007:0:0:0:0:
448,192,92894,1,0,0:0:0:0:
448,192,93121,128,0,93689:0:0:0:0:
192,192,93121,1,0,0:0:0:0:
320,192,93121,1,0,0:0:0:0:
320,192,93348,128,0,93689:0:0:0:0:
192,192,93575,128,0,94030:0:0:0:0:
320,192,93803,1,0,0:0:0:0:
448,192,93803,128,0,93916:0:0:0:0:
320,192,94030,128,0,97666:0:0:0:0:
448,192,94030,1,0,0:0:0:0:
192,192,94257,128,0,94598:0:0:0:0:
448,192,94484,128,0,94825:0:0:0:0:
64,192,94712,128,0,94825:0:0:0:0:
192,192,94712,1,0,0:0:0:0:
64,192,94939,1,0,0:0:0:0:
192,192,94939,128,0,95280:0:0:0:0:
448,192,94939,1,0,0:0:0:0:
448,192,95166,128,0,95507:0:0:0:0:
64,192,95394,128,0,95734:0:0:0:0:
192,192,95394,1,0,0:0:0:0:
192,192,95621,128,0,95962:0:0:0:0:
448,192,95621,1,0,0:0:0:0:
64,192,95848,1,0,0:0:0:0:
448,192,95848,128,0,95962:0:0:0:0:
64,192,96075,128,0,96416:0:0:0:0:
192,192,96075,1,0,0:0:0:0:
448,192,96075,1,0,0:0:0:0:
192,192,96303,128,0,96644:0:0:0:0:
448,192,96530,128,0,96644:0:0:0:0:
64,192,96530,1,0,0:0:0:0:
192,192,96757,1,0,0:0:0:0:
448,192,96757,1,0,0:0:0:0:
64,192,96757,128,0,97325:0:0:0:0:
192,192,96984,128,0,97325:0:0:0:0:
448,192,97212,128,0,97666:0:0:0:0:
192,192,97439,1,0,0:0:0:0:
64,192,97439,128,0,97553:0:0:0:0:
64,192,97666,1,0,0:0:0:0:
192,192,97666,128,0,100394:0:0:0:0:
320,192,97894,128,0,98234:0:0:0:0:
64,192,98121,128,0,98462:0:0:0:0:
448,192,98348,128,0,98462:0:0:0:0:
320,192,98348,1,0,0:0:0:0:
448,192,98575,1,0,0:0:0:0:
320,192,98575,128,0,98916:0:0:0:0:
64,192,98575,1,0,0:0:0:0:
64,192,98803,128,0,99144:0:0:0:0:
448,192,99030,128,0,99371:0:0:0:0:
320,192,99030,1,0,0:0:0:0:
320,192,99257,128,0,99598:0:0:0:0:
64,192,99257,1,0,0:0:0:0:
448,192,99484,1,0,0:0:0:0:
64,192,99484,128,0,99598:0:0:0:0:
448,192,99712,128,0,100053:0:0:0:0:
320,192,99712,1,0,0:0:0:0:
64,192,99712,1,0,0:0:0:0:
320,192,99939,128,0,100280:0:0:0:0:
64,192,100166,128,0,100280:0:0:0:0:
448,192,100166,1,0,0:0:0:0:
320,192,100394,1,0,0:0:0:0:
64,192,100394,1,0,0:0:0:0:
448,192,100394,1,0,0:0:0:0:
320,192,100507,1,0,0:0:0:0:
448,192,100507,1,0,0:0:0:0:
64,192,100507,1,0,0:0:0:0:
192,192,100621,1,0,0:0:0:0:
64,192,100621,1,0,0:0:0:0:
448,192,100621,1,0,0:0:0:0:
64,192,100734,1,0,0:0:0:0:
192,192,100734,1,0,0:0:0:0:
448,192,100734,1,0,0:0:0:0:
64,192,100848,1,0,0:0:0:0:
320,192,100848,1,0,0:0:0:0:
448,192,100876,1,0,0:0:0:0:
192,192,100905,1,0,0:0:0:0:
320,192,101075,1,0,0:0:0:0:
320,192,101303,1,0,0:0:0:0:
64,192,101303,128,0,104939:0:0:0:0:
448,192,101303,1,0,0:0:0:0:
192,192,101303,1,0,0:0:0:0:
320,192,101530,128,0,101871:0:0:0:0:
192,192,101757,128,0,102098:0:0:0:0:
448,192,101984,128,0,102098:0:0:0:0:
320,192,101984,1,0,0:0:0:0:
192,192,102212,1,0,0:0:0:0:
320,192,102212,128,0,102553:0:0:0:0:
448,192,102212,1,0,0:0:0:0:
192,192,102439,128,0,102894:0:0:0:0:
448,192,102666,128,0,102780:0:0:0:0:
320,192,102666,1,0,0:0:0:0:
320,192,102894,128,0,103234:0:0:0:0:
448,192,102894,1,0,0:0:0:0:
192,192,103121,128,0,103234:0:0:0:0:
448,192,103348,128,0,103689:0:0:0:0:
320,192,103348,1,0,0:0:0:0:
192,192,103348,1,0,0:0:0:0:
320,192,103575,128,0,103916:0:0:0:0:
192,192,103803,128,0,103916:0:0:0:0:
448,192,103803,1,0,0:0:0:0:
448,192,104030,128,0,104598:0:0:0:0:
192,192,104030,1,0,0:0:0:0:
320,192,104030,1,0,0:0:0:0:
320,192,104257,128,0,104598:0:0:0:0:
192,192,104484,128,0,104939:0:0:0:0:
320,192,104712,1,0,0:0:0:0:
448,192,104712,1,0,0:0:0:0:
320,192,104939,1,0,0:0:0:0:
448,192,104939,128,0,108575:0:0:0:0:
192,192,105166,128,0,105507:0:0:0:0:
320,192,105394,128,0,105734:0:0:0:0:
192,192,105621,1,0,0:0:0:0:
64,192,105621,128,0,105734:0:0:0:0:
64,192,105848,1,0,0:0:0:0:
192,192,105848,128,0,106189:0:0:0:0:
320,192,105848,1,0,0:0:0:0:
320,192,106075,128,0,106530:0:0:0:0:
192,192,106303,1,0,0:0:0:0:
64,192,106303,128,0,106416:0:0:0:0:
64,192,106530,1,0,0:0:0:0:
192,192,106530,128,0,106871:0:0:0:0:
320,192,106757,128,0,106871:0:0:0:0:
320,192,106984,1,0,0:0:0:0:
192,192,106984,1,0,0:0:0:0:
64,192,106984,128,0,107325:0:0:0:0:
192,192,107212,128,0,107553:0:0:0:0:
64,192,107439,1,0,0:0:0:0:
320,192,107439,128,0,107553:0:0:0:0:
192,192,107666,1,0,0:0:0:0:
320,192,107666,1,0,0:0:0:0:
64,192,107666,128,0,108234:0:0:0:0:
192,192,107894,128,0,108234:0:0:0:0:
320,192,108121,128,0,108575:0:0:0:0:
192,192,108348,1,0,0:0:0:0:
64,192,108348,128,0,108462:0:0:0:0:
64,192,108575,1,0,0:0:0:0:
192,192,108575,128,0,110280:0:0:0:0:
320,192,108803,128,0,109144:0:0:0:0:
64,192,109030,128,0,109371:0:0:0:0:
320,192,109257,1,0,0:0:0:0:
448,192,109257,128,0,109371:0:0:0:0:
64,192,109484,1,0,0:0:0:0:
320,192,109484,128,0,109825:0:0:0:0:
448,192,109484,1,0,0:0:0:0:
64,192,109712,128,0,110053:0:0:0:0:
320,192,109939,1,0,0:0:0:0:
448,192,109939,128,0,110280:0:0:0:0:
64,192,110166,1,0,0:0:0:0:
320,192,110166,128,0,110280:0:0:0:0:
448,192,110394,1,0,0:0:0:0:
64,192,110394,1,0,0:0:0:0:
192,192,110394,1,0,0:0:0:0:
320,192,110394,1,0,0:0:0:0:
192,192,110621,1,0,0:0:0:0:
320,192,110621,1,0,0:0:0:0:
192,192,110848,1,0,0:0:0:0:
448,192,110848,1,0,0:0:0:0:
64,192,111075,1,0,0:0:0:0:
320,192,111075,1,0,0:0:0:0:
192,192,111104,1,0,0:0:0:0:
448,192,111132,1,0,0:0:0:0:
320,192,111303,1,0,0:0:0:0:
192,192,111303,1,0,0:0:0:0:
320,192,111530,1,0,0:0:0:0:
64,192,111530,1,0,0:0:0:0:
64,192,111757,1,0,0:0:0:0:
448,192,111786,1,0,0:0:0:0:
192,192,111786,1,0,0:0:0:0:
64,192,112212,5,0,0:0:0:0:
320,192,112212,1,0,0:0:0:0:
448,192,112212,1,0,0:0:0:0:
192,192,112212,1,0,0:0:0:0:
320,192,112439,1,0,0:0:0:0:
64,192,112439,1,0,0:0:0:0:
192,192,112553,1,0,0:0:0:0:
448,192,112553,1,0,0:0:0:0:
64,192,112553,1,0,0:0:0:0:
320,192,112666,1,0,0:0:0:0:
448,192,112666,1,0,0:0:0:0:
448,192,112894,1,0,0:0:0:0:
64,192,112894,1,0,0:0:0:0:
192,192,112894,1,0,0:0:0:0:
320,192,113121,1,0,0:0:0:0:
448,192,113121,1,0,0:0:0:0:
64,192,113121,1,0,0:0:0:0:
192,192,113121,1,0,0:0:0:0:
64,192,113348,1,0,0:0:0:0:
320,192,113348,1,0,0:0:0:0:
192,192,113575,1,0,0:0:0:0:
320,192,113575,1,0,0:0:0:0:
448,192,113803,1,0,0:0:0:0:
320,192,113803,1,0,0:0:0:0:
64,192,113803,1,0,0:0:0:0:
192,192,113803,1,0,0:0:0:0:
448,192,114030,1,0,0:0:0:0:
64,192,114030,1,0,0:0:0:0:
192,192,114030,1,0,0:0:0:0:
192,192,114257,1,0,0:0:0:0:
448,192,114257,1,0,0:0:0:0:
448,192,114371,1,0,0:0:0:0:
320,192,114371,1,0,0:0:0:0:
64,192,114371,1,0,0:0:0:0:
192,192,114484,1,0,0:0:0:0:
64,192,114484,1,0,0:0:0:0:
448,192,114712,1,0,0:0:0:0:
320,192,114712,1,0,0:0:0:0:
64,192,114712,1,0,0:0:0:0:
320,192,114939,1,0,0:0:0:0:
448,192,114939,1,0,0:0:0:0:
64,192,114939,1,0,0:0:0:0:
192,192,114939,1,0,0:0:0:0:
448,192,115166,1,0,0:0:0:0:
192,192,115166,1,0,0:0:0:0:
320,192,115394,1,0,0:0:0:0:
192,192,115394,1,0,0:0:0:0:
320,192,115621,1,0,0:0:0:0:
448,192,115621,1,0,0:0:0:0:
64,192,115621,1,0,0:0:0:0:
192,192,115621,1,0,0:0:0:0:
448,192,115848,1,0,0:0:0:0:
320,192,115848,1,0,0:0:0:0:
64,192,115848,1,0,0:0:0:0:
448,192,116075,1,0,0:0:0:0:
64,192,116075,1,0,0:0:0:0:
192,192,116189,1,0,0:0:0:0:
64,192,116189,1,0,0:0:0:0:
320,192,116189,1,0,0:0:0:0:
448,192,116303,1,0,0:0:0:0:
320,192,116303,1,0,0:0:0:0:
192,192,116530,1,0,0:0:0:0:
64,192,116530,1,0,0:0:0:0:
320,192,116530,1,0,0:0:0:0:
320,192,116757,1,0,0:0:0:0:
448,192,116757,1,0,0:0:0:0:
64,192,116757,1,0,0:0:0:0:
192,192,116757,1,0,0:0:0:0:
64,192,116984,1,0,0:0:0:0:
448,192,116984,1,0,0:0:0:0:
192,192,117212,1,0,0:0:0:0:
448,192,117212,1,0,0:0:0:0:
64,192,117439,1,0,0:0:0:0:
448,192,117439,1,0,0:0:0:0:
320,192,117439,1,0,0:0:0:0:
192,192,117439,1,0,0:0:0:0:
320,192,117666,1,0,0:0:0:0:
64,192,117666,1,0,0:0:0:0:
192,192,117666,1,0,0:0:0:0:
320,192,117894,1,0,0:0:0:0:
64,192,117894,1,0,0:0:0:0:
192,192,118007,1,0,0:0:0:0:
448,192,118007,1,0,0:0:0:0:
320,192,118007,1,0,0:0:0:0:
192,192,118121,1,0,0:0:0:0:
64,192,118121,1,0,0:0:0:0:
448,192,118348,1,0,0:0:0:0:
320,192,118348,1,0,0:0:0:0:
192,192,118348,1,0,0:0:0:0:
448,192,118575,1,0,0:0:0:0:
320,192,118575,1,0,0:0:0:0:
64,192,118575,1,0,0:0:0:0:
192,192,118575,1,0,0:0:0:0:
448,192,118803,1,0,0:0:0:0:
64,192,118803,1,0,0:0:0:0:
320,192,119030,1,0,0:0:0:0:
64,192,119030,1,0,0:0:0:0:
192,192,119257,1,0,0:0:0:0:
64,192,119257,1,0,0:0:0:0:
448,192,119484,1,0,0:0:0:0:
64,192,119484,1,0,0:0:0:0:
192,192,119484,1,0,0:0:0:0:
448,192,119712,1,0,0:0:0:0:
320,192,119712,1,0,0:0:0:0:
448,192,119825,1,0,0:0:0:0:
192,192,119825,1,0,0:0:0:0:
64,192,119825,1,0,0:0:0:0:
192,192,119939,1,0,0:0:0:0:
320,192,119939,1,0,0:0:0:0:
64,192,120166,1,0,0:0:0:0:
448,192,120166,1,0,0:0:0:0:
192,192,120166,1,0,0:0:0:0:
448,192,120394,1,0,0:0:0:0:
320,192,120394,1,0,0:0:0:0:
192,192,120394,1,0,0:0:0:0:
64,192,120394,1,0,0:0:0:0:
192,192,120621,1,0,0:0:0:0:
320,192,120621,1,0,0:0:0:0:
64,192,120848,1,0,0:0:0:0:
320,192,120848,1,0,0:0:0:0:
64,192,121075,1,0,0:0:0:0:
448,192,121075,1,0,0:0:0:0:
320,192,121075,1,0,0:0:0:0:
192,192,121075,1,0,0:0:0:0:
448,192,121303,1,0,0:0:0:0:
192,192,121303,1,0,0:0:0:0:
64,192,121303,1,0,0:0:0:0:
448,192,121530,1,0,0:0:0:0:
64,192,121530,1,0,0:0:0:0:
192,192,121644,1,0,0:0:0:0:
64,192,121644,1,0,0:0:0:0:
320,192,121644,1,0,0:0:0:0:
448,192,121757,1,0,0:0:0:0:
320,192,121757,1,0,0:0:0:0:
320,192,121984,1,0,0:0:0:0:
192,192,121984,1,0,0:0:0:0:
64,192,121984,1,0,0:0:0:0:
320,192,122212,1,0,0:0:0:0:
448,192,122212,1,0,0:0:0:0:
192,192,122212,1,0,0:0:0:0:
64,192,122212,1,0,0:0:0:0:
192,192,122439,1,0,0:0:0:0:
448,192,122439,1,0,0:0:0:0:
64,192,122666,1,0,0:0:0:0:
448,192,122666,1,0,0:0:0:0:
192,192,122894,1,0,0:0:0:0:
448,192,122894,1,0,0:0:0:0:
64,192,122894,1,0,0:0:0:0:
320,192,122894,1,0,0:0:0:0:
64,192,123121,1,0,0:0:0:0:
192,192,123121,1,0,0:0:0:0:
320,192,123121,1,0,0:0:0:0:
320,192,123348,1,0,0:0:0:0:
64,192,123348,1,0,0:0:0:0:
448,192,123462,1,0,0:0:0:0:
320,192,123462,1,0,0:0:0:0:
192,192,123462,1,0,0:0:0:0:
192,192,123575,1,0,0:0:0:0:
64,192,123575,1,0,0:0:0:0:
448,192,123803,1,0,0:0:0:0:
320,192,123803,1,0,0:0:0:0:
192,192,123803,1,0,0:0:0:0:
448,192,124030,1,0,0:0:0:0:
320,192,124030,1,0,0:0:0:0:
64,192,124030,1,0,0:0:0:0:
192,192,124030,1,0,0:0:0:0:
320,192,124257,1,0,0:0:0:0:
64,192,124257,1,0,0:0:0:0:
448,192,124484,1,0,0:0:0:0:
64,192,124484,1,0,0:0:0:0:
320,192,124712,1,0,0:0:0:0:
448,192,124712,1,0,0:0:0:0:
64,192,124712,1,0,0:0:0:0:
192,192,124712,1,0,0:0:0:0:
448,192,124939,1,0,0:0:0:0:
320,192,124939,1,0,0:0:0:0:
192,192,124939,1,0,0:0:0:0:
192,192,125166,1,0,0:0:0:0:
64,192,125166,1,0,0:0:0:0:
320,192,125280,1,0,0:0:0:0:
448,192,125280,1,0,0:0:0:0:
64,192,125280,1,0,0:0:0:0:
448,192,125394,1,0,0:0:0:0:
192,192,125394,1,0,0:0:0:0:
448,192,125621,1,0,0:0:0:0:
320,192,125621,1,0,0:0:0:0:
64,192,125621,1,0,0:0:0:0:
448,192,125848,1,0,0:0:0:0:
320,192,125848,1,0,0:0:0:0:
64,192,125848,1,0,0:0:0:0:
192,192,125848,1,0,0:0:0:0:
64,192,126075,1,0,0:0:0:0:
320,192,126075,1,0,0:0:0:0:
192,192,126075,1,0,0:0:0:0:
320,192,126303,1,0,0:0:0:0:
64,192,126303,1,0,0:0:0:0:
192,192,126303,1,0,0:0:0:0:
448,192,126303,1,0,0:0:0:0:
320,192,126530,1,0,0:0:0:0:
448,192,126530,1,0,0:0:0:0:
64,192,126530,1,0,0:0:0:0:
64,192,126644,1,0,0:0:0:0:
448,192,126644,1,0,0:0:0:0:
192,192,126644,1,0,0:0:0:0:
192,192,126757,1,0,0:0:0:0:
64,192,126757,1,0,0:0:0:0:
320,192,126757,1,0,0:0:0:0:
448,192,126757,1,0,0:0:0:0:
320,192,126984,1,0,0:0:0:0:
448,192,126984,1,0,0:0:0:0:
64,192,127098,1,0,0:0:0:0:
192,192,127098,1,0,0:0:0:0:
448,192,127098,1,0,0:0:0:0:
320,192,127212,1,0,0:0:0:0:
64,192,127212,1,0,0:0:0:0:
192,192,127439,1,0,0:0:0:0:
320,192,127439,1,0,0:0:0:0:
448,192,127439,1,0,0:0:0:0:
192,192,127666,1,0,0:0:0:0:
320,192,127666,1,0,0:0:0:0:
448,192,127666,1,0,0:0:0:0:
64,192,127666,128,0,128575:0:0:0:0:
192,192,127894,128,0,128519:0:0:0:0:
320,192,128121,128,0,128519:0:0:0:0:
448,192,128348,128,0,128519:0:0:0:0:
192,192,128575,1,0,0:0:0:0:
320,192,128575,1,0,0:0:0:0:
448,192,128575,1,0,0:0:0:0:
192,192,128803,1,0,0:0:0:0:
64,192,128803,1,0,0:0:0:0:
64,192,128916,1,0,0:0:0:0:
320,192,128916,1,0,0:0:0:0:
448,192,128916,1,0,0:0:0:0:
192,192,129030,1,0,0:0:0:0:
448,192,129030,1,0,0:0:0:0:
320,192,129257,1,0,0:0:0:0:
192,192,129257,1,0,0:0:0:0:
64,192,129257,1,0,0:0:0:0:
64,192,129484,1,0,0:0:0:0:
192,192,129484,1,0,0:0:0:0:
320,192,129484,1,0,0:0:0:0:
448,192,129484,128,0,130394:0:0:0:0:
320,192,129712,128,0,130337:0:0:0:0:
192,192,129939,128,0,130337:0:0:0:0:
64,192,130166,128,0,130337:0:0:0:0:
64,192,130394,1,0,0:0:0:0:
192,192,130394,1,0,0:0:0:0:
320,192,130394,1,0,0:0:0:0:
64,192,130621,1,0,0:0:0:0:
320,192,130621,1,0,0:0:0:0:
192,192,130734,1,0,0:0:0:0:
320,192,130734,1,0,0:0:0:0:
448,192,130734,1,0,0:0:0:0:
64,192,130848,1,0,0:0:0:0:
192,192,130848,1,0,0:0:0:0:
64,192,131075,1,0,0:0:0:0:
320,192,131075,1,0,0:0:0:0:
448,192,131075,1,0,0:0:0:0:
64,192,131303,1,0,0:0:0:0:
320,192,131303,1,0,0:0:0:0:
448,192,131303,1,0,0:0:0:0:
192,192,131303,128,0,132212:0:0:0:0:
64,192,131530,128,0,132155:0:0:0:0:
320,192,131757,128,0,132155:0:0:0:0:
448,192,131984,128,0,132155:0:0:0:0:
64,192,132212,1,0,0:0:0:0:
320,192,132212,1,0,0:0:0:0:
448,192,132212,1,0,0:0:0:0:
192,192,132439,1,0,0:0:0:0:
448,192,132439,1,0,0:0:0:0:
320,192,132553,1,0,0:0:0:0:
64,192,132553,1,0,0:0:0:0:
192,192,132553,1,0,0:0:0:0:
320,192,132666,1,0,0:0:0:0:
448,192,132666,1,0,0:0:0:0:
64,192,132894,1,0,0:0:0:0:
192,192,132894,1,0,0:0:0:0:
448,192,132894,1,0,0:0:0:0:
192,192,133121,1,0,0:0:0:0:
64,192,133121,1,0,0:0:0:0:
448,192,133121,1,0,0:0:0:0:
320,192,133121,128,0,134030:0:0:0:0:
448,192,133348,128,0,133973:0:0:0:0:
192,192,133575,128,0,133973:0:0:0:0:
64,192,133803,128,0,133973:0:0:0:0:
64,192,134030,1,0,0:0:0:0:
192,192,134030,1,0,0:0:0:0:
448,192,134030,1,0,0:0:0:0:
64,192,134257,1,0,0:0:0:0:
448,192,134257,1,0,0:0:0:0:
192,192,134371,1,0,0:0:0:0:
320,192,134371,1,0,0:0:0:0:
448,192,134371,1,0,0:0:0:0:
192,192,134484,1,0,0:0:0:0:
64,192,134484,1,0,0:0:0:0:
192,192,134712,1,0,0:0:0:0:
320,192,134712,1,0,0:0:0:0:
448,192,134712,1,0,0:0:0:0:
192,192,134939,1,0,0:0:0:0:
448,192,134939,1,0,0:0:0:0:
320,192,134939,1,0,0:0:0:0:
64,192,134939,128,0,135848:0:0:0:0:
448,192,135166,128,0,135791:0:0:0:0:
320,192,135394,128,0,135791:0:0:0:0:
192,192,135621,128,0,135791:0:0:0:0:
192,192,135848,1,0,0:0:0:0:
320,192,135848,1,0,0:0:0:0:
448,192,135848,1,0,0:0:0:0:
64,192,136075,1,0,0:0:0:0:
448,192,136075,1,0,0:0:0:0:
64,192,136189,1,0,0:0:0:0:
192,192,136189,1,0,0:0:0:0:
320,192,136189,1,0,0:0:0:0:
320,192,136303,1,0,0:0:0:0:
448,192,136303,1,0,0:0:0:0:
192,192,136530,1,0,0:0:0:0:
64,192,136530,1,0,0:0:0:0:
320,192,136530,1,0,0:0:0:0:
320,192,136757,1,0,0:0:0:0:
192,192,136757,1,0,0:0:0:0:
64,192,136757,1,0,0:0:0:0:
448,192,136757,128,0,137666:0:0:0:0:
64,192,136984,128,0,137609:0:0:0:0:
192,192,137212,128,0,137609:0:0:0:0:
320,192,137439,128,0,137609:0:0:0:0:
320,192,137666,1,0,0:0:0:0:
192,192,137666,1,0,0:0:0:0:
64,192,137666,1,0,0:0:0:0:
192,192,137894,1,0,0:0:0:0:
320,192,137894,1,0,0:0:0:0:
64,192,138007,1,0,0:0:0:0:
320,192,138007,1,0,0:0:0:0:
448,192,138007,1,0,0:0:0:0:
192,192,138121,1,0,0:0:0:0:
64,192,138121,1,0,0:0:0:0:
64,192,138348,1,0,0:0:0:0:
320,192,138348,1,0,0:0:0:0:
448,192,138348,1,0,0:0:0:0:
64,192,138575,1,0,0:0:0:0:
320,192,138575,1,0,0:0:0:0:
448,192,138575,1,0,0:0:0:0:
192,192,138575,128,0,139484:0:0:0:0:
448,192,138803,128,0,139428:0:0:0:0:
320,192,139030,128,0,139428:0:0:0:0:
64,192,139257,128,0,139428:0:0:0:0:
320,192,139484,1,0,0:0:0:0:
448,192,139484,1,0,0:0:0:0:
64,192,139484,1,0,0:0:0:0:
192,192,139712,1,0,0:0:0:0:
320,192,139712,1,0,0:0:0:0:
64,192,139825,1,0,0:0:0:0:
192,192,139825,1,0,0:0:0:0:
448,192,139825,1,0,0:0:0:0:
320,192,139939,1,0,0:0:0:0:
448,192,139939,1,0,0:0:0:0:
448,192,140166,1,0,0:0:0:0:
192,192,140166,1,0,0:0:0:0:
64,192,140166,1,0,0:0:0:0:
192,192,140394,1,0,0:0:0:0:
64,192,140394,1,0,0:0:0:0:
320,192,140394,1,0,0:0:0:0:
448,192,140394,1,0,0:0:0:0:
320,192,140621,1,0,0:0:0:0:
192,192,140621,1,0,0:0:0:0:
64,192,140621,1,0,0:0:0:0:
448,192,140848,1,0,0:0:0:0:
320,192,140848,1,0,0:0:0:0:
64,192,140876,1,0,0:0:0:0:
192,192,140905,1,0,0:0:0:0:
192,192,141075,1,0,0:0:0:0:
448,192,141075,1,0,0:0:0:0:
320,192,141075,1,0,0:0:0:0:
192,192,141303,1,0,0:0:0:0:
64,192,141303,1,0,0:0:0:0:
320,192,141303,1,0,0:0:0:0:
448,192,141303,1,0,0:0:0:0:
192,192,141530,1,0,0:0:0:0:
64,192,141530,1,0,0:0:0:0:
448,192,141644,1,0,0:0:0:0:
320,192,141644,1,0,0:0:0:0:
64,192,141644,1,0,0:0:0:0:
448,192,141757,1,0,0:0:0:0:
192,192,141757,1,0,0:0:0:0:
448,192,141984,1,0,0:0:0:0:
320,192,141984,1,0,0:0:0:0:
64,192,141984,1,0,0:0:0:0:
448,192,142212,1,0,0:0:0:0:
192,192,142212,128,0,143121:0:0:0:0:
64,192,142212,1,0,0:0:0:0:
320,192,142212,1,0,0:0:0:0:
448,192,142439,128,0,143064:0:0:0:0:
320,192,142666,128,0,143064:0:0:0:0:
64,192,142894,128,0,143064:0:0:0:0:
448,192,143121,1,0,0:0:0:0:
320,192,143121,1,0,0:0:0:0:
64,192,143121,1,0,0:0:0:0:
320,192,143348,1,0,0:0:0:0:
448,192,143348,1,0,0:0:0:0:
64,192,143462,1,0,0:0:0:0:
192,192,143462,1,0,0:0:0:0:
448,192,143462,1,0,0:0:0:0:
64,192,143575,1,0,0:0:0:0:
320,192,143575,1,0,0:0:0:0:
448,192,143803,1,0,0:0:0:0:
64,192,143803,1,0,0:0:0:0:
192,192,143803,1,0,0:0:0:0:
448,192,144030,1,0,0:0:0:0:
320,192,144030,128,0,144939:0:0:0:0:
192,192,144030,1,0,0:0:0:0:
64,192,144030,1,0,0:0:0:0:
64,192,144257,128,0,144882:0:0:0:0:
192,192,144484,128,0,144882:0:0:0:0:
448,192,144712,128,0,144882:0:0:0:0:
64,192,144939,1,0,0:0:0:0:
192,192,144939,1,0,0:0:0:0:
448,192,144939,1,0,0:0:0:0:
448,192,145166,1,0,0:0:0:0:
64,192,145166,1,0,0:0:0:0:
192,192,145280,1,0,0:0:0:0:
448,192,145280,1,0,0:0:0:0:
320,192,145280,1,0,0:0:0:0:
192,192,145394,1,0,0:0:0:0:
64,192,145394,1,0,0:0:0:0:
448,192,145621,1,0,0:0:0:0:
320,192,145621,1,0,0:0:0:0:
192,192,145621,1,0,0:0:0:0:
448,192,145848,1,0,0:0:0:0:
64,192,145848,128,0,146757:0:0:0:0:
192,192,145848,1,0,0:0:0:0:
320,192,145848,1,0,0:0:0:0:
448,192,146075,128,0,146700:0:0:0:0:
320,192,146303,128,0,146700:0:0:0:0:
192,192,146530,128,0,146700:0:0:0:0:
448,192,146757,1,0,0:0:0:0:
320,192,146757,1,0,0:0:0:0:
192,192,146757,1,0,0:0:0:0:
448,192,146984,1,0,0:0:0:0:
64,192,146984,1,0,0:0:0:0:
320,192,147098,1,0,0:0:0:0:
192,192,147098,1,0,0:0:0:0:
64,192,147098,1,0,0:0:0:0:
320,192,147212,1,0,0:0:0:0:
448,192,147212,1,0,0:0:0:0:
320,192,147439,1,0,0:0:0:0:
192,192,147439,1,0,0:0:0:0:
64,192,147439,1,0,0:0:0:0:
320,192,147666,1,0,0:0:0:0:
448,192,147666,128,0,148575:0:0:0:0:
64,192,147666,1,0,0:0:0:0:
192,192,147666,1,0,0:0:0:0:
64,192,147894,128,0,148519:0:0:0:0:
192,192,148121,128,0,148519:0:0:0:0:
320,192,148348,128,0,148519:0:0:0:0:
192,192,148575,1,0,0:0:0:0:
320,192,148575,1,0,0:0:0:0:
64,192,148575,1,0,0:0:0:0:
192,192,148803,1,0,0:0:0:0:
448,192,148803,1,0,0:0:0:0:
320,192,148916,1,0,0:0:0:0:
64,192,148916,1,0,0:0:0:0:
448,192,148916,1,0,0:0:0:0:
192,192,149030,1,0,0:0:0:0:
64,192,149030,1,0,0:0:0:0:
448,192,149257,1,0,0:0:0:0:
320,192,149257,1,0,0:0:0:0:
64,192,149257,1,0,0:0:0:0:
448,192,149484,1,0,0:0:0:0:
192,192,149484,128,0,150394:0:0:0:0:
64,192,149484,1,0,0:0:0:0:
320,192,149484,1,0,0:0:0:0:
320,192,149712,128,0,150337:0:0:0:0:
448,192,149939,128,0,150337:0:0:0:0:
64,192,150166,128,0,150337:0:0:0:0:
448,192,150394,1,0,0:0:0:0:
320,192,150394,1,0,0:0:0:0:
64,192,150394,1,0,0:0:0:0:
320,192,150621,1,0,0:0:0:0:
64,192,150621,1,0,0:0:0:0:
64,192,150734,1,0,0:0:0:0:
448,192,150734,1,0,0:0:0:0:
192,192,150734,1,0,0:0:0:0:
320,192,150848,1,0,0:0:0:0:
448,192,150848,1,0,0:0:0:0:
448,192,151075,1,0,0:0:0:0:
64,192,151075,1,0,0:0:0:0:
192,192,151075,1,0,0:0:0:0:
448,192,151303,1,0,0:0:0:0:
320,192,151303,128,0,152212:0:0:0:0:
64,192,151303,1,0,0:0:0:0:
192,192,151303,1,0,0:0:0:0:
192,192,151530,128,0,152155:0:0:0:0:
64,192,151757,128,0,152155:0:0:0:0:
448,192,151984,128,0,152155:0:0:0:0:
64,192,152212,1,0,0:0:0:0:
192,192,152212,1,0,0:0:0:0:
448,192,152212,1,0,0:0:0:0:
320,192,152439,1,0,0:0:0:0:
448,192,152439,1,0,0:0:0:0:
64,192,152553,1,0,0:0:0:0:
448,192,152553,1,0,0:0:0:0:
192,192,152553,1,0,0:0:0:0:
320,192,152666,1,0,0:0:0:0:
64,192,152666,1,0,0:0:0:0:
320,192,152894,1,0,0:0:0:0:
448,192,152894,1,0,0:0:0:0:
64,192,152894,1,0,0:0:0:0:
320,192,153121,1,0,0:0:0:0:
448,192,153121,1,0,0:0:0:0:
192,192,153121,1,0,0:0:0:0:
64,192,153121,1,0,0:0:0:0:
448,192,153348,1,0,0:0:0:0:
192,192,153348,1,0,0:0:0:0:
320,192,153575,1,0,0:0:0:0:
448,192,153575,1,0,0:0:0:0:
192,192,153575,1,0,0:0:0:0:
64,192,153575,1,0,0:0:0:0:
192,192,153803,1,0,0:0:0:0:
320,192,153803,1,0,0:0:0:0:
64,192,153803,1,0,0:0:0:0:
448,192,154030,1,0,0:0:0:0:
320,192,154030,1,0,0:0:0:0:
64,192,154030,1,0,0:0:0:0:
448,192,154257,1,0,0:0:0:0:
320,192,154257,1,0,0:0:0:0:
192,192,154257,1,0,0:0:0:0:
64,192,154257,1,0,0:0:0:0:
448,192,154484,1,0,0:0:0:0:
192,192,154484,1,0,0:0:0:0:
320,192,154712,1,0,0:0:0:0:
192,192,154712,1,0,0:0:0:0:
64,192,154712,1,0,0:0:0:0:
192,192,154939,1,0,0:0:0:0:
448,192,154939,1,0,0:0:0:0:
64,192,154939,1,0,0:0:0:0:
320,192,154939,1,0,0:0:0:0:
448,192,155166,1,0,0:0:0:0:
320,192,155166,1,0,0:0:0:0:
448,192,155394,1,0,0:0:0:0:
320,192,155394,1,0,0:0:0:0:
192,192,155394,1,0,0:0:0:0:
64,192,155394,1,0,0:0:0:0:
64,192,155621,1,0,0:0:0:0:
192,192,155621,1,0,0:0:0:0:
320,192,155621,1,0,0:0:0:0:
192,192,155734,1,0,0:0:0:0:
448,192,155734,1,0,0:0:0:0:
320,192,155734,1,0,0:0:0:0:
192,192,155848,1,0,0:0:0:0:
320,192,155848,1,0,0:0:0:0:
448,192,155848,1,0,0:0:0:0:
64,192,155848,128,0,155905:0:0:0:0:
64,192,156075,128,0,156132:0:0:0:0:
448,192,156075,1,0,0:0:0:0:
64,192,156303,128,0,156359:0:0:0:0:
320,192,156303,1,0,0:0:0:0:
64,192,156530,128,0,156587:0:0:0:0:
320,192,156530,1,0,0:0:0:0:
448,192,156530,1,0,0:0:0:0:
64,192,156757,128,0,156814:0:0:0:0:
192,192,156757,1,0,0:0:0:0:
320,192,156757,1,0,0:0:0:0:
448,192,156757,1,0,0:0:0:0:
64,192,156984,128,0,157041:0:0:0:0:
448,192,156984,1,0,0:0:0:0:
64,192,157212,128,0,157269:0:0:0:0:
320,192,157212,1,0,0:0:0:0:
64,192,157439,128,0,157496:0:0:0:0:
320,192,157439,1,0,0:0:0:0:
448,192,157439,1,0,0:0:0:0:
192,192,157666,128,0,157723:0:0:0:0:
320,192,157666,1,0,0:0:0:0:
448,192,157666,1,0,0:0:0:0:
192,192,157894,128,0,157950:0:0:0:0:
448,192,157894,1,0,0:0:0:0:
192,192,158121,128,0,158178:0:0:0:0:
320,192,158121,1,0,0:0:0:0:
192,192,158348,128,0,158405:0:0:0:0:
320,192,158348,1,0,0:0:0:0:
448,192,158348,1,0,0:0:0:0:
192,192,158575,128,0,158632:0:0:0:0:
320,192,158575,1,0,0:0:0:0:
448,192,158575,1,0,0:0:0:0:
64,192,158575,1,0,0:0:0:0:
192,192,158803,128,0,158859:0:0:0:0:
448,192,158803,1,0,0:0:0:0:
192,192,159030,128,0,159087:0:0:0:0:
320,192,159030,1,0,0:0:0:0:
192,192,159257,128,0,159314:0:0:0:0:
320,192,159257,1,0,0:0:0:0:
448,192,159257,1,0,0:0:0:0:
64,192,159257,1,0,0:0:0:0:
448,192,159484,128,0,159541:0:0:0:0:
192,192,159484,1,0,0:0:0:0:
64,192,159484,1,0,0:0:0:0:
448,192,159712,128,0,159769:0:0:0:0:
64,192,159712,1,0,0:0:0:0:
448,192,159939,128,0,159996:0:0:0:0:
192,192,159939,1,0,0:0:0:0:
448,192,160166,128,0,160223:0:0:0:0:
64,192,160166,1,0,0:0:0:0:
192,192,160166,1,0,0:0:0:0:
320,192,160394,128,0,160450:0:0:0:0:
192,192,160394,1,0,0:0:0:0:
64,192,160394,1,0,0:0:0:0:
448,192,160394,1,0,0:0:0:0:
320,192,160621,128,0,160678:0:0:0:0:
64,192,160621,1,0,0:0:0:0:
320,192,160848,128,0,160905:0:0:0:0:
192,192,160848,1,0,0:0:0:0:
320,192,161075,128,0,161132:0:0:0:0:
64,192,161075,1,0,0:0:0:0:
192,192,161075,1,0,0:0:0:0:
448,192,161075,1,0,0:0:0:0:
192,192,161303,128,0,161359:0:0:0:0:
448,192,161303,1,0,0:0:0:0:
320,192,161303,1,0,0:0:0:0:
192,192,161530,128,0,161587:0:0:0:0:
448,192,161530,1,0,0:0:0:0:
192,192,161757,128,0,161814:0:0:0:0:
320,192,161757,1,0,0:0:0:0:
192,192,161984,128,0,162041:0:0:0:0:
320,192,161984,1,0,0:0:0:0:
448,192,161984,1,0,0:0:0:0:
64,192,162212,128,0,162269:0:0:0:0:
192,192,162212,1,0,0:0:0:0:
320,192,162212,1,0,0:0:0:0:
448,192,162212,1,0,0:0:0:0:
64,192,162439,128,0,162496:0:0:0:0:
320,192,162439,1,0,0:0:0:0:
448,192,162439,1,0,0:0:0:0:
64,192,162666,128,0,162723:0:0:0:0:
320,192,162666,1,0,0:0:0:0:
448,192,162695,1,0,0:0:0:0:
192,192,162723,1,0,0:0:0:0:
64,192,162894,128,0,162950:0:0:0:0:
320,192,162894,1,0,0:0:0:0:
448,192,162894,1,0,0:0:0:0:
192,192,163121,1,0,0:0:0:0:
64,192,163121,1,0,0:0:0:0:
448,192,163121,1,0,0:0:0:0:
320,192,163121,128,0,163178:0:0:0:0:
320,192,163348,128,0,163405:0:0:0:0:
192,192,163348,1,0,0:0:0:0:
320,192,163575,128,0,163632:0:0:0:0:
64,192,163575,1,0,0:0:0:0:
320,192,163803,128,0,163859:0:0:0:0:
64,192,163803,1,0,0:0:0:0:
192,192,163803,1,0,0:0:0:0:
320,192,164030,128,0,164087:0:0:0:0:
64,192,164030,1,0,0:0:0:0:
192,192,164030,1,0,0:0:0:0:
448,192,164030,1,0,0:0:0:0:
320,192,164257,128,0,164314:0:0:0:0:
192,192,164257,1,0,0:0:0:0:
320,192,164484,128,0,164541:0:0:0:0:
64,192,164484,1,0,0:0:0:0:
320,192,164712,128,0,164769:0:0:0:0:
192,192,164712,1,0,0:0:0:0:
64,192,164712,1,0,0:0:0:0:
320,192,164939,128,0,164996:0:0:0:0:
64,192,164939,1,0,0:0:0:0:
192,192,164939,1,0,0:0:0:0:
320,192,165166,128,0,165223:0:0:0:0:
192,192,165166,1,0,0:0:0:0:
320,192,165394,128,0,165450:0:0:0:0:
64,192,165394,1,0,0:0:0:0:
320,192,165621,128,0,165678:0:0:0:0:
192,192,165621,1,0,0:0:0:0:
64,192,165621,1,0,0:0:0:0:
320,192,165848,128,0,165905:0:0:0:0:
64,192,165848,1,0,0:0:0:0:
192,192,165848,1,0,0:0:0:0:
448,192,165848,1,0,0:0:0:0:
320,192,166075,128,0,166132:0:0:0:0:
192,192,166075,1,0,0:0:0:0:
320,192,166303,128,0,166359:0:0:0:0:
64,192,166303,1,0,0:0:0:0:
320,192,166530,128,0,166587:0:0:0:0:
192,192,166530,1,0,0:0:0:0:
64,192,166530,1,0,0:0:0:0:
448,192,166530,1,0,0:0:0:0:
192,192,166757,128,0,166814:0:0:0:0:
320,192,166757,1,0,0:0:0:0:
448,192,166757,1,0,0:0:0:0:
192,192,166984,128,0,167041:0:0:0:0:
448,192,166984,1,0,0:0:0:0:
192,192,167212,128,0,167269:0:0:0:0:
320,192,167212,1,0,0:0:0:0:
192,192,167439,128,0,167496:0:0:0:0:
320,192,167439,1,0,0:0:0:0:
448,192,167439,1,0,0:0:0:0:
192,192,167666,128,0,167723:0:0:0:0:
320,192,167666,1,0,0:0:0:0:
448,192,167666,1,0,0:0:0:0:
64,192,167666,1,0,0:0:0:0:
192,192,167894,128,0,167950:0:0:0:0:
448,192,167894,1,0,0:0:0:0:
192,192,168121,128,0,168178:0:0:0:0:
320,192,168121,1,0,0:0:0:0:
192,192,168348,128,0,168405:0:0:0:0:
320,192,168348,1,0,0:0:0:0:
448,192,168348,1,0,0:0:0:0:
64,192,168348,1,0,0:0:0:0:
192,192,168575,128,0,168632:0:0:0:0:
448,192,168575,1,0,0:0:0:0:
320,192,168575,1,0,0:0:0:0:
192,192,168803,128,0,168859:0:0:0:0:
448,192,168803,1,0,0:0:0:0:
192,192,169030,128,0,169087:0:0:0:0:
320,192,169030,1,0,0:0:0:0:
192,192,169257,128,0,169314:0:0:0:0:
320,192,169257,1,0,0:0:0:0:
448,192,169257,1,0,0:0:0:0:
192,192,169484,128,0,169541:0:0:0:0:
320,192,169484,1,0,0:0:0:0:
448,192,169484,1,0,0:0:0:0:
64,192,169484,1,0,0:0:0:0:
192,192,169712,128,0,169769:0:0:0:0:
320,192,169712,1,0,0:0:0:0:
448,192,169712,1,0,0:0:0:0:
192,192,169939,128,0,169996:0:0:0:0:
320,192,169939,1,0,0:0:0:0:
64,192,169967,1,0,0:0:0:0:
448,192,169996,1,0,0:0:0:0:
192,192,170166,128,0,170223:0:0:0:0:
64,192,170394,1,0,0:0:0:0:
192,192,170394,1,0,0:0:0:0:
320,192,170394,1,0,0:0:0:0:
448,192,170394,128,0,170450:0:0:0:0:
320,192,170621,128,0,170678:0:0:0:0:
64,192,170621,1,0,0:0:0:0:
448,192,170848,128,0,170905:0:0:0:0:
192,192,170848,1,0,0:0:0:0:
320,192,171075,128,0,171132:0:0:0:0:
192,192,171075,1,0,0:0:0:0:
64,192,171075,1,0,0:0:0:0:
448,192,171303,128,0,171359:0:0:0:0:
64,192,171303,1,0,0:0:0:0:
192,192,171303,1,0,0:0:0:0:
320,192,171303,1,0,0:0:0:0:
320,192,171530,128,0,171587:0:0:0:0:
64,192,171530,1,0,0:0:0:0:
448,192,171757,128,0,171814:0:0:0:0:
192,192,171757,1,0,0:0:0:0:
320,192,171984,128,0,172041:0:0:0:0:
64,192,171984,1,0,0:0:0:0:
192,192,171984,1,0,0:0:0:0:
192,192,172212,128,0,172269:0:0:0:0:
320,192,172212,1,0,0:0:0:0:
448,192,172212,1,0,0:0:0:0:
320,192,172439,128,0,172496:0:0:0:0:
64,192,172439,1,0,0:0:0:0:
192,192,172666,128,0,172723:0:0:0:0:
448,192,172666,1,0,0:0:0:0:
320,192,172894,128,0,172950:0:0:0:0:
192,192,172894,1,0,0:0:0:0:
64,192,172894,1,0,0:0:0:0:
192,192,173121,128,0,173178:0:0:0:0:
320,192,173121,1,0,0:0:0:0:
448,192,173121,1,0,0:0:0:0:
64,192,173121,1,0,0:0:0:0:
320,192,173348,128,0,173405:0:0:0:0:
64,192,173348,1,0,0:0:0:0:
192,192,173575,128,0,173632:0:0:0:0:
448,192,173575,1,0,0:0:0:0:
320,192,173803,128,0,173859:0:0:0:0:
192,192,173803,1,0,0:0:0:0:
64,192,173803,1,0,0:0:0:0:
448,192,173803,1,0,0:0:0:0:
192,192,174030,128,0,174087:0:0:0:0:
320,192,174030,1,0,0:0:0:0:
448,192,174030,1,0,0:0:0:0:
64,192,174257,128,0,174314:0:0:0:0:
320,192,174257,1,0,0:0:0:0:
192,192,174484,128,0,174541:0:0:0:0:
448,192,174484,1,0,0:0:0:0:
64,192,174712,128,0,174769:0:0:0:0:
320,192,174712,1,0,0:0:0:0:
448,192,174712,1,0,0:0:0:0:
192,192,174939,128,0,174996:0:0:0:0:
320,192,174939,1,0,0:0:0:0:
448,192,174939,1,0,0:0:0:0:
64,192,174939,1,0,0:0:0:0:
320,192,175166,128,0,175223:0:0:0:0:
64,192,175166,1,0,0:0:0:0:
192,192,175394,128,0,175450:0:0:0:0:
448,192,175394,1,0,0:0:0:0:
320,192,175621,128,0,175678:0:0:0:0:
64,192,175621,1,0,0:0:0:0:
192,192,175621,1,0,0:0:0:0:
448,192,175621,1,0,0:0:0:0:
448,192,175848,128,0,175905:0:0:0:0:
192,192,175848,1,0,0:0:0:0:
64,192,175848,1,0,0:0:0:0:
320,192,176075,128,0,176132:0:0:0:0:
64,192,176075,1,0,0:0:0:0:
448,192,176303,128,0,176359:0:0:0:0:
192,192,176303,1,0,0:0:0:0:
320,192,176530,128,0,176587:0:0:0:0:
64,192,176530,1,0,0:0:0:0:
192,192,176530,1,0,0:0:0:0:
192,192,176757,128,0,176814:0:0:0:0:
320,192,176757,1,0,0:0:0:0:
448,192,176757,1,0,0:0:0:0:
64,192,176757,1,0,0:0:0:0:
320,192,176984,128,0,177041:0:0:0:0:
192,192,176984,1,0,0:0:0:0:
64,192,176984,1,0,0:0:0:0:
192,192,177212,128,0,177269:0:0:0:0:
320,192,177212,1,0,0:0:0:0:
448,192,177212,1,0,0:0:0:0:
64,192,177212,1,0,0:0:0:0:
320,192,177439,128,0,177496:0:0:0:0:
192,192,177439,1,0,0:0:0:0:
64,192,177439,1,0,0:0:0:0:
64,192,177666,1,0,0:0:0:0:
192,192,177666,1,0,0:0:0:0:
320,192,177666,1,0,0:0:0:0:
448,192,177666,128,0,177723:0:0:0:0:
192,192,177894,128,0,177950:0:0:0:0:
320,192,177894,1,0,0:0:0:0:
448,192,178121,128,0,178178:0:0:0:0:
64,192,178121,1,0,0:0:0:0:
192,192,178348,128,0,178405:0:0:0:0:
320,192,178348,1,0,0:0:0:0:
448,192,178348,1,0,0:0:0:0:
448,192,178575,128,0,178632:0:0:0:0:
320,192,178575,1,0,0:0:0:0:
192,192,178575,1,0,0:0:0:0:
64,192,178575,1,0,0:0:0:0:
192,192,178803,128,0,178859:0:0:0:0:
320,192,178803,1,0,0:0:0:0:
448,192,179030,128,0,179087:0:0:0:0:
64,192,179030,1,0,0:0:0:0:
192,192,179257,128,0,179314:0:0:0:0:
320,192,179257,1,0,0:0:0:0:
448,192,179257,1,0,0:0:0:0:
448,192,179484,128,0,179541:0:0:0:0:
192,192,179484,1,0,0:0:0:0:
64,192,179484,1,0,0:0:0:0:
192,192,179712,128,0,179769:0:0:0:0:
320,192,179712,1,0,0:0:0:0:
448,192,179939,128,0,179996:0:0:0:0:
64,192,179939,1,0,0:0:0:0:
192,192,180166,128,0,180223:0:0:0:0:
320,192,180166,1,0,0:0:0:0:
448,192,180166,1,0,0:0:0:0:
448,192,180394,128,0,180450:0:0:0:0:
320,192,180394,1,0,0:0:0:0:
192,192,180394,1,0,0:0:0:0:
64,192,180394,1,0,0:0:0:0:
192,192,180621,128,0,180678:0:0:0:0:
320,192,180621,1,0,0:0:0:0:
448,192,180848,128,0,180905:0:0:0:0:
64,192,180848,1,0,0:0:0:0:
192,192,181075,128,0,181132:0:0:0:0:
320,192,181075,1,0,0:0:0:0:
448,192,181075,1,0,0:0:0:0:
64,192,181075,1,0,0:0:0:0:
320,192,181303,128,0,181359:0:0:0:0:
192,192,181303,1,0,0:0:0:0:
64,192,181303,1,0,0:0:0:0:
64,192,181530,128,0,181587:0:0:0:0:
448,192,181530,1,0,0:0:0:0:
320,192,181757,128,0,181814:0:0:0:0:
192,192,181757,1,0,0:0:0:0:
64,192,181984,128,0,182041:0:0:0:0:
448,192,181984,1,0,0:0:0:0:
320,192,181984,1,0,0:0:0:0:
320,192,182212,128,0,182269:0:0:0:0:
192,192,182212,1,0,0:0:0:0:
64,192,182212,1,0,0:0:0:0:
448,192,182212,1,0,0:0:0:0:
64,192,182439,128,0,182496:0:0:0:0:
448,192,182439,1,0,0:0:0:0:
320,192,182666,128,0,182723:0:0:0:0:
192,192,182666,1,0,0:0:0:0:
64,192,182666,1,0,0:0:0:0:
448,192,182666,1,0,0:0:0:0:
64,192,182894,128,0,182950:0:0:0:0:
320,192,182894,1,0,0:0:0:0:
448,192,182894,1,0,0:0:0:0:
320,192,183121,128,0,183178:0:0:0:0:
192,192,183121,1,0,0:0:0:0:
64,192,183121,1,0,0:0:0:0:
64,192,183348,128,0,183405:0:0:0:0:
192,192,183348,1,0,0:0:0:0:
448,192,183348,1,0,0:0:0:0:
320,192,183348,1,0,0:0:0:0:
320,192,183575,128,0,183632:0:0:0:0:
192,192,183575,1,0,0:0:0:0:
64,192,183803,128,0,183859:0:0:0:0:
320,192,183803,1,0,0:0:0:0:
448,192,183803,1,0,0:0:0:0:
320,192,184030,128,0,184087:0:0:0:0:
192,192,184030,1,0,0:0:0:0:
64,192,184030,1,0,0:0:0:0:
448,192,184030,1,0,0:0:0:0:
64,192,184257,128,0,184314:0:0:0:0:
320,192,184257,1,0,0:0:0:0:
448,192,184257,1,0,0:0:0:0:
64,192,184484,1,0,0:0:0:0:
192,192,184484,1,0,0:0:0:0:
320,192,184484,1,0,0:0:0:0:
64,192,184598,1,0,0:0:0:0:
192,192,184598,1,0,0:0:0:0:
448,192,184598,1,0,0:0:0:0:
448,192,184712,1,0,0:0:0:0:
64,192,184712,1,0,0:0:0:0:
320,192,184712,1,0,0:0:0:0:
192,192,184825,1,0,0:0:0:0:
320,192,184825,1,0,0:0:0:0:
448,192,184825,1,0,0:0:0:0:
320,192,184939,128,0,186644:0:0:0:0:
192,192,184939,128,0,186644:0:0:0:0:
448,192,184939,128,0,186644:0:0:0:0:
64,192,184939,128,0,186644:0:0:0:0:
64,192,186757,128,0,186871:0:0:0:0:
192,192,186757,128,0,186871:0:0:0:0:
320,192,186757,128,0,186871:0:0:0:0:
448,192,186757,128,0,186871:0:0:0:0:
448,192,186984,128,0,187212:0:0:0:0:
320,192,186984,128,0,187212:0:0:0:0:
192,192,186984,128,0,187212:0:0:0:0:
64,192,186984,128,0,187212:0:0:0:0:
64,192,187439,1,0,0:0:0:0:
320,192,187439,1,0,0:0:0:0:
448,192,187439,1,0,0:0:0:0:
64,192,187666,1,0,0:0:0:0:
192,192,187666,1,0,0:0:0:0:
320,192,187666,1,0,0:0:0:0:
448,192,187666,1,0,0:0:0:0:
64,192,187894,1,0,0:0:0:0:
192,192,187894,1,0,0:0:0:0:
448,192,187894,1,0,0:0:0:0:
192,192,188121,1,0,0:0:0:0:
320,192,188121,1,0,0:0:0:0:
448,192,188149,1,0,0:0:0:0:
64,192,188178,1,0,0:0:0:0:
192,192,188348,1,0,0:0:0:0:
320,192,188348,1,0,0:0:0:0:
448,192,188348,1,0,0:0:0:0:
64,192,188575,128,0,192212:0:0:0:0:
192,192,188575,1,0,0:0:0:0:
320,192,188575,1,0,0:0:0:0:
448,192,188575,1,0,0:0:0:0:
320,192,188803,128,0,189144:0:0:0:0:
448,192,189030,128,0,189371:0:0:0:0:
320,192,189257,1,0,0:0:0:0:
192,192,189257,128,0,189371:0:0:0:0:
192,192,189484,1,0,0:0:0:0:
320,192,189484,1,0,0:0:0:0:
448,192,189484,128,0,189825:0:0:0:0:
192,192,189712,128,0,190053:0:0:0:0:
448,192,189939,1,0,0:0:0:0:
320,192,189939,128,0,190507:0:0:0:0:
192,192,190166,1,0,0:0:0:0:
448,192,190166,128,0,190507:0:0:0:0:
192,192,190394,128,0,190507:0:0:0:0:
448,192,190621,128,0,190962:0:0:0:0:
320,192,190621,1,0,0:0:0:0:
192,192,190621,1,0,0:0:0:0:
192,192,190848,128,0,191189:0:0:0:0:
448,192,191075,1,0,0:0:0:0:
320,192,191075,128,0,191189:0:0:0:0:
192,192,191303,1,0,0:0:0:0:
320,192,191303,1,0,0:0:0:0:
448,192,191303,128,0,191871:0:0:0:0:
320,192,191530,128,0,191871:0:0:0:0:
192,192,191757,128,0,192212:0:0:0:0:
320,192,191984,1,0,0:0:0:0:
448,192,191984,128,0,192098:0:0:0:0:
448,192,192212,128,0,195848:0:0:0:0:
320,192,192212,1,0,0:0:0:0:
192,192,192439,128,0,192780:0:0:0:0:
64,192,192666,128,0,193007:0:0:0:0:
192,192,192894,1,0,0:0:0:0:
320,192,192894,128,0,193007:0:0:0:0:
320,192,193121,1,0,0:0:0:0:
192,192,193121,1,0,0:0:0:0:
64,192,193121,128,0,193462:0:0:0:0:
320,192,193348,128,0,193689:0:0:0:0:
64,192,193575,1,0,0:0:0:0:
192,192,193575,128,0,194144:0:0:0:0:
320,192,193803,1,0,0:0:0:0:
64,192,193803,128,0,194144:0:0:0:0:
320,192,194030,128,0,194144:0:0:0:0:
64,192,194257,128,0,194598:0:0:0:0:
192,192,194257,1,0,0:0:0:0:
320,192,194257,1,0,0:0:0:0:
320,192,194484,128,0,194825:0:0:0:0:
64,192,194712,1,0,0:0:0:0:
192,192,194712,128,0,194825:0:0:0:0:
320,192,194939,1,0,0:0:0:0:
192,192,194939,1,0,0:0:0:0:
64,192,194939,128,0,195507:0:0:0:0:
192,192,195166,128,0,195507:0:0:0:0:
320,192,195394,128,0,195848:0:0:0:0:
192,192,195621,1,0,0:0:0:0:
64,192,195621,128,0,195734:0:0:0:0:
192,192,195848,128,0,199484:0:0:0:0:
64,192,195848,1,0,0:0:0:0:
320,192,196075,128,0,196416:0:0:0:0:
448,192,196303,128,0,196644:0:0:0:0:
64,192,196530,128,0,196644:0:0:0:0:
320,192,196530,1,0,0:0:0:0:
448,192,196757,128,0,197098:0:0:0:0:
320,192,196757,1,0,0:0:0:0:
64,192,196757,1,0,0:0:0:0:
64,192,196984,128,0,197325:0:0:0:0:
320,192,197212,128,0,197780:0:0:0:0:
448,192,197212,1,0,0:0:0:0:
448,192,197439,128,0,197780:0:0:0:0:
64,192,197439,1,0,0:0:0:0:
64,192,197666,128,0,197780:0:0:0:0:
64,192,197894,1,0,0:0:0:0:
320,192,197894,1,0,0:0:0:0:
448,192,197894,128,0,198234:0:0:0:0:
64,192,198121,128,0,198462:0:0:0:0:
320,192,198348,128,0,198462:0:0:0:0:
448,192,198348,1,0,0:0:0:0:
448,192,198575,128,0,199144:0:0:0:0:
320,192,198575,1,0,0:0:0:0:
64,192,198575,1,0,0:0:0:0:
320,192,198803,128,0,199144:0:0:0:0:
64,192,199030,128,0,199484:0:0:0:0:
448,192,199257,128,0,199371:0:0:0:0:
320,192,199257,1,0,0:0:0:0:
320,192,199484,128,0,202212:0:0:0:0:
448,192,199484,1,0,0:0:0:0:
192,192,199712,128,0,200053:0:0:0:0:
64,192,199939,128,0,200280:0:0:0:0:
192,192,200166,1,0,0:0:0:0:
448,192,200166,128,0,200280:0:0:0:0:
64,192,200394,128,0,200734:0:0:0:0:
448,192,200394,1,0,0:0:0:0:
192,192,200394,1,0,0:0:0:0:
448,192,200621,128,0,200962:0:0:0:0:
192,192,200848,128,0,201416:0:0:0:0:
64,192,200848,1,0,0:0:0:0:
448,192,201075,1,0,0:0:0:0:
64,192,201075,128,0,201416:0:0:0:0:
448,192,201303,128,0,201416:0:0:0:0:
192,192,201530,1,0,0:0:0:0:
64,192,201530,128,0,201871:0:0:0:0:
448,192,201530,1,0,0:0:0:0:
448,192,201757,128,0,202098:0:0:0:0:
64,192,201984,1,0,0:0:0:0:
192,192,201984,128,0,202098:0:0:0:0:
192,192,202212,1,0,0:0:0:0:
448,192,202212,1,0,0:0:0:0:
64,192,202212,1,0,0:0:0:0:
192,192,202325,1,0,0:0:0:0:
64,192,202325,1,0,0:0:0:0:
448,192,202325,1,0,0:0:0:0:
320,192,202439,1,0,0:0:0:0:
448,192,202439,1,0,0:0:0:0:
64,192,202439,1,0,0:0:0:0:
64,192,202553,1,0,0:0:0:0:
320,192,202553,1,0,0:0:0:0:
448,192,202553,1,0,0:0:0:0:
192,192,202666,1,0,0:0:0:0:
448,192,202666,1,0,0:0:0:0:
64,192,202695,1,0,0:0:0:0:
320,192,202723,1,0,0:0:0:0:
192,192,202894,1,0,0:0:0:0:
192,192,203121,1,0,0:0:0:0:
448,192,203121,128,0,206757:0:0:0:0:
64,192,203121,1,0,0:0:0:0:
320,192,203121,1,0,0:0:0:0:
192,192,203348,128,0,203689:0:0:0:0:
320,192,203575,128,0,203916:0:0:0:0:
64,192,203803,128,0,203916:0:0:0:0:
192,192,203803,1,0,0:0:0:0:
320,192,204030,1,0,0:0:0:0:
192,192,204030,128,0,204371:0:0:0:0:
64,192,204030,1,0,0:0:0:0:
320,192,204257,128,0,204712:0:0:0:0:
64,192,204484,128,0,204598:0:0:0:0:
192,192,204484,1,0,0:0:0:0:
192,192,204712,128,0,205053:0:0:0:0:
64,192,204712,1,0,0:0:0:0:
320,192,204939,128,0,205053:0:0:0:0:
64,192,205166,128,0,205507:0:0:0:0:
192,192,205166,1,0,0:0:0:0:
320,192,205166,1,0,0:0:0:0:
192,192,205394,128,0,205734:0:0:0:0:
320,192,205621,128,0,205734:0:0:0:0:
64,192,205621,1,0,0:0:0:0:
64,192,205848,128,0,206416:0:0:0:0:
320,192,205848,1,0,0:0:0:0:
192,192,205848,1,0,0:0:0:0:
192,192,206075,128,0,206416:0:0:0:0:
320,192,206303,128,0,206757:0:0:0:0:
64,192,206530,1,0,0:0:0:0:
192,192,206530,128,0,206644:0:0:0:0:
192,192,206757,1,0,0:0:0:0:
64,192,206757,128,0,210394:0:0:0:0:
320,192,206984,128,0,207325:0:0:0:0:
192,192,207212,128,0,207553:0:0:0:0:
320,192,207439,1,0,0:0:0:0:
448,192,207439,128,0,207553:0:0:0:0:
448,192,207666,1,0,0:0:0:0:
320,192,207666,128,0,208007:0:0:0:0:
192,192,207666,1,0,0:0:0:0:
192,192,207894,128,0,208348:0:0:0:0:
320,192,208121,1,0,0:0:0:0:
448,192,208121,128,0,208234:0:0:0:0:
448,192,208348,1,0,0:0:0:0:
320,192,208348,128,0,208689:0:0:0:0:
192,192,208575,128,0,208689:0:0:0:0:
192,192,208803,1,0,0:0:0:0:
320,192,208803,1,0,0:0:0:0:
448,192,208803,128,0,209144:0:0:0:0:
320,192,209030,128,0,209371:0:0:0:0:
448,192,209257,1,0,0:0:0:0:
192,192,209257,128,0,209371:0:0:0:0:
320,192,209484,1,0,0:0:0:0:
192,192,209484,1,0,0:0:0:0:
448,192,209484,128,0,210053:0:0:0:0:
320,192,209712,128,0,210053:0:0:0:0:
192,192,209939,128,0,210394:0:0:0:0:
320,192,210166,1,0,0:0:0:0:
448,192,210166,128,0,210280:0:0:0:0:
448,192,210394,1,0,0:0:0:0:
320,192,210394,128,0,211984:0:0:0:0:
192,192,210621,128,0,210962:0:0:0:0:
448,192,210848,128,0,211189:0:0:0:0:
192,192,211075,1,0,0:0:0:0:
64,192,211075,128,0,211189:0:0:0:0:
448,192,211303,1,0,0:0:0:0:
192,192,211303,128,0,211644:0:0:0:0:
64,192,211303,1,0,0:0:0:0:
448,192,211530,128,0,211871:0:0:0:0:
192,192,211757,1,0,0:0:0:0:
64,192,211757,128,0,211871:0:0:0:0:
192,192,211984,1,0,0:0:0:0:
64,192,211984,1,0,0:0:0:0:
448,192,211984,128,0,212212:0:0:0:0:
64,192,212212,1,0,0:0:0:0:
320,192,212212,1,0,0:0:0:0:
192,192,212212,128,0,212666:0:0:0:0:
64,192,212666,1,0,0:0:0:0:
320,192,212666,1,0,0:0:0:0:
448,192,212666,1,0,0:0:0:0:
64,192,212894,1,0,0:0:0:0:
192,192,212894,1,0,0:0:0:0:
448,192,212894,1,0,0:0:0:0:
320,192,212894,1,0,0:0:0:0:
192,192,213121,1,0,0:0:0:0:
64,192,213121,1,0,0:0:0:0:
448,192,213121,1,0,0:0:0:0:
64,192,213348,1,0,0:0:0:0:
320,192,213348,1,0,0:0:0:0:
448,192,213348,1,0,0:0:0:0:
64,192,213575,1,0,0:0:0:0:
320,192,213575,1,0,0:0:0:0:
192,192,213604,1,0,0:0:0:0:
448,192,213632,1,0,0:0:0:0:
192,192,214030,1,0,0:0:0:0:
320,192,214030,1,0,0:0:0:0:
448,192,214030,1,0,0:0:0:0:
64,192,214030,128,0,214484:0:0:0:0:
192,192,214257,128,0,214371:0:0:0:0:
320,192,214484,128,0,214655:0:0:0:0:
192,192,214484,1,0,0:0:0:0:
448,192,214484,1,0,0:0:0:0:
192,192,214712,1,0,0:0:0:0:
64,192,214712,1,0,0:0:0:0:
320,192,214712,1,0,0:0:0:0:
448,192,214712,128,0,214939:0:0:0:0:
320,192,214939,1,0,0:0:0:0:
192,192,215166,1,0,0:0:0:0:
64,192,215166,1,0,0:0:0:0:
448,192,215166,1,0,0:0:0:0:
64,192,215394,1,0,0:0:0:0:
192,192,215394,1,0,0:0:0:0:
320,192,215394,1,0,0:0:0:0:
448,192,215394,128,0,215848:0:0:0:0:
320,192,215621,128,0,215848:0:0:0:0:
64,192,215848,1,0,0:0:0:0:
192,192,215848,128,0,216019:0:0:0:0:
192,192,216075,1,0,0:0:0:0:
320,192,216075,1,0,0:0:0:0:
448,192,216075,1,0,0:0:0:0:
64,192,216075,128,0,216303:0:0:0:0:
192,192,216303,1,0,0:0:0:0:
64,192,216530,1,0,0:0:0:0:
320,192,216530,1,0,0:0:0:0:
448,192,216530,1,0,0:0:0:0:
64,192,216757,1,0,0:0:0:0:
320,192,216757,1,0,0:0:0:0:
448,192,216757,1,0,0:0:0:0:
192,192,216757,128,0,216984:0:0:0:0:
192,192,217212,1,0,0:0:0:0:
64,192,217212,1,0,0:0:0:0:
320,192,217212,1,0,0:0:0:0:
448,192,217212,128,0,220848:0:0:0:0:
192,192,217666,1,0,0:0:0:0:
64,192,218121,1,0,0:0:0:0:
192,192,218121,1,0,0:0:0:0:
64,192,218575,1,0,0:0:0:0:
192,192,218575,1,0,0:0:0:0:
320,192,218575,1,0,0:0:0:0:
64,192,219030,1,0,0:0:0:0:
192,192,219030,1,0,0:0:0:0:
320,192,219030,1,0,0:0:0:0:
64,192,219257,1,0,0:0:0:0:
192,192,219257,1,0,0:0:0:0:
64,192,219484,1,0,0:0:0:0:
192,192,219484,1,0,0:0:0:0:
64,192,219712,1,0,0:0:0:0:
192,192,219712,1,0,0:0:0:0:
320,192,219712,1,0,0:0:0:0:
320,192,219939,1,0,0:0:0:0:
192,192,220166,1,0,0:0:0:0:
64,192,220166,1,0,0:0:0:0:
64,192,220394,1,0,0:0:0:0:
192,192,220394,1,0,0:0:0:0:
320,192,220394,1,0,0:0:0:0:
64,192,220848,1,0,0:0:0:0:
192,192,220848,1,0,0:0:0:0:
320,192,220848,1,0,0:0:0:0:
64,192,220962,1,0,0:0:0:0:
192,192,220962,1,0,0:0:0:0:
320,192,220962,1,0,0:0:0:0:
192,192,221075,1,0,0:0:0:0:
320,192,221075,1,0,0:0:0:0:
448,192,221075,1,0,0:0:0:0:
192,192,221189,1,0,0:0:0:0:
320,192,221189,1,0,0:0:0:0:
448,192,221189,1,0,0:0:0:0:
192,192,221303,1,0,0:0:0:0:
320,192,221303,1,0,0:0:0:0:
448,192,221303,1,0,0:0:0:0:
64,192,221303,128,0,221757:0:0:0:0:
192,192,221530,128,0,221644:0:0:0:0:
192,192,221757,1,0,0:0:0:0:
448,192,221757,1,0,0:0:0:0:
320,192,221757,128,0,221928:0:0:0:0:
64,192,221984,1,0,0:0:0:0:
192,192,221984,1,0,0:0:0:0:
320,192,221984,1,0,0:0:0:0:
448,192,221984,128,0,222212:0:0:0:0:
320,192,222212,1,0,0:0:0:0:
192,192,222439,1,0,0:0:0:0:
64,192,222439,1,0,0:0:0:0:
448,192,222439,1,0,0:0:0:0:
64,192,222666,1,0,0:0:0:0:
192,192,222666,1,0,0:0:0:0:
320,192,222666,1,0,0:0:0:0:
448,192,222666,128,0,223121:0:0:0:0:
320,192,222894,128,0,223121:0:0:0:0:
64,192,223121,1,0,0:0:0:0:
192,192,223121,128,0,223291:0:0:0:0:
192,192,223348,1,0,0:0:0:0:
320,192,223348,1,0,0:0:0:0:
448,192,223348,1,0,0:0:0:0:
64,192,223348,128,0,223575:0:0:0:0:
192,192,223575,1,0,0:0:0:0:
64,192,223803,1,0,0:0:0:0:
320,192,223803,1,0,0:0:0:0:
448,192,223803,1,0,0:0:0:0:
64,192,224030,1,0,0:0:0:0:
192,192,224030,1,0,0:0:0:0:
448,192,224030,1,0,0:0:0:0:
320,192,224030,128,0,224257:0:0:0:0:
192,192,224484,1,0,0:0:0:0:
320,192,224484,1,0,0:0:0:0:
448,192,224484,1,0,0:0:0:0:
64,192,224484,128,0,226984:0:0:0:0:
320,192,224939,1,0,0:0:0:0:
320,192,225394,1,0,0:0:0:0:
448,192,225394,1,0,0:0:0:0:
192,192,225848,1,0,0:0:0:0:
320,192,225848,1,0,0:0:0:0:
448,192,225848,1,0,0:0:0:0:
192,192,226303,1,0,0:0:0:0:
320,192,226303,1,0,0:0:0:0:
448,192,226303,1,0,0:0:0:0:
448,192,226530,1,0,0:0:0:0:
320,192,226530,1,0,0:0:0:0:
320,192,226757,1,0,0:0:0:0:
448,192,226757,1,0,0:0:0:0:
192,192,226984,1,0,0:0:0:0:
320,192,226984,1,0,0:0:0:0:
448,192,226984,1,0,0:0:0:0:
64,192,227212,1,0,0:0:0:0:
192,192,227212,1,0,0:0:0:0:
320,192,227439,1,0,0:0:0:0:
448,192,227439,1,0,0:0:0:0:
192,192,227666,1,0,0:0:0:0:
64,192,227666,1,0,0:0:0:0:
448,192,227666,1,0,0:0:0:0:
320,192,227666,1,0,0:0:0:0:
64,192,227894,1,0,0:0:0:0:
192,192,227894,1,0,0:0:0:0:
64,192,228121,1,0,0:0:0:0:
320,192,228121,1,0,0:0:0:0:
448,192,228121,1,0,0:0:0:0:
64,192,228234,1,0,0:0:0:0:
192,192,228234,1,0,0:0:0:0:
448,192,228234,1,0,0:0:0:0:
192,192,228348,1,0,0:0:0:0:
320,192,228348,1,0,0:0:0:0:
448,192,228348,1,0,0:0:0:0:
64,192,228462,1,0,0:0:0:0:
192,192,228462,1,0,0:0:0:0:
320,192,228462,1,0,0:0:0:0:
64,192,228575,1,0,0:0:0:0:
192,192,228575,1,0,0:0:0:0:
320,192,228575,1,0,0:0:0:0:
448,192,228575,128,0,229030:0:0:0:0:
64,192,228803,128,0,228916:0:0:0:0:
64,192,229030,1,0,0:0:0:0:
192,192,229030,1,0,0:0:0:0:
320,192,229030,128,0,229200:0:0:0:0:
320,192,229257,1,0,0:0:0:0:
448,192,229257,1,0,0:0:0:0:
64,192,229257,1,0,0:0:0:0:
192,192,229257,128,0,229484:0:0:0:0:
320,192,229484,1,0,0:0:0:0:
64,192,229712,1,0,0:0:0:0:
448,192,229712,1,0,0:0:0:0:
192,192,229712,1,0,0:0:0:0:
64,192,229939,128,0,230394:0:0:0:0:
192,192,229939,1,0,0:0:0:0:
320,192,229939,1,0,0:0:0:0:
448,192,229939,1,0,0:0:0:0:
448,192,230166,128,0,230394:0:0:0:0:
320,192,230394,1,0,0:0:0:0:
192,192,230394,128,0,230564:0:0:0:0:
64,192,230621,1,0,0:0:0:0:
192,192,230621,1,0,0:0:0:0:
448,192,230621,1,0,0:0:0:0:
320,192,230621,128,0,230848:0:0:0:0:
192,192,230848,1,0,0:0:0:0:
64,192,231075,1,0,0:0:0:0:
320,192,231075,1,0,0:0:0:0:
448,192,231075,1,0,0:0:0:0:
192,192,231303,128,0,231530:0:0:0:0:
64,192,231303,1,0,0:0:0:0:
448,192,231303,1,0,0:0:0:0:
320,192,231303,1,0,0:0:0:0:
320,192,231757,128,0,234030:0:0:0:0:
64,192,231757,1,0,0:0:0:0:
192,192,231757,1,0,0:0:0:0:
448,192,231757,1,0,0:0:0:0:
448,192,232212,1,0,0:0:0:0:
192,192,232666,1,0,0:0:0:0:
64,192,232666,1,0,0:0:0:0:
64,192,233121,1,0,0:0:0:0:
192,192,233121,1,0,0:0:0:0:
448,192,233121,1,0,0:0:0:0:
192,192,233575,1,0,0:0:0:0:
64,192,233575,1,0,0:0:0:0:
448,192,233575,1,0,0:0:0:0:
192,192,233803,1,0,0:0:0:0:
64,192,233803,1,0,0:0:0:0:
64,192,234030,1,0,0:0:0:0:
192,192,234030,1,0,0:0:0:0:
192,192,234257,1,0,0:0:0:0:
320,192,234257,1,0,0:0:0:0:
448,192,234257,1,0,0:0:0:0:
192,192,234371,1,0,0:0:0:0:
320,192,234371,1,0,0:0:0:0:
448,192,234371,1,0,0:0:0:0:
64,192,234484,1,0,0:0:0:0:
192,192,234484,1,0,0:0:0:0:
320,192,234484,1,0,0:0:0:0:
64,192,234598,1,0,0:0:0:0:
192,192,234598,1,0,0:0:0:0:
320,192,234598,1,0,0:0:0:0:
64,192,234712,1,0,0:0:0:0:
320,192,234712,1,0,0:0:0:0:
448,192,234712,1,0,0:0:0:0:
64,192,234939,1,0,0:0:0:0:
192,192,234939,1,0,0:0:0:0:
448,192,234939,1,0,0:0:0:0:
64,192,235053,1,0,0:0:0:0:
192,192,235053,1,0,0:0:0:0:
448,192,235053,1,0,0:0:0:0:
64,192,235166,1,0,0:0:0:0:
320,192,235166,1,0,0:0:0:0:
448,192,235166,1,0,0:0:0:0:
64,192,235280,1,0,0:0:0:0:
320,192,235280,1,0,0:0:0:0:
448,192,235280,1,0,0:0:0:0:
64,192,235394,1,0,0:0:0:0:
192,192,235394,1,0,0:0:0:0:
320,192,235394,1,0,0:0:0:0:
64,192,235621,1,0,0:0:0:0:
320,192,235621,1,0,0:0:0:0:
448,192,235621,1,0,0:0:0:0:
64,192,235734,1,0,0:0:0:0:
320,192,235734,1,0,0:0:0:0:
448,192,235734,1,0,0:0:0:0:
64,192,235848,1,0,0:0:0:0:
448,192,235848,1,0,0:0:0:0:
320,192,235848,1,0,0:0:0:0:
192,192,235848,128,0,236303:0:0:0:0:
64,192,236075,128,0,236246:0:0:0:0:
64,192,236303,1,0,0:0:0:0:
320,192,236303,1,0,0:0:0:0:
448,192,236303,128,0,236473:0:0:0:0:
448,192,236530,1,0,0:0:0:0:
320,192,236530,1,0,0:0:0:0:
64,192,236530,1,0,0:0:0:0:
192,192,236530,128,0,236757:0:0:0:0:
320,192,236757,1,0,0:0:0:0:
192,192,236984,1,0,0:0:0:0:
64,192,236984,1,0,0:0:0:0:
448,192,236984,1,0,0:0:0:0:
64,192,237212,1,0,0:0:0:0:
192,192,237212,1,0,0:0:0:0:
448,192,237212,1,0,0:0:0:0:
320,192,237212,128,0,237666:0:0:0:0:
448,192,237439,128,0,237666:0:0:0:0:
192,192,237666,1,0,0:0:0:0:
64,192,237666,128,0,237837:0:0:0:0:
64,192,237894,1,0,0:0:0:0:
192,192,237894,1,0,0:0:0:0:
448,192,237894,1,0,0:0:0:0:
320,192,237894,128,0,238121:0:0:0:0:
192,192,238121,1,0,0:0:0:0:
320,192,238348,1,0,0:0:0:0:
448,192,238348,1,0,0:0:0:0:
64,192,238348,1,0,0:0:0:0:
64,192,238575,1,0,0:0:0:0:
320,192,238575,1,0,0:0:0:0:
448,192,238575,1,0,0:0:0:0:
192,192,238575,128,0,238803:0:0:0:0:
192,192,239030,1,0,0:0:0:0:
320,192,239030,1,0,0:0:0:0:
448,192,239030,1,0,0:0:0:0:
64,192,239030,128,0,241303:0:0:0:0:
192,192,239484,1,0,0:0:0:0:
320,192,239939,1,0,0:0:0:0:
448,192,239939,1,0,0:0:0:0:
192,192,240394,1,0,0:0:0:0:
320,192,240394,1,0,0:0:0:0:
448,192,240394,1,0,0:0:0:0:
192,192,240848,1,0,0:0:0:0:
320,192,240848,1,0,0:0:0:0:
448,192,240848,1,0,0:0:0:0:
320,192,241075,1,0,0:0:0:0:
448,192,241075,1,0,0:0:0:0:
192,192,241303,1,0,0:0:0:0:
320,192,241303,1,0,0:0:0:0:
448,192,241303,1,0,0:0:0:0:
192,192,241530,1,0,0:0:0:0:
320,192,241530,1,0,0:0:0:0:
64,192,241530,1,0,0:0:0:0:
64,192,241757,1,0,0:0:0:0:
192,192,241757,1,0,0:0:0:0:
320,192,241757,1,0,0:0:0:0:
64,192,241984,1,0,0:0:0:0:
192,192,241984,1,0,0:0:0:0:
320,192,241984,1,0,0:0:0:0:
448,192,241984,1,0,0:0:0:0:
64,192,242212,1,0,0:0:0:0:
320,192,242212,1,0,0:0:0:0:
448,192,242212,1,0,0:0:0:0:
64,192,242439,1,0,0:0:0:0:
320,192,242439,1,0,0:0:0:0:
448,192,242439,1,0,0:0:0:0:
64,192,242666,1,0,0:0:0:0:
192,192,242666,1,0,0:0:0:0:
320,192,242666,1,0,0:0:0:0:
448,192,242666,1,0,0:0:0:0:
192,192,242894,1,0,0:0:0:0:
320,192,242894,1,0,0:0:0:0:
448,192,242894,1,0,0:0:0:0:
192,192,243121,1,0,0:0:0:0:
320,192,243121,1,0,0:0:0:0:
448,192,243121,1,0,0:0:0:0:
64,192,243348,1,0,0:0:0:0:
192,192,243348,1,0,0:0:0:0:
320,192,243348,1,0,0:0:0:0:
448,192,243348,1,0,0:0:0:0:
192,192,243575,1,0,0:0:0:0:
64,192,243575,1,0,0:0:0:0:
448,192,243575,1,0,0:0:0:0:
320,192,243575,1,0,0:0:0:0:
64,192,243803,1,0,0:0:0:0:
320,192,243803,1,0,0:0:0:0:
192,192,244030,1,0,0:0:0:0:
64,192,244030,1,0,0:0:0:0:
448,192,244030,1,0,0:0:0:0:
192,192,244144,1,0,0:0:0:0:
64,192,244144,1,0,0:0:0:0:
448,192,244144,1,0,0:0:0:0:
64,192,244257,1,0,0:0:0:0:
320,192,244257,1,0,0:0:0:0:
448,192,244257,1,0,0:0:0:0:
64,192,244371,1,0,0:0:0:0:
320,192,244371,1,0,0:0:0:0:
448,192,244371,1,0,0:0:0:0:
64,192,244484,1,0,0:0:0:0:
192,192,244484,1,0,0:0:0:0:
448,192,244484,1,0,0:0:0:0:
320,192,244484,1,0,0:0:0:0:
192,192,244939,1,0,0:0:0:0:
320,192,244939,1,0,0:0:0:0:
64,192,244939,128,0,248575:0:0:0:0:
448,192,244939,128,0,245507:0:0:0:0:
320,192,245166,128,0,245507:0:0:0:0:
192,192,245394,128,0,245734:0:0:0:0:
320,192,245621,128,0,245734:0:0:0:0:
448,192,245621,128,0,245734:0:0:0:0:
320,192,245848,128,0,246189:0:0:0:0:
448,192,245848,128,0,246189:0:0:0:0:
192,192,245848,128,0,245962:0:0:0:0:
192,192,246075,128,0,246644:0:0:0:0:
320,192,246303,128,0,246416:0:0:0:0:
448,192,246303,128,0,246416:0:0:0:0:
320,192,246530,128,0,246871:0:0:0:0:
448,192,246530,128,0,246871:0:0:0:0:
192,192,246757,128,0,246871:0:0:0:0:
192,192,246984,128,0,247098:0:0:0:0:
320,192,246984,128,0,247325:0:0:0:0:
448,192,246984,128,0,247325:0:0:0:0:
192,192,247212,128,0,247553:0:0:0:0:
320,192,247439,128,0,247553:0:0:0:0:
448,192,247439,128,0,247553:0:0:0:0:
192,192,247666,128,0,247780:0:0:0:0:
320,192,247666,128,0,248234:0:0:0:0:
448,192,247666,128,0,248007:0:0:0:0:
192,192,247894,128,0,248575:0:0:0:0:
448,192,248121,128,0,248234:0:0:0:0:
320,192,248348,128,0,248462:0:0:0:0:
448,192,248348,128,0,248462:0:0:0:0:
448,192,248575,128,0,252212:0:0:0:0:
320,192,248575,128,0,249371:0:0:0:0:
64,192,248803,128,0,249144:0:0:0:0:
192,192,249030,128,0,249144:0:0:0:0:
64,192,249257,128,0,249371:0:0:0:0:
192,192,249257,128,0,249371:0:0:0:0:
192,192,249484,128,0,249825:0:0:0:0:
320,192,249484,128,0,249598:0:0:0:0:
64,192,249484,128,0,249825:0:0:0:0:
320,192,249712,128,0,250280:0:0:0:0:
64,192,249939,128,0,250053:0:0:0:0:
192,192,249939,128,0,250053:0:0:0:0:
192,192,250166,128,0,250507:0:0:0:0:
64,192,250166,128,0,250507:0:0:0:0:
320,192,250394,128,0,250507:0:0:0:0:
64,192,250621,128,0,250962:0:0:0:0:
192,192,250621,128,0,250962:0:0:0:0:
320,192,250621,128,0,250734:0:0:0:0:
320,192,250848,128,0,251189:0:0:0:0:
192,192,251075,128,0,251189:0:0:0:0:
64,192,251075,128,0,251189:0:0:0:0:
320,192,251303,128,0,251416:0:0:0:0:
192,192,251303,128,0,251644:0:0:0:0:
64,192,251303,128,0,251871:0:0:0:0:
320,192,251530,128,0,252212:0:0:0:0:
192,192,251757,128,0,251871:0:0:0:0:
64,192,251984,128,0,252098:0:0:0:0:
192,192,251984,128,0,252098:0:0:0:0:
192,192,252212,128,0,255848:0:0:0:0:
64,192,252212,128,0,253007:0:0:0:0:
320,192,252439,128,0,252780:0:0:0:0:
448,192,252666,128,0,252780:0:0:0:0:
320,192,252894,128,0,253007:0:0:0:0:
448,192,252894,128,0,253007:0:0:0:0:
320,192,253121,128,0,253462:0:0:0:0:
448,192,253121,128,0,253462:0:0:0:0:
64,192,253121,128,0,253234:0:0:0:0:
64,192,253348,128,0,253916:0:0:0:0:
320,192,253575,128,0,253689:0:0:0:0:
448,192,253575,128,0,253689:0:0:0:0:
320,192,253803,128,0,254144:0:0:0:0:
448,192,253803,128,0,254144:0:0:0:0:
64,192,254030,128,0,254144:0:0:0:0:
320,192,254257,128,0,254598:0:0:0:0:
448,192,254257,128,0,254598:0:0:0:0:
64,192,254257,128,0,254371:0:0:0:0:
64,192,254484,128,0,254825:0:0:0:0:
320,192,254712,128,0,254825:0:0:0:0:
448,192,254712,128,0,254825:0:0:0:0:
64,192,254939,128,0,255053:0:0:0:0:
320,192,254939,128,0,255280:0:0:0:0:
448,192,254939,128,0,255507:0:0:0:0:
64,192,255166,128,0,255848:0:0:0:0:
320,192,255394,128,0,255507:0:0:0:0:
320,192,255621,128,0,255734:0:0:0:0:
448,192,255621,128,0,255734:0:0:0:0:
448,192,255848,128,0,256644:0:0:0:0:
320,192,255848,128,0,259371:0:0:0:0:
192,192,256075,128,0,256416:0:0:0:0:
64,192,256303,128,0,256416:0:0:0:0:
64,192,256530,128,0,256644:0:0:0:0:
192,192,256530,128,0,256644:0:0:0:0:
192,192,256757,128,0,257098:0:0:0:0:
448,192,256757,128,0,256871:0:0:0:0:
64,192,256757,128,0,257098:0:0:0:0:
448,192,256984,128,0,257553:0:0:0:0:
192,192,257212,128,0,257325:0:0:0:0:
64,192,257212,128,0,257325:0:0:0:0:
192,192,257439,128,0,257780:0:0:0:0:
64,192,257439,128,0,257780:0:0:0:0:
448,192,257666,128,0,257780:0:0:0:0:
64,192,257894,128,0,258234:0:0:0:0:
448,192,257894,128,0,258007:0:0:0:0:
192,192,257894,128,0,258234:0:0:0:0:
448,192,258121,128,0,258462:0:0:0:0:
192,192,258348,128,0,258462:0:0:0:0:
64,192,258348,128,0,258462:0:0:0:0:
192,192,258575,128,0,258916:0:0:0:0:
64,192,258575,128,0,259144:0:0:0:0:
448,192,258575,128,0,258689:0:0:0:0:
448,192,258803,128,0,259371:0:0:0:0:
192,192,259030,128,0,259144:0:0:0:0:
192,192,259257,128,0,259371:0:0:0:0:
64,192,259257,128,0,259371:0:0:0:0:
192,192,259484,1,0,0:0:0:0:
320,192,259484,1,0,0:0:0:0:
64,192,259484,128,0,263121:0:0:0:0:
448,192,259484,128,0,260053:0:0:0:0:
192,192,259712,128,0,260053:0:0:0:0:
320,192,259939,128,0,260280:0:0:0:0:
192,192,260166,128,0,260280:0:0:0:0:
448,192,260166,128,0,260280:0:0:0:0:
192,192,260394,128,0,260734:0:0:0:0:
448,192,260394,128,0,260507:0:0:0:0:
320,192,260394,128,0,260734:0:0:0:0:
448,192,260621,128,0,260962:0:0:0:0:
192,192,260848,128,0,260962:0:0:0:0:
320,192,260848,128,0,260962:0:0:0:0:
320,192,261075,128,0,261416:0:0:0:0:
448,192,261075,128,0,261416:0:0:0:0:
192,192,261075,128,0,261189:0:0:0:0:
192,192,261303,128,0,261416:0:0:0:0:
192,192,261530,128,0,261871:0:0:0:0:
320,192,261530,128,0,261644:0:0:0:0:
448,192,261530,128,0,261871:0:0:0:0:
320,192,261757,128,0,262098:0:0:0:0:
192,192,261984,128,0,262098:0:0:0:0:
448,192,261984,128,0,262098:0:0:0:0:
448,192,262212,128,0,262325:0:0:0:0:
320,192,262212,128,0,262553:0:0:0:0:
192,192,262212,128,0,263121:0:0:0:0:
448,192,262439,128,0,262780:0:0:0:0:
320,192,262666,128,0,262780:0:0:0:0:
320,192,262894,128,0,263007:0:0:0:0:
448,192,262894,128,0,263007:0:0:0:0:
448,192,263121,128,0,266757:0:0:0:0:
320,192,263121,128,0,263689:0:0:0:0:
64,192,263348,128,0,263689:0:0:0:0:
192,192,263575,128,0,263916:0:0:0:0:
320,192,263803,128,0,263916:0:0:0:0:
64,192,263803,128,0,263916:0:0:0:0:
320,192,264030,128,0,264371:0:0:0:0:
64,192,264030,128,0,264144:0:0:0:0:
192,192,264030,128,0,264371:0:0:0:0:
64,192,264257,128,0,264598:0:0:0:0:
320,192,264484,128,0,264598:0:0:0:0:
192,192,264484,128,0,264598:0:0:0:0:
192,192,264712,128,0,265053:0:0:0:0:
64,192,264712,128,0,265053:0:0:0:0:
320,192,264712,128,0,264825:0:0:0:0:
320,192,264939,128,0,265053:0:0:0:0:
320,192,265166,128,0,265507:0:0:0:0:
192,192,265166,128,0,265280:0:0:0:0:
64,192,265166,128,0,265507:0:0:0:0:
192,192,265394,128,0,265734:0:0:0:0:
320,192,265621,128,0,265734:0:0:0:0:
64,192,265621,128,0,265734:0:0:0:0:
64,192,265848,128,0,265962:0:0:0:0:
192,192,265848,128,0,266189:0:0:0:0:
320,192,265848,128,0,266757:0:0:0:0:
64,192,266075,128,0,266416:0:0:0:0:
192,192,266303,128,0,266416:0:0:0:0:
192,192,266530,128,0,266644:0:0:0:0:
64,192,266530,128,0,266644:0:0:0:0:
64,192,266757,128,0,267553:0:0:0:0:
192,192,266757,128,0,270280:0:0:0:0:
320,192,266984,128,0,267325:0:0:0:0:
448,192,267212,128,0,267325:0:0:0:0:
320,192,267439,128,0,267553:0:0:0:0:
448,192,267439,128,0,267553:0:0:0:0:
64,192,267666,128,0,268007:0:0:0:0:
320,192,267666,128,0,267780:0:0:0:0:
448,192,267666,128,0,268007:0:0:0:0:
320,192,267894,128,0,268234:0:0:0:0:
64,192,268121,128,0,268234:0:0:0:0:
448,192,268121,128,0,268462:0:0:0:0:
320,192,268348,128,0,268689:0:0:0:0:
64,192,268348,128,0,268689:0:0:0:0:
448,192,268575,128,0,268689:0:0:0:0:
64,192,268803,128,0,268916:0:0:0:0:
320,192,268803,128,0,269144:0:0:0:0:
448,192,268803,128,0,269144:0:0:0:0:
64,192,269030,128,0,269371:0:0:0:0:
320,192,269257,128,0,269371:0:0:0:0:
448,192,269257,128,0,269371:0:0:0:0:
64,192,269484,128,0,269825:0:0:0:0:
320,192,269484,128,0,270053:0:0:0:0:
448,192,269484,128,0,269598:0:0:0:0:
448,192,269712,128,0,270053:0:0:0:0:
64,192,269939,128,0,270280:0:0:0:0:
320,192,270166,128,0,270280:0:0:0:0:
448,192,270166,128,0,270280:0:0:0:0:
448,192,270394,128,0,271189:0:0:0:0:
320,192,270394,128,0,274030:0:0:0:0:
192,192,270394,1,0,0:0:0:0:
64,192,270394,1,0,0:0:0:0:
192,192,270621,128,0,270962:0:0:0:0:
64,192,270848,128,0,270962:0:0:0:0:
64,192,271075,128,0,271189:0:0:0:0:
192,192,271075,128,0,271189:0:0:0:0:
64,192,271303,128,0,271644:0:0:0:0:
192,192,271303,128,0,271416:0:0:0:0:
448,192,271303,128,0,271644:0:0:0:0:
192,192,271530,128,0,271871:0:0:0:0:
64,192,271757,128,0,272098:0:0:0:0:
448,192,271757,128,0,271871:0:0:0:0:
448,192,271984,128,0,272325:0:0:0:0:
192,192,271984,128,0,272325:0:0:0:0:
64,192,272212,128,0,272325:0:0:0:0:
64,192,272439,128,0,272780:0:0:0:0:
192,192,272439,128,0,272780:0:0:0:0:
448,192,272439,128,0,272553:0:0:0:0:
448,192,272666,128,0,273007:0:0:0:0:
64,192,272894,128,0,273007:0:0:0:0:
192,192,272894,128,0,273007:0:0:0:0:
64,192,273121,128,0,273234:0:0:0:0:
192,192,273121,128,0,273689:0:0:0:0:
448,192,273121,128,0,273462:0:0:0:0:
64,192,273348,128,0,273689:0:0:0:0:
448,192,273575,128,0,274030:0:0:0:0:
64,192,273803,128,0,273916:0:0:0:0:
192,192,273803,128,0,273916:0:0:0:0:
64,192,274030,128,0,277666:0:0:0:0:
192,192,274030,128,0,274598:0:0:0:0:
320,192,274257,128,0,274598:0:0:0:0:
448,192,274484,128,0,274825:0:0:0:0:
320,192,274712,128,0,274825:0:0:0:0:
192,192,274712,128,0,274825:0:0:0:0:
320,192,274939,128,0,275280:0:0:0:0:
448,192,274939,128,0,275280:0:0:0:0:
192,192,274939,128,0,275053:0:0:0:0:
192,192,275166,128,0,275734:0:0:0:0:
320,192,275394,128,0,275507:0:0:0:0:
448,192,275394,128,0,275507:0:0:0:0:
320,192,275621,128,0,275962:0:0:0:0:
448,192,275621,128,0,275962:0:0:0:0:
192,192,275848,128,0,275962:0:0:0:0:
192,192,276075,128,0,276189:0:0:0:0:
320,192,276075,128,0,276416:0:0:0:0:
448,192,276075,128,0,276416:0:0:0:0:
192,192,276303,128,0,276644:0:0:0:0:
320,192,276530,128,0,276644:0:0:0:0:
448,192,276530,128,0,276644:0:0:0:0:
192,192,276757,128,0,276871:0:0:0:0:
320,192,276757,128,0,277325:0:0:0:0:
448,192,276757,128,0,277098:0:0:0:0:
192,192,276984,128,0,277666:0:0:0:0:
448,192,277212,128,0,277325:0:0:0:0:
320,192,277439,128,0,277553:0:0:0:0:
448,192,277439,128,0,277553:0:0:0:0:
448,192,277666,128,0,281303:0:0:0:0:
320,192,277666,128,0,278462:0:0:0:0:
64,192,277894,128,0,278234:0:0:0:0:
192,192,278121,128,0,278234:0:0:0:0:
64,192,278348,128,0,278462:0:0:0:0:
192,192,278348,128,0,278462:0:0:0:0:
192,192,278575,128,0,278916:0:0:0:0:
320,192,278575,128,0,278689:0:0:0:0:
64,192,278575,128,0,278916:0:0:0:0:
320,192,278803,128,0,279371:0:0:0:0:
64,192,279030,128,0,279144:0:0:0:0:
192,192,279030,128,0,279144:0:0:0:0:
192,192,279257,128,0,279598:0:0:0:0:
64,192,279257,128,0,279598:0:0:0:0:
320,192,279484,128,0,279598:0:0:0:0:
64,192,279712,128,0,280053:0:0:0:0:
192,192,279712,128,0,280053:0:0:0:0:
320,192,279712,128,0,279825:0:0:0:0:
320,192,279939,128,0,280280:0:0:0:0:
192,192,280166,128,0,280280:0:0:0:0:
64,192,280166,128,0,280280:0:0:0:0:
320,192,280394,128,0,280507:0:0:0:0:
192,192,280394,128,0,280734:0:0:0:0:
64,192,280394,128,0,280962:0:0:0:0:
320,192,280621,128,0,281303:0:0:0:0:
192,192,280848,128,0,280962:0:0:0:0:
64,192,281075,128,0,281189:0:0:0:0:
192,192,281075,128,0,281189:0:0:0:0:
192,192,281303,128,0,283007:0:0:0:0:
64,192,281303,128,0,282098:0:0:0:0:
320,192,281530,128,0,281871:0:0:0:0:
448,192,281757,128,0,281871:0:0:0:0:
448,192,281984,128,0,282098:0:0:0:0:
320,192,281984,128,0,282098:0:0:0:0:
448,192,282212,128,0,282553:0:0:0:0:
320,192,282212,128,0,282325:0:0:0:0:
64,192,282212,128,0,282553:0:0:0:0:
320,192,282439,128,0,282780:0:0:0:0:
448,192,282666,128,0,283007:0:0:0:0:
64,192,282666,128,0,282780:0:0:0:0:
64,192,282894,128,0,283007:0:0:0:0:
320,192,282894,128,0,283007:0:0:0:0:
64,192,283121,1,0,0:0:0:0:
192,192,283121,1,0,0:0:0:0:
320,192,283121,1,0,0:0:0:0:
448,192,283121,1,0,0:0:0:0:
192,192,283348,1,0,0:0:0:0:
448,192,283348,1,0,0:0:0:0:
64,192,283348,1,0,0:0:0:0:
64,192,283575,1,0,0:0:0:0:
448,192,283575,1,0,0:0:0:0:
320,192,283575,1,0,0:0:0:0:
64,192,283803,1,0,0:0:0:0:
448,192,283803,1,0,0:0:0:0:
320,192,283831,1,0,0:0:0:0:
192,192,283859,1,0,0:0:0:0:
64,192,284030,1,0,0:0:0:0:
320,192,284030,1,0,0:0:0:0:
448,192,284030,1,0,0:0:0:0:
64,192,284257,1,0,0:0:0:0:
192,192,284257,1,0,0:0:0:0:
448,192,284257,1,0,0:0:0:0:
64,192,284484,1,0,0:0:0:0:
192,192,284484,1,0,0:0:0:0:
448,192,284513,1,0,0:0:0:0:
320,192,284541,1,0,0:0:0:0:
192,192,284712,1,0,0:0:0:0:
64,192,284712,1,0,0:0:0:0:
448,192,284712,1,0,0:0:0:0:
192,192,284939,1,0,0:0:0:0:
64,192,284939,1,0,0:0:0:0:
448,192,284939,1,0,0:0:0:0:
320,192,284939,1,0,0:0:0:0:
64,192,285166,1,0,0:0:0:0:
192,192,285166,1,0,0:0:0:0:
64,192,285280,1,0,0:0:0:0:
320,192,285280,1,0,0:0:0:0:
448,192,285280,1,0,0:0:0:0:
192,192,285394,1,0,0:0:0:0:
448,192,285394,1,0,0:0:0:0:
64,192,285621,1,0,0:0:0:0:
320,192,285621,1,0,0:0:0:0:
448,192,285621,1,0,0:0:0:0:
64,192,285848,1,0,0:0:0:0:
192,192,285848,1,0,0:0:0:0:
320,192,285848,1,0,0:0:0:0:
448,192,285848,1,0,0:0:0:0:
192,192,286075,1,0,0:0:0:0:
320,192,286075,1,0,0:0:0:0:
192,192,286303,1,0,0:0:0:0:
448,192,286303,1,0,0:0:0:0:
192,192,286530,1,0,0:0:0:0:
64,192,286530,1,0,0:0:0:0:
320,192,286530,1,0,0:0:0:0:
448,192,286530,1,0,0:0:0:0:
64,192,286757,1,0,0:0:0:0:
448,192,286757,1,0,0:0:0:0:
192,192,286757,1,0,0:0:0:0:
320,192,286984,1,0,0:0:0:0:
448,192,286984,1,0,0:0:0:0:
448,192,287098,1,0,0:0:0:0:
192,192,287098,1,0,0:0:0:0:
64,192,287098,1,0,0:0:0:0:
64,192,287212,1,0,0:0:0:0:
320,192,287212,1,0,0:0:0:0:
192,192,287439,1,0,0:0:0:0:
64,192,287439,1,0,0:0:0:0:
448,192,287439,1,0,0:0:0:0:
64,192,287666,1,0,0:0:0:0:
192,192,287666,1,0,0:0:0:0:
320,192,287666,1,0,0:0:0:0:
448,192,287666,1,0,0:0:0:0:
320,192,287894,1,0,0:0:0:0:
192,192,287894,1,0,0:0:0:0:
320,192,288121,1,0,0:0:0:0:
64,192,288121,1,0,0:0:0:0:
64,192,288348,1,0,0:0:0:0:
192,192,288348,1,0,0:0:0:0:
320,192,288348,1,0,0:0:0:0:
448,192,288348,1,0,0:0:0:0:
192,192,288575,1,0,0:0:0:0:
320,192,288575,1,0,0:0:0:0:
448,192,288575,1,0,0:0:0:0:
64,192,288803,1,0,0:0:0:0:
192,192,288803,1,0,0:0:0:0:
192,192,288916,1,0,0:0:0:0:
320,192,288916,1,0,0:0:0:0:
448,192,288916,1,0,0:0:0:0:
64,192,289030,1,0,0:0:0:0:
448,192,289030,1,0,0:0:0:0:
192,192,289257,1,0,0:0:0:0:
448,192,289257,1,0,0:0:0:0:
320,192,289257,1,0,0:0:0:0:
64,192,289484,1,0,0:0:0:0:
320,192,289484,1,0,0:0:0:0:
448,192,289484,1,0,0:0:0:0:
192,192,289484,1,0,0:0:0:0:
64,192,289712,1,0,0:0:0:0:
320,192,289712,1,0,0:0:0:0:
64,192,289939,1,0,0:0:0:0:
448,192,289939,1,0,0:0:0:0:
64,192,290166,1,0,0:0:0:0:
192,192,290166,1,0,0:0:0:0:
320,192,290166,1,0,0:0:0:0:
448,192,290166,1,0,0:0:0:0:
64,192,290394,1,0,0:0:0:0:
320,192,290394,1,0,0:0:0:0:
192,192,290394,1,0,0:0:0:0:
320,192,290621,1,0,0:0:0:0:
448,192,290621,1,0,0:0:0:0:
64,192,290734,1,0,0:0:0:0:
192,192,290734,1,0,0:0:0:0:
320,192,290734,1,0,0:0:0:0:
64,192,290848,1,0,0:0:0:0:
448,192,290848,1,0,0:0:0:0:
64,192,291075,1,0,0:0:0:0:
192,192,291075,1,0,0:0:0:0:
320,192,291075,1,0,0:0:0:0:
64,192,291303,1,0,0:0:0:0:
192,192,291303,1,0,0:0:0:0:
448,192,291303,1,0,0:0:0:0:
320,192,291303,1,0,0:0:0:0:
448,192,291530,1,0,0:0:0:0:
192,192,291530,1,0,0:0:0:0:
448,192,291757,1,0,0:0:0:0:
64,192,291757,1,0,0:0:0:0:
448,192,291984,1,0,0:0:0:0:
320,192,291984,1,0,0:0:0:0:
64,192,292212,1,0,0:0:0:0:
192,192,292212,1,0,0:0:0:0:
320,192,292212,1,0,0:0:0:0:
448,192,292439,1,0,0:0:0:0:
192,192,292439,1,0,0:0:0:0:
64,192,292553,1,0,0:0:0:0:
320,192,292553,1,0,0:0:0:0:
448,192,292553,1,0,0:0:0:0:
192,192,292666,1,0,0:0:0:0:
64,192,292666,1,0,0:0:0:0:
192,192,292894,1,0,0:0:0:0:
320,192,292894,1,0,0:0:0:0:
448,192,292894,1,0,0:0:0:0:
64,192,293121,1,0,0:0:0:0:
192,192,293121,1,0,0:0:0:0:
448,192,293121,1,0,0:0:0:0:
320,192,293121,1,0,0:0:0:0:
64,192,293348,1,0,0:0:0:0:
448,192,293348,1,0,0:0:0:0:
64,192,293575,1,0,0:0:0:0:
320,192,293575,1,0,0:0:0:0:
64,192,293803,1,0,0:0:0:0:
320,192,293803,1,0,0:0:0:0:
192,192,293803,1,0,0:0:0:0:
448,192,293803,1,0,0:0:0:0:
192,192,294030,1,0,0:0:0:0:
320,192,294030,1,0,0:0:0:0:
448,192,294030,1,0,0:0:0:0:
320,192,294257,1,0,0:0:0:0:
64,192,294257,1,0,0:0:0:0:
64,192,294371,1,0,0:0:0:0:
192,192,294371,1,0,0:0:0:0:
448,192,294371,1,0,0:0:0:0:
448,192,294484,1,0,0:0:0:0:
320,192,294484,1,0,0:0:0:0:
64,192,294712,1,0,0:0:0:0:
192,192,294712,1,0,0:0:0:0:
320,192,294712,1,0,0:0:0:0:
64,192,294939,1,0,0:0:0:0:
192,192,294939,1,0,0:0:0:0:
448,192,294939,1,0,0:0:0:0:
320,192,294939,1,0,0:0:0:0:
64,192,295166,1,0,0:0:0:0:
448,192,295166,1,0,0:0:0:0:
192,192,295394,1,0,0:0:0:0:
448,192,295394,1,0,0:0:0:0:
320,192,295621,1,0,0:0:0:0:
64,192,295621,1,0,0:0:0:0:
448,192,295621,1,0,0:0:0:0:
192,192,295621,1,0,0:0:0:0:
192,192,295848,1,0,0:0:0:0:
64,192,295848,1,0,0:0:0:0:
448,192,295848,1,0,0:0:0:0:
192,192,296075,1,0,0:0:0:0:
320,192,296075,1,0,0:0:0:0:
64,192,296189,1,0,0:0:0:0:
448,192,296189,1,0,0:0:0:0:
320,192,296189,1,0,0:0:0:0:
192,192,296303,1,0,0:0:0:0:
64,192,296303,1,0,0:0:0:0:
192,192,296530,1,0,0:0:0:0:
320,192,296530,1,0,0:0:0:0:
448,192,296530,1,0,0:0:0:0:
64,192,296757,1,0,0:0:0:0:
192,192,296757,1,0,0:0:0:0:
448,192,296757,1,0,0:0:0:0:
320,192,296757,1,0,0:0:0:0:
64,192,296984,1,0,0:0:0:0:
448,192,296984,1,0,0:0:0:0:
64,192,297212,1,0,0:0:0:0:
320,192,297212,1,0,0:0:0:0:
64,192,297439,1,0,0:0:0:0:
192,192,297439,1,0,0:0:0:0:
320,192,297439,1,0,0:0:0:0:
448,192,297439,1,0,0:0:0:0:
320,192,297666,1,0,0:0:0:0:
448,192,297666,1,0,0:0:0:0:
64,192,297666,1,0,0:0:0:0:
320,192,297894,1,0,0:0:0:0:
192,192,297894,1,0,0:0:0:0:
448,192,298007,1,0,0:0:0:0:
64,192,298007,1,0,0:0:0:0:
192,192,298007,1,0,0:0:0:0:
320,192,298121,1,0,0:0:0:0:
448,192,298121,1,0,0:0:0:0:
320,192,298348,1,0,0:0:0:0:
192,192,298348,1,0,0:0:0:0:
64,192,298348,1,0,0:0:0:0:
448,192,298575,1,0,0:0:0:0:
320,192,298575,1,0,0:0:0:0:
64,192,298575,1,0,0:0:0:0:
192,192,298575,1,0,0:0:0:0:
448,192,298803,1,0,0:0:0:0:
64,192,298803,1,0,0:0:0:0:
448,192,299030,1,0,0:0:0:0:
192,192,299030,1,0,0:0:0:0:
448,192,299257,1,0,0:0:0:0:
320,192,299257,1,0,0:0:0:0:
192,192,299257,1,0,0:0:0:0:
64,192,299257,1,0,0:0:0:0:
448,192,299484,5,0,0:0:0:0:
64,192,299484,1,0,0:0:0:0:
192,192,299484,1,0,0:0:0:0:
192,192,299712,1,0,0:0:0:0:
448,192,299712,1,0,0:0:0:0:
320,192,299825,1,0,0:0:0:0:
64,192,299825,1,0,0:0:0:0:
448,192,299825,1,0,0:0:0:0:
192,192,299939,1,0,0:0:0:0:
64,192,299939,1,0,0:0:0:0:
64,192,300166,1,0,0:0:0:0:
448,192,300166,1,0,0:0:0:0:
320,192,300166,1,0,0:0:0:0:
192,192,300394,1,0,0:0:0:0:
64,192,300394,1,0,0:0:0:0:
448,192,300394,1,0,0:0:0:0:
320,192,300394,1,0,0:0:0:0:
448,192,300621,1,0,0:0:0:0:
192,192,300621,1,0,0:0:0:0:
320,192,300848,1,0,0:0:0:0:
192,192,300848,1,0,0:0:0:0:
64,192,301075,1,0,0:0:0:0:
192,192,301075,1,0,0:0:0:0:
448,192,301075,1,0,0:0:0:0:
320,192,301075,1,0,0:0:0:0:
64,192,301303,1,0,0:0:0:0:
448,192,301303,1,0,0:0:0:0:
320,192,301303,1,0,0:0:0:0:
320,192,301530,1,0,0:0:0:0:
64,192,301530,1,0,0:0:0:0:
64,192,301644,1,0,0:0:0:0:
192,192,301644,1,0,0:0:0:0:
448,192,301644,1,0,0:0:0:0:
320,192,301757,1,0,0:0:0:0:
448,192,301757,1,0,0:0:0:0:
64,192,301984,1,0,0:0:0:0:
192,192,301984,1,0,0:0:0:0:
448,192,301984,1,0,0:0:0:0:
192,192,302212,1,0,0:0:0:0:
64,192,302212,1,0,0:0:0:0:
448,192,302212,1,0,0:0:0:0:
320,192,302212,1,0,0:0:0:0:
64,192,302439,1,0,0:0:0:0:
320,192,302439,1,0,0:0:0:0:
192,192,302666,1,0,0:0:0:0:
320,192,302666,1,0,0:0:0:0:
192,192,302894,1,0,0:0:0:0:
64,192,302894,1,0,0:0:0:0:
448,192,302894,1,0,0:0:0:0:
320,192,302894,1,0,0:0:0:0:
64,192,303121,1,0,0:0:0:0:
192,192,303121,1,0,0:0:0:0:
448,192,303121,1,0,0:0:0:0:
64,192,303348,1,0,0:0:0:0:
448,192,303348,1,0,0:0:0:0:
320,192,303462,1,0,0:0:0:0:
448,192,303462,1,0,0:0:0:0:
192,192,303462,1,0,0:0:0:0:
64,192,303575,1,0,0:0:0:0:
192,192,303575,1,0,0:0:0:0:
320,192,303803,1,0,0:0:0:0:
448,192,303803,1,0,0:0:0:0:
192,192,303803,1,0,0:0:0:0:
192,192,304030,1,0,0:0:0:0:
64,192,304030,1,0,0:0:0:0:
448,192,304030,1,0,0:0:0:0:
320,192,304030,1,0,0:0:0:0:
448,192,304257,1,0,0:0:0:0:
64,192,304257,1,0,0:0:0:0:
320,192,304484,1,0,0:0:0:0:
64,192,304484,1,0,0:0:0:0:
448,192,304712,1,0,0:0:0:0:
64,192,304712,1,0,0:0:0:0:
192,192,304712,1,0,0:0:0:0:
320,192,304712,1,0,0:0:0:0:
192,192,304939,1,0,0:0:0:0:
448,192,304939,1,0,0:0:0:0:
320,192,304939,1,0,0:0:0:0:
192,192,305166,1,0,0:0:0:0:
448,192,305166,1,0,0:0:0:0:
320,192,305280,1,0,0:0:0:0:
64,192,305280,1,0,0:0:0:0:
192,192,305280,1,0,0:0:0:0:
320,192,305394,1,0,0:0:0:0:
448,192,305394,1,0,0:0:0:0:
64,192,305621,1,0,0:0:0:0:
192,192,305621,1,0,0:0:0:0:
320,192,305621,1,0,0:0:0:0:
64,192,305848,1,0,0:0:0:0:
192,192,305848,1,0,0:0:0:0:
448,192,305848,1,0,0:0:0:0:
320,192,305848,1,0,0:0:0:0:
64,192,306075,1,0,0:0:0:0:
448,192,306075,1,0,0:0:0:0:
192,192,306303,1,0,0:0:0:0:
448,192,306303,1,0,0:0:0:0:
320,192,306530,1,0,0:0:0:0:
448,192,306530,1,0,0:0:0:0:
192,192,306757,1,0,0:0:0:0:
64,192,306757,1,0,0:0:0:0:
448,192,306757,1,0,0:0:0:0:
320,192,306757,1,0,0:0:0:0:
