osu file format v14

[General]
AudioFilename: audio.mp3
AudioLeadIn: 0
PreviewTime: 43548
Countdown: 0
SampleSet: Soft
StackLeniency: 0.7
Mode: 0
LetterboxInBreaks: 0
WidescreenStoryboard: 1

[Editor]
DistanceSpacing: 1.2
BeatDivisor: 4
GridSize: 32
TimelineZoom: 1

[Metadata]
Title:NILGIRI
TitleUnicode:ニルギリ
Artist:lasah
ArtistUnicode:lasah
Creator:Gibune
Version:Normal
Source:
Tags:J-pop jpop Hachi ハチ Chomaiyo Dakishimeta Tonight ちょまいよ Utaite jp Japanese pop 米津玄師 Kenshi Yonezu 抱きしめた トゥナイト vocaloid
BeatmapID:2523122
BeatmapSetID:1212174

[Difficulty]
HPDrainRate:4
CircleSize:3.5
OverallDifficulty:4.5
ApproachRate:5.5
SliderMultiplier:1.3
SliderTickRate:1

[Events]
//Background and Video events
0,0,"bg.jpg",0,0
//Break Periods
//Storyboard Layer 0 (Background)
//Storyboard Layer 1 (Fail)
//Storyboard Layer 2 (Pass)
//Storyboard Layer 3 (Foreground)
//Storyboard Layer 4 (Overlay)
//Storyboard Sound Samples

[TimingPoints]
5698,480,4,2,2,40,1,0
5698,-111.111111111111,4,2,2,40,0,0
12886,480,4,2,2,45,1,0
13366,480,4,2,2,65,1,0
26806,-100,4,2,2,45,0,0
28726,-100,4,2,2,65,0,0
42166,-100,4,2,2,70,0,0
43126,-100,4,2,2,75,0,0
44086,-90.9090909090909,4,2,2,80,0,0
74806,-100,4,2,2,65,0,0
76726,-100,4,2,2,50,0,0
84406,-100,4,2,2,40,0,0

[Colours]
Combo1 : 217,174,189
Combo2 : 205,172,160
Combo3 : 207,198,160
Combo4 : 165,192,209

[HitObjects]
434,20,5698,6,0,L|429:85,1,58.4999982147217
376,208,6658,2,0,L|381:274,1,58.4999982147217
261,340,7618,6,0,L|195:330,1,58.4999982147217
67,367,8578,2,0,L|1:375,1,58.4999982147217
64,245,9538,6,0,L|129:234,1,58.4999982147217
243,165,10498,2,0,L|308:175,1,58.4999982147217
214,63,11458,6,0,L|209:-1,1,58.4999982147217
122,115,12418,2,0,L|119:180,1,58.4999982147217
267,213,13366,6,0,P|261:249|259:296,1,65,0|0,1:0|1:0,0:0:0:0:
310,336,13846,2,0,P|378:365|449:356,1,130,10|0,0:0|3:0,0:0:0:0:
494,218,14806,2,0,P|477:159|478:67,1,130,10|0,0:2|1:0,0:0:0:0:
397,103,15526,2,0,P|367:109|322:111,2,65,0|8|2,1:0|0:0|3:2,0:0:0:0:
431,32,16246,1,2,3:2:0:0:
277,1,16726,1,10,0:2:0:0:
159,104,17206,6,0,P|164:142|167:188,1,65,0|0,1:0|1:0,0:0:0:0:
162,247,17686,2,0,P|79:258|29:253,1,130,10|0,0:0|3:0,0:0:0:0:
6,99,18646,1,10,3:2:0:0:
136,13,19126,5,2,1:2:0:0:
136,13,19366,1,0,1:2:0:0:
181,76,19606,2,0,P|172:114|162:159,1,65,10|2,0:0|3:2,0:0:0:0:
200,209,20086,1,2,3:2:0:0:
110,336,20566,2,0,P|141:342|173:350,1,65,10|0,0:0|0:0,0:0:0:0:
247,326,21046,6,0,P|330:313|390:306,2,130,2|10|2,1:2|0:2|1:2,0:0:0:0:
303,180,22486,1,10,0:0:0:0:
303,180,22726,1,2,3:2:0:0:
303,180,22966,6,0,P|266:110|277:52,1,130,2|10,1:2|0:0,0:0:0:0:
346,36,23686,1,2,3:2:0:0:
346,36,23926,2,0,P|424:58|486:58,1,130,6|0,1:2|1:2,0:0:0:0:
490,214,24886,6,0,P|434:246|360:264,1,130,10|10,1:2|0:2,0:0:0:0:
297,235,25606,1,0,1:2:0:0:
297,235,25846,2,0,P|212:209|155:232,1,130,2|10,1:2|0:2,0:0:0:0:
96,354,26806,6,0,L|165:344,1,65,0|0,1:0|1:0,0:0:0:0:
315,358,27766,2,0,L|384:368,1,65,0|0,1:0|1:0,0:0:0:0:
500,166,28726,6,0,P|497:129|491:96,1,65,0|0,1:0|1:0,0:0:0:0:
429,55,29206,2,0,P|348:35|293:28,1,130,10|0,0:0|3:0,0:0:0:0:
162,95,30166,2,0,P|78:86|30:62,1,130,10|0,0:0|1:0,0:0:0:0:
3,137,30886,5,0,1:0:0:0:
3,137,31126,2,0,P|6:177|6:211,1,65,8|2,0:0|3:2,0:0:0:0:
37,273,31606,2,0,P|111:278|163:325,1,130,2|10,3:2|0:2,0:0:0:0:
294,378,32566,6,0,P|307:321|309:286,1,65,0|0,1:0|1:0,0:0:0:0:
278,242,33046,2,0,P|215:212|132:189,1,130,10|0,0:0|3:0,0:0:0:0:
192,124,33766,1,0,1:0:0:0:
192,124,34006,1,10,0:0:0:0:
336,64,34486,5,2,1:2:0:0:
336,64,34726,1,0,1:2:0:0:
336,64,34966,2,0,L|410:56,2,65,10|2|2,0:0|3:2|3:2,0:0:0:0:
415,198,35926,2,0,P|426:246|433:279,1,65,10|0,0:0|3:0,0:0:0:0:
392,330,36406,5,2,1:2:0:0:
253,258,36886,1,10,0:2:0:0:
253,258,37126,1,0,3:0:0:0:
253,258,37366,2,0,P|180:237|122:259,1,130,2|10,1:2|0:0,0:0:0:0:
54,235,38086,1,0,3:0:0:0:
54,235,38326,5,2,1:2:0:0:
100,86,38806,1,10,0:0:0:0:
100,86,39046,1,2,3:2:0:0:
100,86,39286,2,0,P|171:101|234:85,1,130,6|0,1:2|1:0,0:0:0:0:
346,188,40246,6,0,P|365:266|378:324,2,130,10|10|2,1:2|0:2|1:2,0:0:0:0:
196,233,41686,1,10,0:2:0:0:
72,138,42166,6,0,L|64:65,2,65,8|0|0,1:2|1:2|1:2,0:0:0:0:
134,185,42886,1,8,1:2:0:0:
134,185,43126,1,8,0:2:0:0:
41,310,43606,2,0,P|86:323|119:328,1,65,2|2,1:2|1:2,0:0:0:0:
179,286,44086,5,6,1:2:0:0:
333,360,44566,2,0,P|383:350|434:351,1,71.5000021820069,10|0,0:2|1:2,0:0:0:0:
482,316,45046,2,0,P|501:232|504:145,1,143.000004364014,2|8,1:2|0:0,0:0:0:0:
445,113,45766,1,0,1:2:0:0:
445,113,46006,5,2,1:2:0:0:
290,38,46486,2,0,P|246:32|211:28,1,71.5000021820069,10|0,0:2|1:2,0:0:0:0:
151,82,46966,2,0,P|107:88|72:92,1,71.5000021820069,2|0,1:2|1:2,0:0:0:0:
16,33,47446,1,8,0:2:0:0:
60,198,47926,6,0,P|57:245|53:279,1,71.5000021820069,2|0,1:2|1:2,0:0:0:0:
92,345,48406,2,0,P|140:353|182:365,1,71.5000021820069,10|2,0:2|1:2,0:0:0:0:
240,323,48886,1,0,1:0:0:0:
410,343,49366,1,8,0:2:0:0:
425,265,49606,1,2,1:2:0:0:
425,265,49846,6,0,P|438:188|447:107,2,143.000004364014,0|8|0,1:2|0:2|1:2,0:0:0:0:
255,240,51286,2,0,P|212:226|178:220,1,71.5000021820069,8|0,0:2|1:2,0:0:0:0:
114,174,51766,5,6,1:2:0:0:
12,35,52246,2,0,P|66:51|100:50,1,71.5000021820069,10|0,0:2|1:2,0:0:0:0:
155,8,52726,2,0,P|218:40|247:130,1,143.000004364014,2|8,1:2|0:0,0:0:0:0:
326,136,53446,1,0,1:2:0:0:
326,136,53686,5,2,1:2:0:0:
444,12,54166,2,0,P|454:53|458:97,1,71.5000021820069,10|0,0:2|1:2,0:0:0:0:
425,161,54646,2,0,P|415:202|411:246,1,71.5000021820069,2|0,1:2|1:2,0:0:0:0:
453,305,55126,1,8,0:2:0:0:
293,368,55606,6,0,P|246:358|207:351,1,71.5000021820069,2|0,1:2|1:2,0:0:0:0:
222,267,56086,2,0,P|269:257|308:250,1,71.5000021820069,10|2,0:2|1:2,0:0:0:0:
329,175,56566,1,0,1:0:0:0:
185,81,57046,1,8,0:2:0:0:
102,104,57286,1,2,1:2:0:0:
102,104,57526,6,0,P|77:177|61:264,2,143.000004364014,0|8|0,1:2|0:2|1:2,0:0:0:0:
272,126,58966,2,0,P|317:135|362:135,1,71.5000021820069,8|0,0:2|1:2,0:0:0:0:
420,171,59446,5,6,1:2:0:0:
491,327,59926,2,0,P|446:314|404:305,1,71.5000021820069,10|0,0:2|1:2,0:0:0:0:
343,273,60406,2,0,P|264:294|183:286,1,143.000004364014,2|8,1:2|0:0,0:0:0:0:
138,234,61126,1,0,1:2:0:0:
138,234,61366,5,2,1:2:0:0:
4,125,61846,2,0,P|11:78|19:42,1,71.5000021820069,10|0,0:2|1:2,0:0:0:0:
94,19,62326,2,0,P|141:27|186:30,1,71.5000021820069,2|0,1:2|0:2,0:0:0:0:
247,4,62806,1,8,0:2:0:0:
314,161,63286,6,0,P|323:205|324:253,1,71.5000021820069,2|0,1:2|0:2,0:0:0:0:
275,301,63766,2,0,P|231:310|183:311,1,71.5000021820069,10|2,0:2|1:2,0:0:0:0:
130,354,64246,1,0,1:0:0:0:
5,236,64726,1,8,0:2:0:0:
69,178,64966,1,2,1:2:0:0:
69,178,65206,6,0,P|156:165|217:194,2,143.000004364014,0|8|0,1:2|0:2|1:2,0:0:0:0:
8,16,66646,2,0,P|45:27|96:38,1,71.5000021820069,8|0,0:2|1:2,0:0:0:0:
159,10,67126,5,6,1:2:0:0:
322,62,67606,2,0,P|358:46|393:37,1,71.5000021820069,10|0,0:2|1:2,0:0:0:0:
473,54,68086,2,0,P|491:125|499:204,1,143.000004364014,2|8,1:2|0:0,0:0:0:0:
444,261,68806,1,0,1:2:0:0:
444,261,69046,5,2,1:2:0:0:
352,115,69526,2,0,P|302:128|265:146,1,71.5000021820069,10|0,0:2|1:2,0:0:0:0:
233,205,70006,2,0,P|246:254|264:291,1,71.5000021820069,2|0,1:2|1:2,0:0:0:0:
337,294,70486,1,8,0:2:0:0:
188,380,70966,6,0,P|135:370|101:368,1,71.5000021820069,2|0,1:2|1:2,0:0:0:0:
69,297,71446,2,0,P|16:307|-18:309,1,71.5000021820069,10|2,0:2|1:2,0:0:0:0:
12,223,71926,1,0,1:0:0:0:
182,203,72406,1,8,0:2:0:0:
242,142,72646,1,2,1:2:0:0:
242,142,72886,6,0,P|240:63|211:-3,2,143.000004364014,0|8|0,1:2|0:2|1:2,0:0:0:0:
405,194,74326,2,0,P|415:153|417:106,1,71.5000021820069,8|0,0:0|1:0,0:0:0:0:
386,51,74806,5,12,0:2:0:0:
233,19,75526,2,0,P|228:71|227:106,1,65,8|12,0:0|0:0,0:0:0:0:
187,288,76726,6,0,P|227:298|269:310,1,65,0|0,1:0|0:0,0:0:0:0:
386,380,77686,2,0,P|426:370|468:358,1,65,0|0,1:0|0:0,0:0:0:0:
437,208,78646,6,0,P|399:213|359:213,1,65,0|8,1:0|0:0,0:0:0:0:
222,170,79606,2,0,P|184:165|144:165,1,65,0|0,1:0|0:0,0:0:0:0:
37,63,80566,6,0,P|31:107|24:145,1,65,0|0,1:0|0:0,0:0:0:0:
44,282,81526,2,0,P|50:326|57:364,1,65,0|0,1:0|0:0,0:0:0:0:
190,270,82486,6,0,P|195:230|193:197,1,65,0|8,1:0|0:0,0:0:0:0:
128,63,83446,2,0,P|123:23|125:-10,1,65,0|0,1:0|0:0,0:0:0:0:
241,100,84406,6,0,P|278:108|323:114,1,65
