osu file format v14

[General]
AudioFilename: audio.mp3
AudioLeadIn: 0
PreviewTime: 43548
Countdown: 0
SampleSet: Soft
StackLeniency: 0.7
Mode: 0
LetterboxInBreaks: 0
WidescreenStoryboard: 0

[Editor]
DistanceSpacing: 0.8
BeatDivisor: 4
GridSize: 32
TimelineZoom: 1

[Metadata]
Title:NILGIRI
TitleUnicode:ニルギリ
Artist:lasah
ArtistUnicode:lasah
Creator:Gibune
Version:Insane
Source:
Tags:J-pop jpop Hachi ハチ Chomaiyo Dakishimeta Tonight ちょまいよ Utaite jp Japanese pop 米津玄師 Kenshi Yonezu 抱きしめた トゥナイト vocaloid
BeatmapID:2523121
BeatmapSetID:1212174

[Difficulty]
HPDrainRate:5.5
CircleSize:4
OverallDifficulty:7.5
ApproachRate:8
SliderMultiplier:1.6
SliderTickRate:1

[Events]
//Background and Video events
0,0,"bg.jpg",0,0
//Break Periods
//Storyboard Layer 0 (Background)
//Storyboard Layer 1 (Fail)
//Storyboard Layer 2 (Pass)
//Storyboard Layer 3 (Foreground)
//Storyboard Layer 4 (Overlay)
//Storyboard Sound Samples

[TimingPoints]
5698,480,4,2,2,40,1,0
5698,-100,4,2,2,40,0,0
12886,480,4,2,2,45,1,0
13366,480,4,2,2,65,1,0
26806,-100,4,2,2,45,0,0
28726,-100,4,2,2,65,0,0
42166,-100,4,2,2,70,0,0
43126,-100,4,2,2,75,0,0
44086,-90.9090909090909,4,2,2,80,0,0
74806,-100,4,2,2,65,0,0
76726,-100,4,2,2,50,0,0
84406,-100,4,2,2,40,0,0

[Colours]
Combo1 : 217,174,189
Combo2 : 205,172,160
Combo3 : 207,198,160
Combo4 : 165,192,209

[HitObjects]
375,24,5698,5,0,0:0:0:0:
384,62,5938,1,0,0:0:0:0:
337,121,6658,5,0,0:0:0:0:
327,159,6898,1,0,0:0:0:0:
271,73,7618,5,0,0:0:0:0:
261,35,7858,1,0,0:0:0:0:
188,127,8578,5,0,0:0:0:0:
198,89,8818,1,0,0:0:0:0:
106,23,9538,5,0,0:0:0:0:
116,61,9778,1,0,0:0:0:0:
38,99,10498,5,0,0:0:0:0:
28,137,10738,1,0,0:0:0:0:
136,196,11458,5,0,0:0:0:0:
126,158,11698,1,0,0:0:0:0:
56,275,12418,5,0,0:0:0:0:
66,237,12658,1,0,0:0:0:0:
56,202,12886,1,0,3:0:0:0:
167,342,13126,1,0,3:0:0:0:
167,342,13246,1,0,3:0:0:0:
167,342,13366,5,0,1:0:0:0:
247,282,13606,1,0,1:0:0:0:
396,366,13846,2,0,P|403:284|399:192,1,160,10|0,0:0|3:0,0:0:0:0:
317,157,14566,1,0,1:0:0:0:
496,210,14806,2,0,P|502:161|509:107,1,80,10|0,0:2|0:0,0:0:0:0:
428,21,15286,5,0,1:0:0:0:
334,124,15526,1,0,1:0:0:0:
334,124,15646,1,0,3:0:0:0:
334,124,15766,1,8,0:0:0:0:
475,117,16006,1,2,3:2:0:0:
333,39,16246,1,2,3:2:0:0:
486,85,16486,1,2,1:2:0:0:
372,266,16726,2,0,P|331:253|273:241,1,80,10|0,0:2|3:0,0:0:0:0:
255,167,17206,5,0,1:0:0:0:
115,300,17446,1,0,1:0:0:0:
115,300,17566,1,0,3:0:0:0:
115,300,17686,2,0,B|112:251|112:251|88:196|88:196|85:134,1,160,10|0,0:0|3:0,0:0:0:0:
6,198,18406,1,0,1:0:0:0:
157,80,18646,2,0,P|210:77|276:121,1,120,10|0,3:2|0:0,0:0:0:0:
266,109,19126,5,2,1:2:0:0:
382,32,19366,1,0,1:2:0:0:
382,32,19486,1,0,3:0:0:0:
382,32,19606,1,10,0:0:0:0:
265,16,19846,1,2,3:2:0:0:
355,148,20086,2,0,P|365:198|372:243,1,80,2|0,3:2|1:0,0:0:0:0:
267,333,20566,2,0,P|257:283|250:238,1,80,10|0,0:0|0:0,0:0:0:0:
431,378,21046,6,0,P|470:369|509:363,1,80,2|0,1:2|1:2,0:0:0:0:
398,216,21526,1,10,0:2:0:0:
335,288,21766,1,0,3:0:0:0:
335,288,22006,2,0,B|248:277|279:339|178:318,1,160,2|10,1:2|0:0,0:0:0:0:
95,248,22726,1,2,3:2:0:0:
95,248,22846,1,0,3:0:0:0:
95,248,22966,6,0,P|103:204|108:163,1,80,2|0,1:2|1:2,0:0:0:0:
197,102,23446,1,10,0:0:0:0:
177,15,23686,1,2,3:2:0:0:
451,49,23926,6,0,P|387:100|413:202,1,160,6|0,1:2|1:2,0:0:0:0:
373,205,24526,1,8,0:0:0:0:
386,242,24646,1,8,0:0:0:0:
362,278,24766,1,8,0:0:0:0:
314,273,24886,6,0,P|232:262|140:275,1,160,10|10,1:2|0:2,0:0:0:0:
45,219,25606,1,0,1:2:0:0:
50,250,25726,1,8,0:2:0:0:
55,282,25846,1,2,1:2:0:0:
60,313,25966,1,8,0:0:0:0:
64,345,26086,1,0,1:2:0:0:
133,180,26326,2,0,P|113:133|86:95,1,80,10|0,0:2|0:0,0:0:0:0:
185,18,26806,5,0,1:0:0:0:
197,48,27046,1,0,1:0:0:0:
297,16,27766,5,0,1:0:0:0:
285,46,28006,1,0,1:0:0:0:
82,8,28726,5,0,1:0:0:0:
39,106,28966,1,0,1:0:0:0:
236,134,29206,2,0,P|191:215|169:289,1,160,10|0,0:0|3:0,0:0:0:0:
294,300,29926,1,0,1:0:0:0:
98,371,30166,2,0,P|90:296|23:243,1,160,10|0,0:0|1:0,0:0:0:0:
45,138,30886,5,0,1:0:0:0:
45,138,31006,1,0,3:0:0:0:
45,138,31126,1,8,0:0:0:0:
138,93,31366,1,2,3:2:0:0:
227,144,31606,1,2,3:2:0:0:
371,57,31846,1,0,1:2:0:0:
371,57,31966,1,0,3:0:0:0:
371,57,32086,2,0,P|392:93|404:129,1,80,10|0,0:2|0:0,0:0:0:0:
393,232,32566,5,0,1:0:0:0:
475,289,32806,1,0,1:0:0:0:
308,380,33046,2,0,P|253:364|215:353,1,80,10|0,0:0|3:0,0:0:0:0:
136,275,33526,1,0,3:0:0:0:
101,384,33766,1,0,1:0:0:0:
285,257,34006,2,0,P|241:233|202:218,1,80,10|0,0:0|0:0,0:0:0:0:
185,74,34486,5,2,1:2:0:0:
59,127,34726,1,0,1:2:0:0:
59,127,34846,1,0,3:0:0:0:
59,127,34966,1,10,0:0:0:0:
176,209,35206,1,2,3:2:0:0:
37,256,35446,2,0,P|18:215|0:174,1,80,2|0,3:2|1:0,0:0:0:0:
66,49,35926,1,10,0:0:0:0:
66,49,36166,1,0,3:0:0:0:
256,0,36406,6,0,P|268:52|272:93,1,80,2|0,1:2|1:2,0:0:0:0:
337,120,36886,1,10,0:2:0:0:
395,60,37126,1,0,3:0:0:0:
512,246,37366,2,0,B|424:231|456:293|347:273,1,160,2|10,1:2|0:0,0:0:0:0:
256,350,38086,1,0,3:0:0:0:
256,350,38206,1,0,3:0:0:0:
256,350,38326,6,0,P|306:359|348:366,1,80,2|0,1:2|1:2,0:0:0:0:
229,232,38806,1,10,0:0:0:0:
145,301,39046,1,2,3:2:0:0:
45,102,39286,6,0,P|122:82|202:72,1,160,6|0,1:2|1:0,0:0:0:0:
230,93,39886,1,8,0:0:0:0:
262,116,40006,1,8,0:0:0:0:
305,119,40126,1,8,0:0:0:0:
348,99,40246,6,0,P|418:76|496:137,1,160,10|10,1:2|0:2,0:0:0:0:
363,241,40966,1,0,1:2:0:0:
363,241,41086,1,8,0:2:0:0:
363,241,41206,1,2,1:2:0:0:
402,337,41446,1,0,1:2:0:0:
265,311,41686,2,0,P|219:321|183:331,1,80,10|0,0:2|0:0,0:0:0:0:
63,243,42166,5,8,1:2:0:0:
206,129,42406,1,0,1:2:0:0:
206,129,42526,1,8,0:2:0:0:
206,129,42646,1,0,1:2:0:0:
68,111,42886,1,8,1:2:0:0:
191,246,43126,1,8,0:2:0:0:
191,246,43246,1,8,0:2:0:0:
191,246,43366,1,0,1:2:0:0:
335,100,43606,5,2,1:2:0:0:
133,150,43846,1,2,1:2:0:0:
448,128,44086,6,0,P|457:75|458:17,1,88.000002685547,6|0,1:2|0:0,0:0:0:0:
280,0,44566,1,10,0:2:0:0:
335,100,44806,1,0,1:2:0:0:
335,100,44926,1,8,0:2:0:0:
335,100,45046,2,0,P|285:107|226:114,1,88.000002685547,2|0,1:2|1:2,0:0:0:0:
136,218,45526,1,8,0:0:0:0:
46,149,45766,1,0,1:2:0:0:
1,341,46006,6,0,B|91:323|69:380|176:356,1,176.000005371094,2|10,1:2|0:2,0:0:0:0:
266,235,46726,1,0,1:2:0:0:
266,235,46846,1,8,0:2:0:0:
266,235,46966,2,0,P|313:245|369:253,1,88.000002685547,2|0,1:2|1:2,0:0:0:0:
496,369,47446,1,8,0:2:0:0:
378,339,47686,1,0,1:2:0:0:
378,339,47806,1,0,1:0:0:0:
378,339,47926,6,0,P|334:348|291:355,1,88.000002685547,2|0,1:2|1:2,0:0:0:0:
103,302,48406,2,0,P|146:292|189:285,1,88.000002685547,10|2,0:2|1:2,0:0:0:0:
189,284,48766,1,8,0:0:0:0:
189,284,48886,2,0,P|201:241|217:201,1,88.000002685547,0|0,1:0|1:0,0:0:0:0:
205,29,49366,1,8,0:2:0:0:
300,80,49606,1,2,1:2:0:0:
300,80,49726,1,0,3:0:0:0:
300,80,49846,6,0,P|391:65|487:65,1,176.000005371094,0|8,1:2|0:2,0:0:0:0:
512,214,50566,1,0,1:2:0:0:
512,214,50686,1,8,0:2:0:0:
512,214,50806,1,0,1:2:0:0:
437,143,51046,1,0,1:0:0:0:
256,264,51286,1,8,0:2:0:0:
212,255,51406,1,8,0:0:0:0:
169,247,51526,1,0,1:2:0:0:
126,238,51646,1,0,1:0:0:0:
83,230,51766,6,0,P|69:179|61:132,1,88.000002685547,6|0,1:2|0:0,0:0:0:0:
152,12,52246,1,10,0:2:0:0:
29,0,52486,1,0,1:2:0:0:
29,0,52606,1,8,0:2:0:0:
29,0,52726,2,0,P|15:51|7:98,1,88.000002685547,2|0,1:2|1:2,0:0:0:0:
146,138,53206,1,8,0:0:0:0:
251,80,53446,1,0,1:2:0:0:
251,80,53566,1,0,1:0:0:0:
251,80,53686,6,0,P|272:172|287:266,1,176.000005371094,2|10,1:2|0:2,0:0:0:0:
175,366,54406,1,0,1:2:0:0:
175,366,54526,1,8,0:2:0:0:
175,366,54646,2,0,P|115:354|75:347,1,88.000002685547,2|0,1:2|1:2,0:0:0:0:
1,216,55126,1,8,0:2:0:0:
115,268,55366,1,0,1:2:0:0:
115,268,55486,1,0,3:0:0:0:
115,268,55606,6,0,P|158:260|201:251,1,88.000002685547,2|0,1:2|1:2,0:0:0:0:
330,153,56086,2,0,P|373:160|416:169,1,88.000002685547,10|2,0:2|1:2,0:0:0:0:
416,169,56446,1,8,0:2:0:0:
416,169,56566,2,0,P|431:127|447:86,1,88.000002685547,0|0,1:0|1:0,0:0:0:0:
292,4,57046,1,8,0:2:0:0:
56,53,57286,1,2,1:2:0:0:
56,53,57406,1,0,3:0:0:0:
56,53,57526,6,0,P|124:119|107:203,1,176.000005371094,0|8,1:2|0:2,0:0:0:0:
62,315,58246,1,0,1:2:0:0:
62,315,58366,1,8,0:2:0:0:
62,315,58486,1,0,1:2:0:0:
138,209,58726,1,0,1:0:0:0:
310,307,58966,1,8,0:2:0:0:
353,301,59086,1,8,0:0:0:0:
397,295,59206,1,0,1:2:0:0:
440,290,59326,1,8,0:0:0:0:
484,284,59446,6,0,P|496:232|501:176,1,88.000002685547,6|0,1:2|0:0,0:0:0:0:
394,79,59926,1,10,0:2:0:0:
503,6,60166,1,0,1:2:0:0:
503,6,60286,1,8,0:2:0:0:
503,6,60406,2,0,P|454:-1|410:-4,1,88.000002685547,2|0,1:2|1:2,0:0:0:0:
247,56,60886,1,8,0:0:0:0:
135,2,61126,1,0,1:2:0:0:
135,2,61246,1,0,3:0:0:0:
135,2,61366,6,0,P|124:48|116:93,1,88.000002685547,2|0,1:2|1:0,0:0:0:0:
41,317,61846,1,10,0:2:0:0:
103,252,62086,1,0,1:2:0:0:
103,252,62206,1,8,0:2:0:0:
103,252,62326,2,0,P|154:238|202:231,1,88.000002685547,2|0,1:2|0:2,0:0:0:0:
371,126,62806,1,8,0:2:0:0:
451,202,63046,1,0,1:2:0:0:
361,348,63286,6,0,P|318:334|259:322,1,88.000002685547,2|0,1:2|0:2,0:0:0:0:
121,361,63766,2,0,P|80:374|37:384,1,88.000002685547,10|2,0:2|1:2,0:0:0:0:
37,384,64126,1,8,0:0:0:0:
37,384,64246,2,0,P|15:344|-6:288,1,88.000002685547,0|0,1:0|1:0,0:0:0:0:
74,169,64726,1,8,0:2:0:0:
275,311,64966,1,2,1:2:0:0:
275,311,65086,1,0,1:0:0:0:
275,311,65206,6,0,P|238:239|294:143,1,176.000005371094,0|8,1:2|0:2,0:0:0:0:
472,113,65926,1,0,1:2:0:0:
472,113,66046,1,8,0:2:0:0:
472,113,66166,1,0,1:2:0:0:
370,193,66406,1,0,1:0:0:0:
236,5,66646,1,8,0:2:0:0:
192,10,66766,1,8,0:0:0:0:
148,16,66886,1,0,1:2:0:0:
105,22,67006,1,8,0:0:0:0:
61,28,67126,6,0,P|48:75|41:129,1,88.000002685547,6|0,1:2|0:0,0:0:0:0:
89,274,67606,1,10,0:2:0:0:
197,215,67846,1,0,1:2:0:0:
197,215,67966,1,8,0:2:0:0:
197,215,68086,2,0,P|210:267|214:312,1,88.000002685547,2|0,1:2|1:2,0:0:0:0:
363,378,68566,1,8,0:0:0:0:
432,275,68806,1,0,1:2:0:0:
432,275,68926,1,0,1:0:0:0:
432,275,69046,6,0,P|423:227|406:171,1,88.000002685547,2|0,1:2|0:0,0:0:0:0:
263,29,69526,1,10,0:2:0:0:
400,2,69766,1,0,1:2:0:0:
400,2,69886,1,8,0:2:0:0:
400,2,70006,2,0,P|452:16|497:22,1,88.000002685547,2|0,1:2|1:2,0:0:0:0:
412,189,70486,1,8,0:2:0:0:
278,171,70726,1,0,1:2:0:0:
278,171,70846,1,8,0:0:0:0:
278,171,70966,6,0,P|225:179|177:193,1,88.000002685547,2|0,1:2|1:2,0:0:0:0:
70,63,71446,2,0,P|112:73|156:79,1,88.000002685547,10|2,0:2|1:2,0:0:0:0:
156,79,71806,1,8,0:0:0:0:
156,79,71926,2,0,P|198:68|242:62,1,88.000002685547,0|0,1:0|1:0,0:0:0:0:
393,112,72406,1,8,0:2:0:0:
294,301,72646,1,2,1:2:0:0:
294,301,72766,1,0,3:0:0:0:
294,301,72886,6,0,B|201:288|224:352|126:329,1,176.000005371094,0|8,1:2|0:2,0:0:0:0:
26,206,73606,1,0,1:2:0:0:
26,206,73726,1,8,0:2:0:0:
26,206,73846,1,0,1:2:0:0:
188,188,74086,1,0,3:0:0:0:
206,350,74326,1,8,0:0:0:0:
44,368,74566,1,0,1:0:0:0:
100,56,74806,6,0,P|171:34|257:22,1,160,12|0,0:2|0:0,0:0:0:0:
512,19,75526,1,8,0:0:0:0:
512,19,75646,1,8,0:0:0:0:
512,19,75766,2,0,P|435:69|428:153,1,160,12|0,0:0|0:0,0:0:0:0:
410,337,76726,5,0,1:0:0:0:
426,263,76966,1,0,0:0:0:0:
221,255,77446,1,8,0:0:0:0:
221,255,77566,1,8,0:0:0:0:
221,255,77686,1,0,1:0:0:0:
151,303,77926,1,0,0:0:0:0:
16,248,78406,5,8,0:0:0:0:
16,248,78526,1,8,0:0:0:0:
16,248,78646,1,0,1:0:0:0:
20,340,78886,1,8,0:0:0:0:
20,340,79006,1,8,0:0:0:0:
189,371,79366,1,8,0:0:0:0:
189,371,79486,1,8,0:0:0:0:
189,371,79606,1,0,1:0:0:0:
263,324,79846,1,0,0:0:0:0:
307,53,80566,5,0,1:0:0:0:
237,16,80806,1,0,0:0:0:0:
96,81,81286,1,8,0:0:0:0:
96,81,81406,1,8,0:0:0:0:
96,81,81526,1,0,1:0:0:0:
17,34,81766,1,0,0:0:0:0:
92,200,82246,5,8,0:0:0:0:
92,200,82366,1,8,0:0:0:0:
92,200,82486,1,0,1:0:0:0:
182,171,82726,1,8,0:0:0:0:
182,171,82846,1,8,0:0:0:0:
337,176,83206,1,8,0:0:0:0:
337,176,83326,1,8,0:0:0:0:
337,176,83446,1,0,1:0:0:0:
355,91,83686,1,0,0:0:0:0:
504,232,84406,5,0,0:0:0:0:
425,206,84646,1,0,0:0:0:0:
