osu file format v14

[General]
AudioFilename: Las Ketchup - The Ketchup Song.mp3
AudioLeadIn: 0
PreviewTime: 36842
Countdown: 0
SampleSet: Drum
StackLeniency: 0.3
Mode: 0
LetterboxInBreaks: 0
WidescreenStoryboard: 1

[Editor]
Bookmarks: 11545,62139,69923,120518,130896,203545
DistanceSpacing: 1.2
BeatDivisor: 4
GridSize: 4
TimelineZoom: 1

[Metadata]
Title:The Ketchup Song (Asereje) (Spanglish Version)
TitleUnicode:The Ketchup Song (Aserejé) (Spanglish Version)
Artist:Las Ketchup
ArtistUnicode:Las Ketchup
Creator:ReFaller
Version:Gero's Normal
Source:
Tags:spanish ezek flamenco hijas del tomate gero underforest warner music pop english zekeyache just dance 4 underforest
BeatmapID:845806
BeatmapSetID:387560

[Difficulty]
HPDrainRate:4
CircleSize:3
OverallDifficulty:4
ApproachRate:5
SliderMultiplier:0.999999999999999
SliderTickRate:1

[Events]
//Background and Video events
0,0,"pomidorek.jpg",0,0
//Break Periods
2,62340,68724
2,120718,129697
//Storyboard Layer 0 (Background)
//Storyboard Layer 1 (Fail)
//Storyboard Layer 2 (Pass)
//Storyboard Layer 3 (Foreground)
//Storyboard Layer 4 (Overlay)
//Storyboard Sound Samples

[TimingPoints]
1167,324.324324324324,4,1,0,100,1,0
11545,-100,4,3,0,70,0,0
21923,-100,4,3,0,70,0,0
37491,-100,4,1,0,85,0,1
59545,-100,4,2,0,70,0,0
69923,-100,4,3,0,70,0,0
80302,-100,4,3,0,70,0,0
95869,-100,4,1,0,85,0,1
117923,-100,4,2,0,70,0,0
130896,-100,4,3,0,85,0,0
141275,-100,4,1,0,85,0,1
187977,-100,4,1,0,85,0,0
189275,-100,4,1,0,75,0,0
190572,-100,4,1,0,70,0,0
191869,-100,4,1,0,65,0,0
193166,-100,4,1,0,60,0,0
194464,-100,4,1,0,55,0,0
195761,-100,4,1,0,50,0,0
197058,-100,4,1,0,45,0,0
198356,-100,4,1,0,40,0,0
199653,-100,4,1,0,35,0,0
200950,-100,4,1,0,30,0,0
202248,-100,4,1,0,25,0,0
203545,-100,4,1,0,20,0,0

[Colours]
Combo1 : 0,130,33
Combo2 : 204,0,0

[HitObjects]
192,64,11545,6,0,B|232:64|256:97|256:97|280:64|320:64,1,150,6|0,0:0|0:0,0:0:0:0:
360,20,12194,2,0,P|347:68|359:116,1,99.9999999999999,2|0,0:0|1:0,0:0:0:0:
452,192,12843,2,0,P|479:260|452:328,1,150,6|0,0:0|0:0,0:0:0:0:
409,370,13491,2,0,L|304:352,1,99.9999999999999,2|0,0:0|1:0,0:0:0:0:
388,260,14140,6,0,L|338:250,1,50,6|0,0:0|0:0,0:0:0:0:
296,207,14464,2,0,L|246:217,1,50,0|2,0:0|0:0,0:0:0:0:
207,264,14789,2,0,P|221:217|207:170,1,99.9999999999999,0|0,0:0|1:0,0:0:0:0:
121,84,15437,2,0,L|272:36,2,150,6|2|0,0:0|0:0|1:0,0:0:0:0:
35,169,16735,6,0,B|3:237|3:237|35:305,1,150,6|2,0:0|0:0,0:0:0:0:
77,347,17383,2,0,P|125:360|173:348,1,99.9999999999999,0|0,0:0|1:0,0:0:0:0:
256,264,18032,2,0,P|324:237|392:264,1,150,6|2,0:0|0:0,0:0:0:0:
444,296,18681,1,0,0:0:0:0:
504,192,19005,1,0,1:0:0:0:
444,296,19329,6,0,L|420:348,2,50,6|0|0,0:0|0:0|0:0,0:0:0:0:
380,192,19978,2,0,L|404:140,2,50,0|0|0,0:0|0:0|1:0,0:0:0:0:
320,296,20627,2,0,P|256:329|192:296,2,150,6|2|0,0:0|0:0|1:0,0:0:0:0:
380,192,21924,6,0,L|442:55,1,150,4|2,1:0|0:0,0:0:0:0:
496,28,22572,2,0,P|448:41|400:29,1,99.9999999999999,0|8,1:0|0:2,0:0:0:0:
296,84,23221,2,0,P|228:57|160:84,1,150,0|2,1:0|0:0,0:0:0:0:
108,116,23870,1,0,1:0:0:0:
16,192,24194,1,8,0:2:0:0:
108,268,24518,6,0,B|180:268|180:268|236:324,1,150,0|2,1:0|0:0,0:0:0:0:
276,368,25167,2,0,L|296:264,1,99.9999999999999,0|8,1:0|0:2,0:0:0:0:
404,324,25816,2,0,L|376:177,1,150,0|2,1:0|0:0,0:0:0:0:
436,192,26464,2,0,L|480:96,1,99.9999999999999,0|8,1:0|0:2,0:0:0:0:
364,60,27113,6,0,B|288:72|256:153|256:153|224:72|148:60,1,300,0|8,1:0|0:2,0:0:0:0:
136,176,28410,2,0,P|256:252|376:176,1,300,0|8,1:0|0:2,0:0:0:0:
316,72,29708,2,0,B|256:117|256:117|196:72,1,150,0|2,1:0|0:0,0:0:0:0:
153,29,30356,1,0,1:0:0:0:
68,113,30681,1,8,0:2:0:0:
152,197,31005,6,0,P|165:245|153:293,1,99.9999999999999,0|2,1:0|0:0,0:0:0:0:
108,332,31491,2,0,L|212:356,1,99.9999999999999,0|2,1:0|0:0,0:0:0:0:
256,324,31978,1,8,0:2:0:0:
356,260,32302,6,0,B|400:232|448:248|448:248|508:272,2,150,0|0|8,1:0|1:0|0:2,0:0:0:0:
256,192,33600,2,0,L|256:32,2,150,0|0|8,1:0|1:0|0:2,0:0:0:0:
156,260,34897,2,0,B|112:232|64:248|64:248|4:272,2,150,0|0|8,1:0|1:0|0:2,0:0:0:0:
256,328,36194,6,0,L|350:293,1,99.9999999999999,0|0,1:0|0:0,0:0:0:0:
313,245,36680,1,0,1:0:0:0:
313,245,36843,2,0,L|407:210,1,99.9999999999999,8|8,0:2|0:2,0:0:0:0:
476,120,37491,6,0,P|407:92|339:119,1,150,4|2,0:0|0:3,0:0:0:0:
297,162,38140,2,0,L|320:64,1,99.9999999999999,2|8,0:2|0:0,0:0:0:0:
208,104,38789,2,0,L|172:249,1,150,4|2,0:3|0:3,0:0:0:0:
124,284,39437,1,2,0:2:0:0:
48,192,39762,1,8,0:0:0:0:
124,100,40086,6,0,L|261:40,2,150,4|2|8,0:3|0:3|0:0,0:0:0:0:
216,176,41383,2,0,L|78:235,2,150,4|2|8,0:3|0:3|0:0,0:0:0:0:
324,124,42681,2,0,P|372:111|420:123,1,99.9999999999999,4|0,0:3|0:0,0:0:0:0:
462,81,43167,1,2,0:3:0:0:
504,123,43329,2,0,L|374:198,1,150,2|2,0:2|0:2,0:0:0:0:
336,244,43978,5,4,0:0:0:0:
421,329,44302,2,0,L|469:301,2,50,8|8|2,0:0|0:0|0:2,0:0:0:0:
336,244,44951,2,0,L|292:269,1,50,8|2,0:0|0:2,0:0:0:0:
256,316,45275,6,0,P|283:248|256:180,1,150,4|2,0:0|0:3,0:0:0:0:
213,137,45924,2,0,L|368:148,1,150,2|2,0:2|0:3,0:0:0:0:
405,104,46572,1,4,0:3:0:0:
488,192,46897,2,0,B|495:216|495:216|488:240,1,50,8|0,0:0|0:0,0:0:0:0:
445,282,47221,2,0,B|438:306|438:306|445:330,1,50,2|0,0:2|0:0,0:0:0:0:
402,372,47545,1,8,0:0:0:0:
320,284,47870,6,0,P|256:251|192:284,2,150,4|2|8,0:3|0:3|0:0,0:0:0:0:
396,192,49167,2,0,L|502:85,2,150,4|2|8,0:3|0:3|0:0,0:0:0:0:
310,106,50464,2,0,L|422:-6,2,150,4|2|8,0:3|0:3|0:0,0:0:0:0:
396,192,51762,1,4,0:3:0:0:
320,284,52086,2,0,B|276:308|256:358|256:358|236:308|192:284,1,200,8|8,0:0|0:0,0:0:0:0:
116,192,53059,6,0,P|89:124|116:56,1,150,4|2,0:3|0:2,0:0:0:0:
80,8,53708,2,0,L|243:39,1,150,2|2,0:2|0:2,0:0:0:0:
284,36,54356,2,0,L|432:8,1,150,4|2,0:3|0:2,0:0:0:0:
474,50,55005,1,2,0:2:0:0:
388,135,55329,1,8,0:0:0:0:
472,219,55654,6,0,B|492:256|480:304|480:304|464:364,2,150,4|2|8,0:3|0:3|0:0,0:0:0:0:
380,280,56951,2,0,B|360:243|372:195|372:195|388:135,2,150,4|2|8,0:3|0:3|0:0,0:0:0:0:
280,344,58248,2,0,B|256:351|256:351|232:344,1,50,4|2,0:3|0:2,0:0:0:0:
190,301,58572,2,0,B|166:294|166:294|142:301,1,50,8|2,0:0|0:2,0:0:0:0:
100,258,58897,2,0,L|246:213,1,150,4|2,0:3|0:2,0:0:0:0:
300,192,59545,5,4,0:0:0:0:
256,192,59708,12,4,62140,0:0:0:0:
320,64,69924,6,0,B|280:64|256:97|256:97|232:64|192:64,1,150,6|0,0:0|0:0,0:0:0:0:
152,20,70572,2,0,P|165:68|153:116,1,99.9999999999999,2|0,0:0|1:0,0:0:0:0:
60,192,71221,2,0,P|33:260|60:328,1,150,6|0,0:0|0:0,0:0:0:0:
103,370,71870,2,0,L|208:352,1,99.9999999999999,2|0,0:0|1:0,0:0:0:0:
124,260,72518,6,0,L|174:250,1,50,6|0,0:0|0:0,0:0:0:0:
216,207,72843,2,0,L|266:217,1,50,0|2,0:0|0:0,0:0:0:0:
305,264,73167,2,0,P|291:217|305:170,1,99.9999999999999,0|0,0:0|1:0,0:0:0:0:
391,84,73816,2,0,L|240:36,2,150,6|2|0,0:0|0:0|1:0,0:0:0:0:
477,169,75113,6,0,B|509:237|509:237|477:305,1,150,6|2,0:0|0:0,0:0:0:0:
435,347,75762,2,0,P|387:360|339:348,1,99.9999999999999,0|0,0:0|1:0,0:0:0:0:
256,264,76410,2,0,P|188:237|120:264,1,150,6|2,0:0|0:0,0:0:0:0:
68,296,77059,1,0,0:0:0:0:
8,192,77383,1,0,1:0:0:0:
68,296,77708,6,0,L|92:348,2,50,6|0|0,0:0|0:0|0:0,0:0:0:0:
132,192,78356,2,0,L|108:140,2,50,0|0|0,0:0|0:0|1:0,0:0:0:0:
192,296,79005,2,0,P|256:329|320:296,2,150,6|2|0,0:0|0:0|1:0,0:0:0:0:
132,192,80302,6,0,L|70:55,1,150,4|2,1:0|0:0,0:0:0:0:
16,28,80951,2,0,P|64:41|112:29,1,99.9999999999999,0|8,1:0|0:2,0:0:0:0:
216,84,81600,2,0,P|284:57|352:84,1,150,0|2,1:0|0:0,0:0:0:0:
404,116,82248,1,0,1:0:0:0:
496,192,82572,1,8,0:2:0:0:
404,268,82897,6,0,B|332:268|332:268|276:324,1,150,0|2,1:0|0:0,0:0:0:0:
236,368,83545,2,0,L|216:264,1,99.9999999999999,0|8,1:0|0:2,0:0:0:0:
108,324,84194,2,0,L|136:177,1,150,0|2,1:0|0:0,0:0:0:0:
76,192,84843,2,0,L|32:96,1,99.9999999999999,0|8,1:0|0:2,0:0:0:0:
148,60,85491,6,0,B|224:72|256:153|256:153|288:72|364:60,1,300,0|8,1:0|0:2,0:0:0:0:
376,176,86789,2,0,P|256:252|136:176,1,300,0|8,1:0|0:2,0:0:0:0:
196,72,88086,2,0,B|256:117|256:117|316:72,1,150,0|2,1:0|0:0,0:0:0:0:
359,29,88735,1,0,1:0:0:0:
444,113,89059,1,8,0:2:0:0:
360,197,89383,6,0,P|347:245|359:293,1,99.9999999999999,0|2,1:0|0:0,0:0:0:0:
404,332,89870,2,0,L|300:356,1,99.9999999999999,0|2,1:0|0:0,0:0:0:0:
256,324,90356,1,8,0:2:0:0:
156,260,90681,6,0,B|112:232|64:248|64:248|4:272,2,150,0|0|8,1:0|1:0|0:2,0:0:0:0:
256,192,91978,2,0,L|256:32,2,150,0|0|8,1:0|1:0|0:2,0:0:0:0:
356,260,93275,2,0,B|400:232|448:248|448:248|508:272,2,150,0|0|8,1:0|1:0|0:2,0:0:0:0:
256,328,94572,6,0,L|162:293,1,99.9999999999999,0|0,1:0|0:0,0:0:0:0:
199,245,95058,1,0,1:0:0:0:
199,245,95221,2,0,L|105:210,1,99.9999999999999,8|8,0:2|0:2,0:0:0:0:
36,120,95870,6,0,P|105:92|173:119,1,150,4|2,0:0|0:3,0:0:0:0:
215,162,96518,2,0,L|192:64,1,99.9999999999999,2|8,0:2|0:0,0:0:0:0:
304,104,97167,2,0,L|340:249,1,150,4|2,0:3|0:3,0:0:0:0:
388,284,97816,1,2,0:2:0:0:
464,192,98140,1,8,0:0:0:0:
388,100,98464,6,0,L|251:40,2,150,4|2|8,0:3|0:3|0:0,0:0:0:0:
296,176,99762,2,0,L|434:235,2,150,4|2|8,0:3|0:3|0:0,0:0:0:0:
188,124,101059,2,0,P|140:111|92:123,1,99.9999999999999,4|0,0:3|0:0,0:0:0:0:
50,81,101545,1,2,0:3:0:0:
8,123,101708,2,0,L|138:198,1,150,2|2,0:2|0:2,0:0:0:0:
176,244,102356,5,4,0:0:0:0:
91,329,102681,2,0,L|43:301,2,50,8|8|2,0:0|0:0|0:2,0:0:0:0:
176,244,103329,2,0,L|220:269,1,50,8|2,0:0|0:2,0:0:0:0:
256,316,103654,6,0,P|229:248|256:180,1,150,4|2,0:0|0:3,0:0:0:0:
299,137,104302,2,0,L|144:148,1,150,2|2,0:2|0:3,0:0:0:0:
107,104,104951,1,4,0:3:0:0:
24,192,105275,2,0,B|17:216|17:216|24:240,1,50,8|0,0:0|0:0,0:0:0:0:
67,282,105600,2,0,B|74:306|74:306|67:330,1,50,2|0,0:2|0:0,0:0:0:0:
110,372,105924,1,8,0:0:0:0:
192,284,106248,6,0,P|256:251|320:284,2,150,4|2|8,0:3|0:3|0:0,0:0:0:0:
116,192,107545,2,0,L|10:85,2,150,4|2|8,0:3|0:3|0:0,0:0:0:0:
202,106,108843,2,0,L|90:-6,2,150,4|2|8,0:3|0:3|0:0,0:0:0:0:
116,192,110140,1,4,0:3:0:0:
192,284,110464,2,0,B|236:308|256:358|256:358|276:308|320:284,1,200,8|8,0:0|0:0,0:0:0:0:
396,192,111437,6,0,P|423:124|396:56,1,150,4|2,0:3|0:2,0:0:0:0:
432,8,112086,2,0,L|269:39,1,150,2|2,0:2|0:2,0:0:0:0:
228,36,112735,2,0,L|80:8,1,150,4|2,0:3|0:2,0:0:0:0:
38,50,113383,1,2,0:2:0:0:
124,135,113708,1,8,0:0:0:0:
40,219,114032,6,0,B|20:256|32:304|32:304|48:364,2,150,4|2|8,0:3|0:3|0:0,0:0:0:0:
132,280,115329,2,0,B|152:243|140:195|140:195|124:135,2,150,4|2|8,0:3|0:3|0:0,0:0:0:0:
232,344,116627,2,0,B|256:351|256:351|280:344,1,50,4|2,0:3|0:2,0:0:0:0:
322,301,116951,2,0,B|346:294|346:294|370:301,1,50,8|2,0:0|0:2,0:0:0:0:
412,258,117275,2,0,L|266:213,1,150,4|2,0:3|0:2,0:0:0:0:
212,192,117924,5,4,0:0:0:0:
256,192,118086,12,4,120518,0:0:0:0:
160,308,130897,6,0,B|256:280|256:280|352:308,1,200,4|0,0:0|1:0,0:0:0:0:
256,380,131870,1,0,0:0:0:0:
160,308,132194,2,0,P|133:240|160:172,1,150,4|2,0:0|0:0,0:0:0:0:
203,129,132843,2,0,L|104:152,1,99.9999999999999,0|0,1:0|0:0,0:0:0:0:
16,72,133491,6,0,L|162:36,1,150,4|2,0:0|0:0,0:0:0:0:
188,92,134140,1,0,1:0:0:0:
256,192,134464,1,0,0:0:0:0:
324,292,134789,2,0,B|276:312|256:361|256:361|236:312|188:292,1,200,4|0,0:0|1:0,0:0:0:0:
120,192,135762,1,0,0:0:0:0:
188,92,136086,6,0,B|236:72|256:23|256:23|276:72|324:92,1,200,4|0,0:0|1:0,0:0:0:0:
392,192,137059,1,0,0:0:0:0:
324,292,137383,2,0,B|256:260|256:260|188:292,1,150,4|2,0:0|0:0,0:0:0:0:
152,340,138032,2,0,P|167:293|152:246,1,99.9999999999999,0|0,1:0|0:0,0:0:0:0:
188,132,138680,6,0,B|140:132|140:132|103:95,2,99.9999999999999,4|4|4,0:0|0:0|0:0,0:0:0:0:
256,32,139653,1,0,0:0:0:0:
324,132,139977,2,0,B|360:112|396:128|396:132|396:136|432:152|468:132,2,150,4|4|8,0:2|0:2|1:2,0:0:0:0:
256,240,141275,6,0,B|184:240|184:240|128:296,1,150,4|2,0:0|0:3,0:0:0:0:
80,260,141924,2,0,P|53:192|80:124,1,150,2|2,0:2|0:3,0:0:0:0:
128,88,142572,2,0,B|184:144|184:144|256:144,1,150,4|2,0:3|0:3,0:0:0:0:
312,128,143221,1,2,0:2:0:0:
412,192,143545,1,8,0:0:0:0:
312,256,143870,6,0,B|312:300|312:300|312:360|364:384,2,150,4|2|8,0:3|0:3|0:0,0:0:0:0:
200,256,145167,2,0,B|200:300|200:300|200:360|148:384,2,150,4|2|8,0:3|0:3|0:0,0:0:0:0:
100,192,146464,5,4,0:3:0:0:
200,128,146789,2,0,B|228:128|228:128|243:112,1,50,8|2,0:0|0:2,0:0:0:0:
285,154,147113,2,0,B|300:138|300:138|328:138,1,50,4|2,0:3|0:2,0:0:0:0:
371,95,147437,1,8,0:0:0:0:
413,137,147600,2,0,L|380:240,1,99.9999999999999,2|2,0:2|0:2,0:0:0:0:
432,268,148086,2,0,P|344:227|256:268,1,200,8|8,0:0|0:0,0:0:0:0:
171,182,149059,6,0,P|103:209|35:182,1,150,4|2,0:3|0:3,0:0:0:0:
0,132,149708,2,0,L|88:260,1,150,2|2,0:2|0:3,0:0:0:0:
42,298,150356,2,0,L|165:382,1,150,4|2,0:3|0:3,0:0:0:0:
200,332,151005,1,2,0:2:0:0:
256,224,151329,1,8,0:0:0:0:
312,332,151654,6,0,P|383:332|439:276,2,150,4|2|8,0:3|0:3|0:0,0:0:0:0:
200,332,152951,2,0,P|129:332|73:276,2,150,4|2|8,0:3|0:3|0:0,0:0:0:0:
256,224,154248,6,0,L|276:172,1,50,4|2,0:3|0:2,0:0:0:0:
231,134,154572,2,0,L|251:82,1,50,8|2,0:0|0:2,0:0:0:0:
291,44,154897,2,0,P|223:71|155:44,1,150,4|2,0:3|0:3,0:0:0:0:
112,1,155545,1,2,0:2:0:0:
36,96,155870,2,0,L|84:289,1,200,8|8,0:0|0:0,0:0:0:0:
184,360,156843,6,0,B|228:360|256:377|256:377|284:360|328:360,1,150,4|2,0:3|0:3,0:0:0:0:
384,384,157491,2,0,B|401:343|381:303|381:303|403:241,1,150,2|2,0:2|0:3,0:0:0:0:
460,264,158140,2,0,L|500:112,1,150,4|2,0:3|0:3,0:0:0:0:
456,76,158788,2,0,B|432:69|432:69|408:76,1,50,4|2,0:3|0:2,0:0:0:0:
364,116,159113,2,0,B|340:123|340:123|316:116,1,50,8|2,0:0|0:2,0:0:0:0:
256,108,159437,6,0,B|256:164|256:164|252:172|252:172|260:172|260:172|256:180|256:180|256:248,2,150,4|2|8,0:3|0:3|0:0,0:0:0:0:
196,8,160734,2,0,B|120:8|120:8|64:60,2,150,4|2|8,0:3|0:3|0:0,0:0:0:0:
316,8,162031,2,0,B|392:8|392:8|448:60,2,150,4|2|8,0:3|0:3|0:0,0:0:0:0:
196,8,163329,6,0,L|168:112,1,99.9999999999999,4|8,0:3|0:0,0:0:0:0:
112,84,163815,2,0,L|84:188,1,99.9999999999999,8|8,0:0|0:0,0:0:0:0:
48,228,164302,2,0,B|41:252|41:252|48:276,1,50,8|2,0:0|0:2,0:0:0:0:
76,328,164627,6,0,L|223:361,1,150,4|2,0:0|0:3,0:0:0:0:
263,317,165275,2,0,L|410:350,1,150,2|2,0:2|0:3,0:0:0:0:
463,377,165924,2,0,P|411:349|411:265,1,150,4|2,0:3|0:3,0:0:0:0:
453,224,166572,2,0,B|460:200|460:200|453:176,1,50,2|0,0:2|0:0,0:0:0:0:
410,134,166897,2,0,B|403:110|403:110|410:86,1,50,8|0,0:0|0:0,0:0:0:0:
359,53,167221,6,0,L|507:34,2,150,4|2|8,0:3|0:3|0:0,0:0:0:0:
256,116,168518,2,0,L|107:97,2,150,4|2|8,0:3|0:3|0:0,0:0:0:0:
352,192,169816,6,0,P|364:240|352:288,1,99.9999999999999,4|8,0:3|0:0,0:0:0:0:
308,328,170302,1,2,0:2:0:0:
256,292,170464,2,0,L|192:308,1,50,4|2,0:3|0:2,0:0:0:0:
165,262,170789,2,0,L|101:278,1,50,8|2,0:0|0:2,0:0:0:0:
56,280,171113,2,0,B|56:224|16:192|16:192|56:160|56:104,1,200,4|4,0:3|0:3,0:0:0:0:
128,8,172086,1,8,0:0:0:0:
200,104,172410,6,0,P|256:146|312:104,1,150,4|2,0:3|0:3,0:0:0:0:
344,56,173059,2,0,L|328:206,1,150,2|2,0:2|0:3,0:0:0:0:
388,192,173708,2,0,L|403:342,1,150,4|2,0:3|0:3,0:0:0:0:
352,376,174356,1,2,0:2:0:0:
256,304,174681,1,8,0:0:0:0:
160,376,175005,6,0,P|88:376|52:312,2,150,4|2|8,0:3|0:2|0:0,0:0:0:0:
256,304,176302,2,0,B|256:242|256:242|252:234|252:234|260:234|260:234|256:226|256:226|256:164,2,150,4|2|8,0:3|0:3|0:0,0:0:0:0:
352,376,177600,2,0,P|424:376|460:312,2,150,4|2|8,0:3|0:3|0:0,0:0:0:0:
256,304,178897,5,4,0:3:0:0:
160,232,179221,2,0,B|256:204|256:204|352:232,1,200,8|8,0:0|0:0,0:0:0:0:
256,304,180194,6,0,L|256:104,1,200,4|4,0:3|0:3,0:0:0:0:
340,20,181167,1,8,0:0:0:0:
425,106,181491,2,0,P|437:154|425:202,1,99.9999999999999,2|8,0:2|0:0,0:0:0:0:
376,240,181978,1,2,0:2:0:0:
324,268,182140,2,0,L|432:280,1,99.9999999999999,4|8,0:3|0:0,0:0:0:0:
352,376,182789,6,0,L|202:360,2,150,4|2|8,0:3|0:3|0:0,0:0:0:0:
324,268,184086,2,0,L|174:252,2,150,4|2|8,0:3|0:3|0:0,0:0:0:0:
296,160,185383,2,0,L|146:144,2,150,4|2|4,0:3|0:3|0:2,0:0:0:0:
268,52,186681,2,0,L|118:36,2,150,4|4|4,0:2|0:2|0:2,0:0:0:0:
379,13,187978,6,0,P|451:24|487:87,1,150,4|2,0:0|0:3,0:0:0:0:
448,132,188627,2,0,B|432:176|405:192|405:192|432:208|448:252,1,150,2|2,0:2|0:3,0:0:0:0:
487,298,189275,2,0,P|451:361|380:372,1,150,4|2,0:3|0:3,0:0:0:0:
337,330,189924,1,2,0:2:0:0:
256,240,190248,1,8,0:0:0:0:
176,156,190572,6,0,B|140:120|140:120|140:72|140:72|176:36,2,150,4|2|8,0:3|0:3|0:0,0:0:0:0:
256,240,191870,2,0,B|256:302|256:302|252:310|252:310|260:310|260:310|256:318|256:318|256:380,2,150,4|2|8,0:3|0:3|0:0,0:0:0:0:
336,156,193167,2,0,B|372:120|372:120|372:72|372:72|336:36,2,150,4|2|8,0:3|0:3|0:0,0:0:0:0:
432,228,194464,6,0,P|256:309|80:228,1,400,4|2,0:3|0:2,0:0:0:0:
256,192,195924,12,4,203545,0:0:0:0:
