osu file format v14

[General]
AudioFilename: Las Ketchup - The Ketchup Song.mp3
AudioLeadIn: 0
PreviewTime: 36842
Countdown: 0
SampleSet: Normal
StackLeniency: 0.7
Mode: 0
LetterboxInBreaks: 0
WidescreenStoryboard: 0

[Editor]
Bookmarks: 1167,11545,37491,62139,69923,95869,120518,130896,141275,187977
DistanceSpacing: 1.2
BeatDivisor: 2
GridSize: 4
TimelineZoom: 1

[Metadata]
Title:The Ketchup Song (Asereje) (Spanglish Version)
TitleUnicode:The Ketchup Song (Aserejé) (Spanglish Version)
Artist:Las Ketchup
ArtistUnicode:Las Ketchup
Creator:ReFaller
Version:Easy
Source:
Tags:spanish ezek flamenco hijas del tomate gero underforest warner music pop english zekeyache just dance 4 underforest
BeatmapID:895368
BeatmapSetID:387560

[Difficulty]
HPDrainRate:2
CircleSize:2.5
OverallDifficulty:2
ApproachRate:3
SliderMultiplier:0.699999999999999
SliderTickRate:1

[Events]
//Background and Video events
0,0,"pomidorek.jpg",0,0
//Break Periods
2,62340,68424
2,120718,129397
//Storyboard Layer 0 (Background)
//Storyboard Layer 1 (Fail)
//Storyboard Layer 2 (Pass)
//Storyboard Layer 3 (Foreground)
//Storyboard Layer 4 (Overlay)
//Storyboard Sound Samples

[TimingPoints]
1167,324.324324324324,4,1,0,100,1,0
11545,-100,4,3,0,50,0,0
37491,-100,4,1,0,60,0,1
59545,-100,4,1,0,60,0,0
69923,-100,4,3,0,50,0,0
95869,-100,4,1,0,70,0,1
117923,-100,4,1,0,60,0,0
130896,-100,4,3,0,70,0,0
141275,-100,4,1,0,80,0,1
187977,-100,4,1,0,70,0,0
189275,-100,4,1,0,65,0,0
190572,-100,4,1,0,60,0,0
191869,-100,4,1,0,55,0,0
193166,-100,4,1,0,50,0,0
194464,-100,4,1,0,45,0,0
195761,-100,4,1,0,40,0,0
197058,-100,4,1,0,35,0,0
198356,-100,4,1,0,30,0,0
199653,-100,4,1,0,25,0,0
200950,-100,4,1,0,20,0,0
202248,-100,4,1,0,15,0,0
203545,-100,4,1,0,10,0,0

[Colours]
Combo1 : 0,130,33
Combo2 : 204,0,0

[HitObjects]
280,232,11545,6,0,B|292:148|396:128|440:200,1,210,0|2,0:0|0:0,0:0:0:0:
364,240,12843,2,0,B|352:324|248:344|204:272,1,210,0|2,0:0|0:0,0:0:0:0:
204,192,14140,2,0,B|239:110|151:41|81:83,1,210,0|2,0:0|0:0,0:0:0:0:
11,111,15437,1,8,0:0:0:0:
29,235,15923,1,4,0:0:0:0:
127,155,16410,1,2,0:0:0:0:
200,112,16735,6,0,B|228:188|336:187|360:104,1,210,0|2,0:0|0:0,0:0:0:0:
280,84,18032,2,0,L|280:304,1,210,0|2,0:0|0:0,0:0:0:0:
212,344,19329,2,0,B|138:377|62:300|104:225,1,210,0|2,0:0|0:0,0:0:0:0:
161,170,20626,1,8,0:0:0:0:
283,200,21112,1,4,0:0:0:0:
176,268,21599,1,2,0:0:0:0:
102,228,21924,6,0,B|68:192|72:132|116:100,1,140,4|4,0:0|0:0,0:0:0:0:
196,92,22897,1,2,0:0:0:0:
272,128,23221,2,0,B|308:162|368:158|400:114,1,140,8|4,0:0|0:0,0:0:0:0:
330,65,24194,1,2,0:0:0:0:
407,33,24518,2,0,B|456:37|492:85|481:133,2,140,4|8|4,0:0|0:0|0:0,0:0:0:0:
256,108,26464,1,4,0:0:0:0:
105,33,27113,6,0,B|55:37|19:85|30:133,1,140,4|4,0:0|0:0,0:0:0:0:
74,204,28086,1,2,0:0:0:0:
73,288,28410,2,0,B|141:259|213:284,1,140,8|4,0:0|0:0,0:0:0:0:
290,308,29383,1,2,0:0:0:0:
339,377,29708,2,0,B|379:348|386:288|353:253,1,140,4|8,0:0|0:0,0:0:0:0:
289,198,30681,1,2,0:0:0:0:
368,171,31005,6,0,B|238:172|230:44,1,210,4|2,0:0|0:0,0:0:0:0:
146,28,32302,2,0,B|138:140|230:224,1,210,4|2,0:0|0:0,0:0:0:0:
162,276,33600,2,0,B|86:208|62:92,1,210,4|2,0:0|0:0,0:0:0:0:
256,192,34897,12,10,36194,0:0:0:0:
268,349,37491,6,0,B|338:387|404:337,1,140,6|2,0:0|0:0,0:0:0:0:
435,264,38464,1,8,0:0:0:0:
388,193,38788,2,0,B|318:155|252:205,1,140,2|2,0:0|0:0,0:0:0:0:
221,278,39761,1,8,0:0:0:0:
148,235,40085,6,0,B|111:192|123:133,2,105,2|2|8,0:0|0:0|0:0,0:0:0:0:
147,319,41383,2,0,B|91:329|46:289,2,105,2|2|8,0:0|0:0|0:0,0:0:0:0:
221,278,42681,5,2,0:0:0:0:
222,361,43005,2,2,B|271:362|311:316|303:266,1,140,10|10,0:0|0:0,0:0:0:0:
216,123,44302,2,0,L|228:211,1,69.9999999999999,8|0,0:0|0:0,0:0:0:0:
150,230,44950,1,10,0:0:0:0:
66,237,45275,6,0,B|34:173|54:101,1,140,2|2,0:0|0:0,0:0:0:0:
118,47,46248,1,8,0:0:0:0:
191,87,46572,2,0,B|253:118|326:99,1,140,2|2,0:0|0:0,0:0:0:0:
404,65,47545,1,8,0:0:0:0:
484,89,47869,6,0,B|523:136|498:187,2,105,2|2|8,0:0|0:0|0:0,0:0:0:0:
423,147,49166,2,0,B|398:198|437:245,2,105,2|2|8,0:0|0:0|0:0,0:0:0:0:
404,65,50464,5,2,0:0:0:0:
342,122,50789,2,2,B|301:148|243:133|220:83,1,140,10|10,0:0|0:0,0:0:0:0:
71,162,52086,2,0,L|83:238,1,69.9999999999999,8|0,0:0|0:0,0:0:0:0:
166,251,52734,1,10,0:0:0:0:
250,263,53058,6,0,B|293:266|293:266|338:291|338:291|386:295,1,140,2|2,0:0|0:0,0:0:0:0:
454,247,54031,1,8,0:0:0:0:
378,211,54356,2,0,B|332:190|317:132|343:91,1,140,2|2,0:0|0:0,0:0:0:0:
414,135,55329,1,8,0:0:0:0:
415,51,55653,6,0,B|380:0|324:10,2,105,2|2|8,0:0|0:0|0:0,0:0:0:0:
414,134,56950,2,0,B|474:130|494:76,2,105,2|2|8,0:0|0:0|0:0,0:0:0:0:
342,92,58248,5,2,0:0:0:0:
261,69,58572,2,2,B|214:54|162:83|154:132,1,140,10|10,0:0|0:0,0:0:0:0:
256,192,59545,12,4,62140,0:0:0:0:
85,358,69924,6,0,B|181:278|125:158,1,210,0|2,0:0|0:0,0:0:0:0:
45,162,71221,2,0,B|57:78|161:58|205:130,1,210,0|2,0:0|0:0,0:0:0:0:
205,210,72518,2,0,B|313:282|389:178,1,210,0|2,0:0|0:0,0:0:0:0:
450,123,73815,1,8,0:0:0:0:
374,22,74302,1,4,0:0:0:0:
317,134,74788,1,2,0:0:0:0:
387,179,75113,6,0,B|346:246|242:226|233:142,1,210,0|2,0:0|0:0,0:0:0:0:
317,134,76410,2,0,B|305:54|203:29|161:98,1,210,0|2,0:0|0:0,0:0:0:0:
233,142,77708,2,0,B|202:200|146:200|152:178|92:185|56:243,1,210,0|2,0:0|0:0,0:0:0:0:
24,316,79004,1,8,0:0:0:0:
146,287,79491,1,4,0:0:0:0:
265,325,79977,1,2,0:0:0:0:
337,282,80302,6,0,B|371:246|367:186|323:154,1,140,4|4,0:0|0:0,0:0:0:0:
243,146,81275,1,2,0:0:0:0:
177,202,81600,2,0,B|147:166|151:106|195:74,1,140,8|4,0:0|0:0,0:0:0:0:
274,65,82572,1,2,0:0:0:0:
243,146,82897,2,0,B|317:166|389:114,2,140,4|8|4,0:0|0:0|0:0,0:0:0:0:
128,22,84843,1,4,0:0:0:0:
36,162,85491,6,0,B|3:227|34:297,1,140,4|4,0:0|0:0,0:0:0:0:
96,354,86464,1,2,0:0:0:0:
176,378,86789,2,0,B|396:366,1,210,8|2,0:0|0:0,0:0:0:0:
424,290,88086,2,0,B|380:222|432:154,1,140,4|8,0:0|0:0,0:0:0:0:
484,94,89059,1,2,0:0:0:0:
401,79,89383,6,0,B|284:134|223:22,1,210,4|2,0:0|0:0,0:0:0:0:
139,43,90681,2,0,B|180:147|298:185,1,210,4|2,0:0|0:0,0:0:0:0:
258,261,91978,2,0,B|161:231|90:136,1,210,4|2,0:0|0:0,0:0:0:0:
256,192,93275,12,10,94572,0:0:0:0:
244,349,95869,6,0,B|174:387|108:337,1,140,6|2,0:0|0:0,0:0:0:0:
77,264,96842,1,8,0:0:0:0:
124,193,97166,2,0,B|194:155|260:205,1,140,2|2,0:0|0:0,0:0:0:0:
291,278,98139,1,8,0:0:0:0:
364,235,98464,6,0,B|401:192|389:133,2,105,2|2|8,0:0|0:0|0:0,0:0:0:0:
365,319,99761,2,0,B|421:329|466:289,2,105,2|2|8,0:0|0:0|0:0,0:0:0:0:
291,278,101059,5,2,0:0:0:0:
290,361,101383,2,2,B|241:362|201:316|209:266,1,140,10|10,0:0|0:0,0:0:0:0:
296,123,102680,2,0,L|284:211,1,69.9999999999999,8|0,0:0|0:0,0:0:0:0:
362,230,103328,1,10,0:0:0:0:
446,237,103653,6,0,B|478:173|458:101,1,140,2|2,0:0|0:0,0:0:0:0:
394,47,104626,1,8,0:0:0:0:
321,87,104950,2,0,B|259:118|186:99,1,140,2|2,0:0|0:0,0:0:0:0:
108,65,105923,1,8,0:0:0:0:
28,89,106248,6,0,B|-11:136|14:187,2,105,2|2|8,0:0|0:0|0:0,0:0:0:0:
89,147,107545,2,0,B|114:198|75:245,2,105,2|2|8,0:0|0:0|0:0,0:0:0:0:
108,65,108842,5,2,0:0:0:0:
170,122,109167,2,2,B|211:148|269:133|292:83,1,140,10|10,0:0|0:0,0:0:0:0:
441,162,110464,2,0,L|429:238,1,69.9999999999999,8|0,0:0|0:0,0:0:0:0:
346,251,111112,1,10,0:0:0:0:
262,263,111436,6,0,B|219:266|219:266|174:291|174:291|126:295,1,140,2|2,0:0|0:0,0:0:0:0:
58,247,112409,1,8,0:0:0:0:
134,211,112734,2,0,B|180:190|195:132|169:91,1,140,2|2,0:0|0:0,0:0:0:0:
98,135,113707,1,8,0:0:0:0:
97,51,114031,6,0,B|132:0|188:10,2,105,2|2|8,0:0|0:0|0:0,0:0:0:0:
98,134,115329,2,0,B|38:130|18:76,2,105,2|2|8,0:0|0:0|0:0,0:0:0:0:
170,92,116626,5,2,0:0:0:0:
251,69,116950,2,2,B|298:54|350:83|358:132,1,140,10|10,0:0|0:0,0:0:0:0:
256,192,117924,12,4,120518,0:0:0:0:
172,324,130897,6,0,B|100:280|140:200,1,140,2|0,3:2|1:0,0:0:0:0:
300,152,132194,2,0,B|338:75|266:31,1,140,2|0,3:2|1:0,0:0:0:0:
100,40,133491,1,2,3:2:0:0:
138,203,134140,1,0,1:0:0:0:
300,152,134789,2,0,L|312:76,2,69.9999999999999,2|4|0,3:2|0:0|1:0,0:0:0:0:
352,312,136086,6,0,B|432:288|415:200,1,140,2|0,3:2|1:0,0:0:0:0:
272,112,137383,2,0,B|254:28|335:4,1,140,2|0,3:2|1:0,0:0:0:0:
336,172,138680,2,0,B|256:244|186:151|218:186|149:112|68:166,1,280,2|6,3:2|3:2,0:0:0:0:
425,233,141275,6,0,B|463:163|413:97,1,140,6|2,0:0|0:0,0:0:0:0:
340,66,142248,1,8,0:0:0:0:
269,113,142572,2,0,B|231:183|281:249,1,140,2|2,0:0|0:0,0:0:0:0:
354,280,143545,1,8,0:0:0:0:
285,329,143870,6,0,B|242:366|183:354,2,105,2|2|8,0:0|0:0|0:0,0:0:0:0:
354,280,145167,2,0,B|409:269|451:306,2,105,2|2|8,0:0|0:0|0:0,0:0:0:0:
277,244,146464,5,2,0:0:0:0:
196,268,146788,2,2,B|129:224|147:147,1,140,10|10,0:0|0:0,0:0:0:0:
245,11,148085,2,0,L|259:92,1,69.9999999999999,8|0,0:0|0:0,0:0:0:0:
287,158,148734,1,10,0:0:0:0:
359,115,149058,6,0,B|429:77|495:127,1,140,2|2,0:0|0:0,0:0:0:0:
505,206,150031,1,8,0:0:0:0:
430,245,150355,2,0,B|282:278,1,140,2|2,0:0|0:0,0:0:0:0:
210,291,151328,1,8,0:0:0:0:
129,266,151653,6,0,B|90:219|115:168,2,105,2|2|8,0:0|0:0|0:0,0:0:0:0:
190,208,152950,2,0,B|215:157|176:110,2,105,2|2|8,0:0|0:0|0:0,0:0:0:0:
210,291,154248,5,2,0:0:0:0:
149,348,154572,2,2,L|9:338,1,140,10|10,0:0|0:0,0:0:0:0:
43,173,155869,2,0,L|112:168,1,69.9999999999999,8|0,0:0|0:0,0:0:0:0:
176,110,156518,1,10,0:0:0:0:
259,112,156842,6,0,B|302:109|302:109|347:84|347:84|395:80,1,140,2|2,0:0|0:0,0:0:0:0:
463,128,157815,1,8,0:0:0:0:
387,164,158140,2,0,B|341:185|326:243|352:284,1,140,2|2,0:0|0:0,0:0:0:0:
423,240,159113,1,8,0:0:0:0:
424,324,159437,6,0,B|390:374|334:364,2,105,2|2|8,0:0|0:0|0:0,0:0:0:0:
423,240,160735,2,0,B|484:244|504:298,2,105,2|2|8,0:0|0:0|0:0,0:0:0:0:
351,283,162032,5,2,0:0:0:0:
327,202,162356,2,2,B|335:153|387:124|433:138,1,140,10|10,0:0|0:0,0:0:0:0:
351,283,163653,2,0,B|309:299|309:299|215:289,1,140,8|10,0:0|0:0,0:0:0:0:
143,241,164626,6,0,B|105:171|155:105,1,140,6|2,0:0|0:0,0:0:0:0:
228,74,165599,1,8,0:0:0:0:
299,121,165923,2,0,B|337:191|287:257,1,140,2|2,0:0|0:0,0:0:0:0:
214,288,166896,1,8,0:0:0:0:
283,337,167221,6,0,B|326:374|385:362,2,105,2|2|8,0:0|0:0|0:0,0:0:0:0:
214,288,168518,2,0,B|159:277|117:314,2,105,2|2|8,0:0|0:0|0:0,0:0:0:0:
291,252,169815,1,2,0:0:0:0:
372,276,170139,2,2,B|439:232|421:155,1,140,10|10,0:0|0:0,0:0:0:0:
302,36,171436,2,0,L|288:117,1,69.9999999999999,8|0,0:0|0:0,0:0:0:0:
225,158,172085,1,10,0:0:0:0:
153,115,172409,6,0,B|83:77|17:127,1,140,2|2,0:0|0:0,0:0:0:0:
7,206,173382,1,8,0:0:0:0:
82,245,173707,2,0,B|230:278,1,140,2|2,0:0|0:0,0:0:0:0:
302,291,174679,1,8,0:0:0:0:
383,266,175004,6,0,B|422:219|397:168,2,105,2|2|8,0:0|0:0|0:0,0:0:0:0:
322,208,176302,2,0,B|297:157|336:110,2,105,2|2|8,0:0|0:0|0:0,0:0:0:0:
302,291,177599,5,2,0:0:0:0:
363,348,177923,2,2,L|502:338,1,140,10|10,0:0|0:0,0:0:0:0:
469,173,179220,2,0,L|399:168,1,69.9999999999999,8|0,0:0|0:0,0:0:0:0:
336,110,179869,1,10,0:0:0:0:
253,112,180193,6,0,B|210:109|210:109|165:84|165:84|117:80,1,140,2|2,0:0|0:0,0:0:0:0:
49,128,181166,1,8,0:0:0:0:
125,164,181491,2,0,B|171:185|186:243|160:284,1,140,2|2,0:0|0:0,0:0:0:0:
89,240,182464,1,8,0:0:0:0:
88,324,182788,6,0,B|122:374|178:364,2,105,2|2|8,0:0|0:0|0:0,0:0:0:0:
89,240,184086,2,0,B|28:244|8:298,2,105,2|2|8,0:0|0:0|0:0,0:0:0:0:
161,283,185383,5,2,0:0:0:0:
242,306,185707,2,2,B|288:320|340:291|348:242,1,140,10|10,0:0|0:0,0:0:0:0:
338,156,186680,2,0,B|282:164|265:223,2,105,8|8|8,0:0|0:0|0:0,0:0:0:0:
416,188,187977,6,0,B|471:133|436:60,1,140,4|0,0:0|0:0,0:0:0:0:
375,4,188950,1,8,0:0:0:0:
294,28,189275,2,0,L|147:12,1,140
81,54,190248,1,8,0:0:0:0:
27,118,190572,6,0,B|6:172|52:217,2,105,0|0|8,0:0|0:0|0:0,0:0:0:0:
105,148,191869,2,0,B|141:193|203:175,2,105,0|0|8,0:0|0:0|0:0,0:0:0:0:
171,95,193167,5,0,0:0:0:0:
253,107,193491,2,0,B|293:133|303:192|270:229,1,140,8|8,0:0|0:0,0:0:0:0:
165,360,194788,2,0,B|124:333|114:274|147:237,1,140,8|8,0:0|0:0,0:0:0:0:
256,192,195762,12,0,203545,0:0:0:0:
