osu file format v14

[General]
AudioFilename: audio.mp3
AudioLeadIn: 0
PreviewTime: 42228
Countdown: 0
SampleSet: Soft
StackLeniency: 0.7
Mode: 0
LetterboxInBreaks: 0
WidescreenStoryboard: 1

[Editor]
DistanceSpacing: 0.9
BeatDivisor: 4
GridSize: 16
TimelineZoom: 1.700001

[Metadata]
Title:Trip -innocent of D- (TV Size)
TitleUnicode:Trip -innocent of D- (TV Size)
Artist:Larval Stage Planning
ArtistUnicode:Larval Stage Planning
Creator:Shocko
Version:Normal
Source:ハイスクールD×D
Tags:highschool high school dxd anime opening op japanese pop j-pop female vocals rias gremory リアスグレモリー 朝見凛 asami rin 桐島愛里 kirishima airi 舞崎なみ maizaki nami shizuku- kazato asa
BeatmapID:2734737
BeatmapSetID:1314744

[Difficulty]
HPDrainRate:4
CircleSize:3.5
OverallDifficulty:4
ApproachRate:5
SliderMultiplier:1.15
SliderTickRate:1

[Events]
//Background and Video events
0,0,"animeeeeee.jpg",0,0
//Break Periods
//Storyboard Layer 0 (Background)
//Storyboard Layer 1 (Fail)
//Storyboard Layer 2 (Pass)
//Storyboard Layer 3 (Foreground)
//Storyboard Layer 4 (Overlay)
//Storyboard Sound Samples

[TimingPoints]
241,365.853658536585,4,2,1,40,1,0
4631,-100,4,2,1,70,0,0
6094,-100,4,2,1,70,0,0
11399,-100,4,2,1,70,0,0
14875,-100,4,2,1,70,0,0
17801,-100,4,2,2,60,0,0
23655,-100,4,2,2,60,0,0
29509,-100,4,2,2,45,0,0
31155,-100,4,2,1,45,0,0
31704,-100,4,2,2,45,0,0
33899,-100,4,2,1,45,0,0
35362,-100,4,2,2,60,0,0
41216,-100,4,2,2,45,0,0
41948,-100,4,2,2,70,0,0
42497,-100,4,2,2,80,0,0
47801,-100,4,2,1,80,0,0
48533,-100,4,2,2,80,0,0
51094,-100,4,2,2,80,0,0
52375,-100,4,2,2,80,0,0
54570,-100,4,2,2,80,0,0
58960,-100,4,2,2,80,0,0
63167,-100,4,2,2,80,0,0
66826,-100,4,2,2,80,0,0
68289,-100,4,2,2,80,0,0
71948,-100,4,2,1,70,0,0
74783,-100,4,2,1,5,0,0
74875,-100,4,2,1,80,0,0
85119,-100,4,2,2,40,0,0
86582,-100,4,2,2,15,0,0
88045,-100,4,2,69,5,0,0

[Colours]
Combo1 : 255,193,193
Combo2 : 187,255,187
Combo3 : 255,202,176
Combo4 : 255,255,185

[HitObjects]
4,360,4631,6,0,L|67:350,1,57.5,2|2,1:2|1:2,0:0:0:0:
84,368,4997,2,0,L|147:358,1,57.5,2|2,1:2|1:2,0:0:0:0:
165,373,5362,2,0,P|175:315|186:244,1,115,2|10,0:0|0:0,0:0:0:0:
108,188,6094,6,0,P|89:137|122:71,1,115,6|8,0:0|0:0,0:0:0:0:
128,61,6643,1,2,0:0:0:0:
128,61,6826,2,0,L|119:1,2,57.5,0|8|8,3:0|0:3|0:0,0:0:0:0:
217,113,7558,2,0,L|337:99,1,115,2|8,3:0|0:0,0:0:0:0:
421,49,8289,2,0,L|414:106,1,57.5,0|8,3:0|0:3,0:0:0:0:
408,134,8655,1,8,0:0:0:0:
499,182,9021,6,0,P|522:233|508:288,1,115,2|10,3:0|0:0,0:0:0:0:
487,308,9570,1,2,0:0:0:0:
487,308,9753,2,0,L|420:296,2,57.5,0|8|8,3:0|0:3|0:0,0:0:0:0:
408,375,10484,2,0,L|289:360,1,115,2|8,3:0|0:0,0:0:0:0:
209,299,11216,1,0,3:0:0:0:
214,295,11399,2,0,L|224:231,2,57.5,8|8|8,0:0|0:0|0:0,0:0:0:0:
187,321,11948,6,0,P|134:342|81:325,1,115,6|10,0:0|0:0,0:0:0:0:
61,303,12497,1,2,0:0:0:0:
61,303,12680,2,0,L|-1:316,2,57.5,0|8|8,3:0|0:3|0:0,0:0:0:0:
88,203,13411,2,0,P|80:150|72:89,1,115,2|8,3:0|0:0,0:0:0:0:
150,21,14143,2,0,L|208:31,1,57.5,0|8,3:0|0:3,0:0:0:0:
234,38,14509,1,10,0:0:0:0:
311,106,14875,6,0,P|368:100|443:93,1,115,2|8,3:0|0:0,0:0:0:0:
441,118,15423,1,2,0:0:0:0:
441,118,15606,2,0,L|508:110,2,57.5,0|8|10,3:0|0:3|0:0,0:0:0:0:
419,219,16338,2,0,L|428:283,1,57.5,2|2,1:0|1:0,0:0:0:0:
493,355,16887,2,0,P|444:329|386:333,1,115,2|2,1:0|1:2,0:0:0:0:
367,312,17436,1,2,1:2:0:0:
274,356,17801,6,0,P|217:363|141:373,1,115,6|8,0:0|0:0,0:0:0:0:
134,384,18350,2,0,P|141:327|151:251,1,115,2|8,0:0|0:3,0:0:0:0:
124,253,18899,1,10,0:0:0:0:
22,270,19265,2,0,P|1:217|25:162,1,115,2|8,3:0|0:0,0:0:0:0:
99,96,19997,2,0,P|156:103|213:110,1,115,2|8,3:2|0:0,0:0:0:0:
306,64,20728,6,0,P|362:49|426:81,1,115,2|8,3:0|0:0,0:0:0:0:
439,55,21277,1,2,0:0:0:0:
439,55,21460,2,0,L|427:-1,2,57.5,2|8|10,3:2|0:3|0:0,0:0:0:0:
502,137,22192,2,0,L|491:261,1,115,2|8,3:0|0:0,0:0:0:0:
467,266,22740,1,2,0:0:0:0:
467,266,22923,2,0,L|483:399,1,115,2|8,3:2|0:0,0:0:0:0:
386,336,23655,6,0,P|325:307|274:321,1,115,2|8,3:2|0:0,0:0:0:0:
257,334,24204,1,2,0:0:0:0:
257,334,24387,2,0,P|259:298|268:274,1,57.5,2|8,3:2|0:3,0:0:0:0:
275,250,24753,1,10,0:0:0:0:
245,150,25119,2,0,P|189:155|113:165,1,115,2|8,3:0|0:0,0:0:0:0:
114,186,25667,1,2,0:0:0:0:
114,186,25850,2,0,P|62:179|-3:172,1,115,2|8,3:2|0:0,0:0:0:0:
2,68,26582,6,0,P|54:47|106:68,1,115,2|8,3:0|0:0,0:0:0:0:
209,55,27314,2,0,L|196:-2,2,57.5,2|8|10,3:2|0:3|0:0,0:0:0:0:
226,77,27862,1,2,0:0:0:0:
226,77,28045,2,0,P|287:71|348:66,1,115,2|8,3:0|0:0,0:0:0:0:
427,9,28777,1,0,3:0:0:0:
506,72,29143,1,4,0:3:0:0:
450,159,29509,6,0,B|488:263|488:263|464:268|440:300,1,172.5,6|2,0:0|3:2,0:0:0:0:
422,323,30240,1,8,0:0:0:0:
267,369,30789,2,0,P|214:345|160:364,2,115,2|2|8,3:2|0:0|0:3,0:0:0:0:
294,377,31704,2,0,P|303:317|310:260,1,115,10|0,0:0|3:0,0:0:0:0:
236,189,32436,2,0,B|166:178|152:239|72:226,1,172.5,2|0,3:0|3:0,0:0:0:0:
45,238,33167,2,0,B|14:186|14:186|51:127,1,115,10|2,0:0|0:0,0:0:0:0:
110,61,33899,2,0,L|94:-2,2,57.5,0|2|2,3:0|3:2|0:0,0:0:0:0:
137,81,34448,1,2,3:2:0:0:
137,81,34631,1,10,0:0:0:0:
234,47,34997,1,8,0:3:0:0:
323,99,35362,6,0,P|377:72|434:93,1,115,6|10,0:0|0:0,0:0:0:0:
451,102,35911,2,0,P|441:157|432:215,1,115,2|8,0:0|0:3,0:0:0:0:
412,234,36460,1,8,0:0:0:0:
449,330,36826,2,0,P|400:322|324:310,1,115,6|8,0:0|0:0,0:0:0:0:
315,332,37375,2,0,P|266:324|190:312,1,115,2|8,0:0|0:3,0:0:0:0:
178,330,37923,1,8,0:0:0:0:
86,374,38289,5,6,0:0:0:0:
86,374,38472,2,0,L|99:314,1,57.5,2|10,0:0|0:0,0:0:0:0:
75,299,38838,2,0,P|51:249|74:193,1,115,2|8,0:3|0:3,0:0:0:0:
95,181,39387,1,10,0:0:0:0:
170,252,39753,6,0,B|271:257|311:171|311:171|370:245|470:218,1,345,6|8,0:0|0:0,0:0:0:0:
511,127,41216,1,8,3:0:0:0:
468,32,41582,1,4,3:0:0:0:
368,58,41948,2,0,P|310:78|245:54,1,115,2|10,1:0|0:3,0:0:0:0:
243,40,42497,6,0,L|129:56,1,115,6|8,0:0|0:3,0:0:0:0:
114,73,43045,1,10,0:0:0:0:
10,62,43411,2,0,L|25:131,1,57.5,2|8,3:2|0:3,0:0:0:0:
45,143,43777,1,8,0:0:0:0:
45,143,43960,2,0,P|30:223|24:264,1,115,2|8,0:0|0:3,0:0:0:0:
2,274,44509,2,0,P|49:304|106:299,1,115,10|0,0:0|3:0,0:0:0:0:
207,336,45240,5,8,0:0:0:0:
207,336,45423,2,0,P|273:327|339:320,1,115,2|8,3:0|0:3,0:0:0:0:
349,317,45972,2,0,L|342:374,2,57.5,10|2|2,0:0|0:0|3:0,0:0:0:0:
445,274,46704,1,10,0:0:0:0:
445,274,46887,2,0,B|467:220|467:220|434:170,1,115,2|8,0:0|0:3,0:0:0:0:
414,152,47436,2,0,P|424:92|434:31,1,115,10|0,0:0|3:0,0:0:0:0:
338,81,48167,1,8,0:0:0:0:
250,25,48533,6,0,P|202:9|133:44,1,115,2|8,3:0|0:0,0:0:0:0:
61,96,49265,2,0,L|-2:85,2,57.5,2|8|10,3:2|0:3|0:0,0:0:0:0:
82,115,49814,1,2,0:0:0:0:
82,115,49997,1,2,3:0:0:0:
8,187,50362,1,10,0:0:0:0:
102,229,50728,1,2,3:2:0:0:
21,294,51094,1,10,0:0:0:0:
89,373,51460,6,0,P|139:336|207:347,1,115,10|10,0:3|0:0,0:0:0:0:
210,318,52009,2,0,P|279:328|330:337,1,115,6|8,3:2|0:3,0:0:0:0:
349,323,52558,1,8,0:0:0:0:
442,367,52923,1,0,3:0:0:0:
442,367,53106,2,0,L|455:299,1,57.5,8|8,0:0|0:0,0:0:0:0:
410,215,53655,1,8,0:0:0:0:
494,153,54021,5,8,0:0:0:0:
494,153,54204,2,0,L|477:30,1,115,6|8,0:0|0:3,0:0:0:0:
481,10,54753,1,10,0:0:0:0:
384,47,55119,2,0,L|315:38,1,57.5,0|8,3:2|0:3,0:0:0:0:
309,23,55484,1,10,0:0:0:0:
309,23,55667,2,0,P|254:4|194:32,1,115,2|8,0:0|0:3,0:0:0:0:
187,47,56216,2,0,P|135:38|70:29,1,115,8|0,0:0|3:0,0:0:0:0:
9,112,56948,5,8,0:0:0:0:
9,112,57131,2,0,L|21:230,1,115,2|0,3:0|3:0,0:0:0:0:
35,251,57680,1,10,0:0:0:0:
4,349,58045,2,0,L|61:358,1,57.5,2|8,3:0|0:3,0:0:0:0:
88,378,58411,1,10,0:0:0:0:
88,378,58594,2,0,P|136:351|203:356,1,115,2|8,0:0|0:3,0:0:0:0:
216,334,59143,2,0,P|285:346|340:357,1,115,10|0,0:0|3:0,0:0:0:0:
425,314,59875,2,0,P|428:287|421:255,1,57.5,8|8,0:0|0:0,0:0:0:0:
403,235,60240,6,0,L|423:118,2,115,4|8|0,0:0|0:0|3:0,0:0:0:0:
379,247,61155,1,8,0:3:0:0:
379,247,61338,1,10,0:0:0:0:
313,166,61704,2,0,P|255:153|196:185,1,115,2|8,3:0|0:0,0:0:0:0:
117,230,62436,2,0,P|59:224|2:218,1,115,0|8,3:0|0:0,0:0:0:0:
48,119,63167,6,0,L|33:5,2,115,2|8|0,3:0|0:0|3:0,0:0:0:0:
72,134,64082,1,8,0:3:0:0:
72,134,64265,1,10,0:0:0:0:
162,78,64631,2,0,P|217:67|267:93,1,115,2|8,3:0|0:0,0:0:0:0:
367,67,65362,2,0,L|358:124,1,57.5,6|0,3:0|0:0,0:0:0:0:
347,152,65728,1,10,0:0:0:0:
347,152,65911,6,0,P|411:145|469:140,1,115,6|8,0:0|0:3,0:0:0:0:
481,161,66460,1,8,0:0:0:0:
422,246,66826,2,0,L|365:241,2,57.5,0|8|10,3:0|0:3|0:0,0:0:0:0:
507,305,67558,1,2,3:0:0:0:
422,364,67923,1,10,0:0:0:0:
319,352,68289,2,0,P|264:378|199:353,1,115,0|10,3:0|0:0,0:0:0:0:
133,299,69021,6,0,L|76:307,1,57.5,6|0,0:2|0:0,0:0:0:0:
57,285,69387,1,10,0:0:0:0:
57,285,69570,2,0,L|73:164,1,115,6|0,0:0|3:0,0:0:0:0:
77,142,70119,1,8,0:0:0:0:
2,70,70484,1,8,0:3:0:0:
88,21,70850,1,8,0:0:0:0:
162,93,71216,2,0,L|226:82,1,57.5,8|8,0:0|0:0,0:0:0:0:
237,105,71582,2,0,L|301:94,1,57.5,8|8,0:0|0:0,0:0:0:0:
317,111,71948,6,0,P|360:81|427:82,1,115,6|8,0:0|0:0,0:0:0:0:
443,61,72497,1,2,0:0:0:0:
443,61,72680,2,0,L|434:4,2,57.5,0|8|8,3:0|0:3|0:0,0:0:0:0:
511,138,73411,2,0,P|503:194|495:251,1,115,2|8,3:0|0:0,0:0:0:0:
439,338,74143,2,0,L|375:347,1,57.5,0|8,3:0|0:3,0:0:0:0:
354,353,74509,1,8,0:0:0:0:
253,376,74875,6,0,B|228:326|228:326|254:268,1,115,2|8,3:0|0:0,0:0:0:0:
272,251,75423,1,2,0:0:0:0:
272,251,75606,2,0,L|263:183,2,57.5,0|8|8,3:0|0:3|0:0,0:0:0:0:
350,183,76338,2,0,L|335:57,1,115,2|8,3:0|0:0,0:0:0:0:
232,62,77070,1,0,3:0:0:0:
235,56,77253,2,0,L|227:-5,2,57.5,8|8|8,0:0|0:0|0:0,0:0:0:0:
217,78,77801,6,0,P|164:103|96:88,1,115,6|8,0:0|0:0,0:0:0:0:
81,90,78350,1,2,0:0:0:0:
81,90,78533,2,0,L|21:100,2,57.5,0|8|8,3:0|0:3|0:0,0:0:0:0:
133,179,79265,2,0,L|118:314,1,115,2|8,3:0|0:0,0:0:0:0:
180,378,79997,2,0,L|239:370,1,57.5,0|8,3:0|0:3,0:0:0:0:
265,364,80362,1,10,0:0:0:0:
342,295,80728,6,0,P|388:322|458:313,1,115,2|8,3:0|0:0,0:0:0:0:
474,306,81277,1,2,0:0:0:0:
474,306,81460,2,0,L|466:368,2,57.5,0|8|10,3:0|0:3|0:0,0:0:0:0:
418,218,82192,2,0,L|427:149,1,57.5,2|2,1:0|1:0,0:0:0:0:
461,63,82740,2,0,B|409:82|409:82|347:55,1,115,2|2,1:0|1:2,0:0:0:0:
331,41,83289,1,2,1:2:0:0:
238,88,83655,5,4,0:1:0:0:
256,192,83838,12,0,88045,1:0:0:0:
