osu file format v14

[General]
AudioFilename: audio.mp3
AudioLeadIn: 0
PreviewTime: 42228
Countdown: 0
SampleSet: Soft
StackLeniency: 0.5
Mode: 0
LetterboxInBreaks: 0
WidescreenStoryboard: 1

[Editor]
DistanceSpacing: 0.6
BeatDivisor: 4
GridSize: 32
TimelineZoom: 1.700001

[Metadata]
Title:Trip -innocent of D- (TV Size)
TitleUnicode:Trip -innocent of D- (TV Size)
Artist:Larval Stage Planning
ArtistUnicode:Larval Stage Planning
Creator:Shocko
Version:Asa's Hard
Source:ハイスクールD×D
Tags:highschool high school dxd anime opening op japanese pop j-pop female vocals rias gremory リアスグレモリー 朝見凛 asami rin 桐島愛里 kirishima airi 舞崎なみ maizaki nami shizuku- kazato asa
BeatmapID:2743892
BeatmapSetID:1314744

[Difficulty]
HPDrainRate:5
CircleSize:4
OverallDifficulty:6
ApproachRate:7.5
SliderMultiplier:1.44
SliderTickRate:1

[Events]
//Background and Video events
0,0,"animeeeeee.jpg",0,0
//Break Periods
//Storyboard Layer 0 (Background)
//Storyboard Layer 1 (Fail)
//Storyboard Layer 2 (Pass)
//Storyboard Layer 3 (Foreground)
//Storyboard Layer 4 (Overlay)
//Storyboard Sound Samples

[TimingPoints]
241,365.853658536585,4,2,1,40,1,0
4631,-100,4,2,1,70,0,0
5728,-133.333333333333,4,2,1,70,0,0
6003,-133.333333333333,4,2,1,5,0,0
6094,-100,4,2,1,70,0,0
11308,-100,4,2,1,5,0,0
11399,-100,4,2,1,70,0,0
14783,-100,4,2,1,5,0,0
14875,-100,4,2,1,70,0,0
17801,-105.263157894737,4,2,2,60,0,0
23564,-105.263157894737,4,2,2,5,0,0
23655,-105.263157894737,4,2,2,60,0,0
29509,-125,4,2,2,45,0,0
31704,-125,4,2,2,45,0,0
33899,-125,4,2,1,45,0,0
35362,-105.263157894737,4,2,2,60,0,0
41216,-105.263157894737,4,2,2,45,0,0
41948,-105.263157894737,4,2,2,70,0,0
42497,-100,4,2,2,80,0,0
47801,-100,4,2,1,80,0,0
48533,-100,4,2,2,80,0,0
51003,-100,4,2,2,5,0,0
51094,-100,4,2,2,80,0,0
52283,-100,4,2,2,5,0,0
52375,-100,4,2,2,80,0,0
54478,-100,4,2,2,5,0,0
54570,-100,4,2,2,80,0,0
58869,-100,4,2,2,5,0,0
58960,-100,4,2,2,80,0,0
63076,-100,4,2,2,5,0,0
63167,-100,4,2,2,80,0,0
66734,-100,4,2,2,5,0,0
66826,-100,4,2,2,80,0,0
68198,-100,4,2,2,5,0,0
68289,-100,4,2,2,80,0,0
71948,-100,4,2,1,70,0,0
74783,-100,4,2,1,5,0,0
74875,-100,4,2,1,80,0,0
79356,-100,4,2,1,5,0,0
79448,-100,4,2,1,80,0,0
81551,-100,4,2,1,5,0,0
81643,-100,4,2,1,80,0,0
83564,-100,4,2,1,5,0,0
83655,-100,4,2,1,80,0,0
85119,-100,4,2,2,40,0,0
86582,-100,4,2,2,15,0,0
88045,-100,4,2,2,5,0,0

[Colours]
Combo1 : 255,193,193
Combo2 : 187,255,187
Combo3 : 255,202,176
Combo4 : 255,255,185

[HitObjects]
356,95,4631,6,0,L|370:24,1,72,2|2,1:2|1:2,0:0:0:0:
443,153,4997,2,0,L|457:82,1,72,2|2,1:2|1:2,0:0:0:0:
360,208,5362,5,2,0:0:0:0:
383,290,5545,1,4,0:3:0:0:
399,375,5728,2,0,P|366:354|326:355,1,81.0000030899049,10|0,0:0|0:0,0:0:0:0:
312,368,6094,6,0,P|276:361|240:356,1,72,6|0,0:0|0:0,0:0:0:0:
175,312,6460,1,10,0:0:0:0:
121,384,6643,2,0,B|80:343|80:343|102:259,1,144,2|8,0:0|0:3,0:0:0:0:
76,170,7192,5,8,0:0:0:0:
72,176,7375,2,0,P|40:191|4:190,1,72,2|2,0:0|3:0,0:0:0:0:
64,74,7740,2,0,P|99:82|133:92,1,72,2|8,0:0|0:0,0:0:0:0:
202,4,8106,2,0,P|217:74|228:145,1,144,2|8,0:0|0:3,0:0:0:0:
283,215,8655,2,0,P|293:248|285:283,1,72,8|0,0:0|0:0,0:0:0:0:
221,368,9021,6,0,P|187:359|151:352,1,72,2|0,3:0|0:0,0:0:0:0:
67,320,9387,1,10,0:0:0:0:
73,320,9570,2,0,B|131:330|143:268|207:282,1,144,2|8,0:0|0:3,0:0:0:0:
313,382,10119,5,8,0:0:0:0:
317,379,10301,2,0,P|322:343|329:308,1,72,2|2,0:0|3:0,0:0:0:0:
296,218,10667,2,0,P|331:219|364:204,1,72,2|8,0:0|0:0,0:0:0:0:
455,237,11033,2,0,P|461:183|471:130,1,108,2|0,0:0|0:0,0:0:0:0:
477,123,11399,1,8,0:0:0:0:
427,46,11582,2,0,B|394:60|394:60|350:52,1,72,8|8,0:0|0:0,0:0:0:0:
263,11,11948,6,0,P|315:57|314:127,1,144,6|10,0:0|0:0,0:0:0:0:
242,178,12497,2,0,P|253:212|259:247,1,72,2|0,0:0|3:0,0:0:0:0:
342,304,12862,5,8,0:3:0:0:
267,366,13045,1,8,0:0:0:0:
261,369,13228,2,0,B|201:375|188:317|125:331,1,144,2|2,0:0|0:0,0:0:0:0:
63,383,13777,1,8,0:0:0:0:
7,319,13960,2,0,P|12:284|21:249,1,72,2|0,0:0|3:0,0:0:0:0:
73,187,14326,1,8,0:3:0:0:
21,122,14509,2,0,P|63:90|116:95,1,108,10|0,0:0|0:0,0:0:0:0:
141,86,14875,6,0,P|150:120|157:156,1,72,2|0,3:0|0:0,0:0:0:0:
150,248,15240,1,8,0:0:0:0:
152,243,15423,2,0,P|209:201|279:205,1,144,2|8,0:0|0:3,0:0:0:0:
362,161,15972,2,0,L|375:231,1,72,10|0,0:0|0:0,0:0:0:0:
448,288,16338,1,2,1:0:0:0:
444,297,16521,1,2,1:0:0:0:
255,383,16887,6,0,P|212:328|222:259,1,144,2|2,1:0|1:2,0:0:0:0:
279,205,17436,2,0,P|272:169|265:134,1,72,2|0,1:2|0:0,0:0:0:0:
342,90,17801,6,0,P|274:78|207:65,1,136.799996347046,6|8,0:0|0:0,0:0:0:0:
131,18,18350,2,0,P|100:34|66:37,1,68.399998173523,2|0,0:0|3:0,0:0:0:0:
56,128,18716,5,8,0:3:0:0:
58,136,18899,1,10,0:0:0:0:
61,144,19082,1,2,0:0:0:0:
0,198,19265,6,0,B|32:184|74:179|74:179|97:201|129:199,1,136.799996347046,2|8,3:0|0:0,0:0:0:0:
204,245,19814,1,2,0:0:0:0:
210,242,19997,2,0,P|255:195|247:129,1,136.799996347046,2|8,3:2|0:0,0:0:0:0:
207,65,20545,5,2,0:0:0:0:
207,65,20637,1,2,0:0:0:0:
207,65,20728,2,0,L|341:91,1,136.799996347046,2|8,3:0|0:0,0:0:0:0:
419,57,21277,2,0,P|435:86|433:120,1,68.399998173523,2|0,0:0|3:0,0:0:0:0:
485,194,21643,1,8,0:3:0:0:
483,203,21826,2,0,L|471:270,1,68.399998173523,10|0,0:0|0:0,0:0:0:0:
512,352,22192,6,0,P|454:316|386:314,1,136.799996347046,2|8,3:0|0:0,0:0:0:0:
314,358,22740,1,2,0:0:0:0:
256,288,22923,2,0,L|268:220,1,68.399998173523,2|8,3:2|0:3,0:0:0:0:
351,168,23289,2,0,P|371:121|358:72,1,102.599997260285,8|2,0:0|0:0,0:0:0:0:
349,61,23655,6,0,L|214:85,1,136.799996347046,2|8,3:0|0:0,0:0:0:0:
163,17,24204,1,2,0:0:0:0:
88,64,24387,2,0,P|54:61|23:77,1,68.399998173523,2|8,3:2|0:3,0:0:0:0:
32,176,24753,2,0,L|17:242,1,68.399998173523,8|2,0:0|0:0,0:0:0:0:
17,242,25027,1,2,0:0:0:0:
17,242,25119,6,0,B|76:230|88:285|146:271,1,136.799996347046,2|8,3:2|0:0,0:0:0:0:
232,304,25667,1,2,0:0:0:0:
236,296,25850,2,0,P|230:262|225:228,1,68.399998173523,0|8,3:0|0:3,0:0:0:0:
168,160,26216,2,0,B|155:129|155:129|166:96,1,68.399998173523,8|0,0:0|0:0,0:0:0:0:
127,12,26582,6,0,P|178:54|245:50,1,136.799996347046,2|8,3:0|0:0,0:0:0:0:
325,4,27131,1,2,0:0:0:0:
325,4,27222,1,2,0:0:0:0:
325,4,27314,2,0,L|337:71,1,68.399998173523,0|8,3:0|0:3,0:0:0:0:
401,122,27680,1,10,0:0:0:0:
466,62,27862,5,2,0:0:0:0:
471,68,28045,2,0,L|446:202,1,136.799996347046,2|8,3:0|0:0,0:0:0:0:
504,284,28594,1,0,0:0:0:0:
426,350,28777,5,0,3:0:0:0:
412,354,28960,1,8,0:3:0:0:
340,317,29143,2,0,P|330:349|335:383,1,68.399998173523,4|8,0:3|0:3,0:0:0:0:
256,272,29509,6,0,P|265:215|274:158,1,115.2,6|0,0:0|0:0,0:0:0:0:
352,119,30058,2,0,P|359:92|355:64,1,57.6,2|8,3:2|0:0,0:0:0:0:
280,16,30423,5,2,0:0:0:0:
264,20,30606,1,2,0:0:0:0:
248,24,30789,1,2,3:2:0:0:
184,99,30972,6,0,P|150:55|153:0,2,115.2,2|2|10,0:0|0:0|0:0,0:0:0:0:
80,280,32070,2,0,L|90:340,1,57.6,0|0,3:0|0:0,0:0:0:0:
13,217,32436,6,0,B|100:200|80:266|177:247,1,172.8,2|0,3:0|3:0,0:0:0:0:
255,305,33167,5,10,0:0:0:0:
255,305,33350,1,2,0:0:0:0:
326,257,33533,2,0,P|340:281|342:310,1,57.6,2|2,0:0|0:0,0:0:0:0:
298,380,33899,6,0,P|354:366|410:357,1,115.2,0|2,3:0|0:0,0:0:0:0:
488,373,34448,1,0,3:2:0:0:
494,367,34631,2,0,B|503:341|503:341|496:311,1,57.6,8|0,0:0|0:0,0:0:0:0:
429,257,34997,2,0,B|420:231|420:231|427:201,1,57.6,8|8,0:3|0:0,0:0:0:0:
431,191,35271,1,8,0:0:0:0:
435,180,35362,6,0,L|299:201,1,136.799996347046,6|10,0:0|0:0,0:0:0:0:
222,242,35911,6,0,P|207:212|207:179,1,68.399998173523,2|0,0:0|0:0,0:0:0:0:
265,117,36277,1,8,0:3:0:0:
211,57,36460,2,0,L|144:71,1,68.399998173523,8|0,0:0|0:0,0:0:0:0:
80,16,36826,6,0,B|26:9|26:9|13:90,1,136.799996347046,6|8,0:0|0:0,0:0:0:0:
80,146,37375,2,0,P|95:177|94:211,1,68.399998173523,2|0,0:0|0:0,0:0:0:0:
32,328,37740,5,8,0:3:0:0:
115,313,37923,1,8,0:0:0:0:
198,298,38106,1,0,0:0:0:0:
288,327,38289,6,0,P|298:295|294:262,1,68.399998173523,6|2,0:0|0:0,0:0:0:0:
227,213,38655,1,10,0:0:0:0:
328,160,38838,2,0,L|463:177,1,136.799996347046,2|8,0:3|0:3,0:0:0:0:
504,104,39387,5,10,0:0:0:0:
500,95,39570,1,2,0:0:0:0:
423,64,39753,6,0,P|357:71|302:33,1,136.799996347046,6|8,0:0|0:0,0:0:0:0:
216,0,40301,2,0,P|211:33|206:67,1,68.399998173523,0|8,0:0|0:3,0:0:0:0:
256,152,40667,1,4,0:3:0:0:
249,148,40850,2,0,P|215:148|185:165,1,68.399998173523,8|0,0:0|0:0,0:0:0:0:
64,136,41216,5,8,3:0:0:0:
64,136,41582,1,4,3:0:0:0:
64,136,41948,2,0,P|76:203|87:270,1,136.799996347046,2|10,1:0|0:3,0:0:0:0:
31,347,42497,6,0,B|61:311|110:311|110:311|128:333|158:333,1,144,6|8,0:0|0:3,0:0:0:0:
240,368,43045,2,0,L|250:296,1,72,10|0,0:0|0:0,0:0:0:0:
192,240,43411,5,2,3:2:0:0:
176,167,43594,1,8,0:3:0:0:
160,94,43777,1,8,0:0:0:0:
112,16,43960,6,0,B|154:60|208:56|208:56|237:34,1,144,2|8,0:0|0:3,0:0:0:0:
312,72,44509,2,0,P|347:66|383:60,1,72,10|0,0:0|0:0,0:0:0:0:
449,11,44875,2,0,P|507:47|497:115,1,144,0|8,3:0|0:0,0:0:0:0:
432,176,45423,6,0,L|445:246,1,72,2|0,3:0|0:0,0:0:0:0:
363,301,45789,1,8,0:3:0:0:
370,305,45972,2,0,L|356:234,1,72,10|2,0:0|0:0,0:0:0:0:
280,193,46338,5,2,3:0:0:0:
320,104,46521,1,2,0:0:0:0:
272,24,46704,1,10,0:0:0:0:
268,32,46887,2,0,P|210:70|139:65,1,144,2|8,0:0|0:3,0:0:0:0:
50,112,47436,2,0,P|43:76|36:41,1,72,10|0,0:0|0:0,0:0:0:0:
128,152,47801,5,0,3:0:0:0:
110,229,47984,1,8,0:3:0:0:
93,307,48167,1,8,0:0:0:0:
40,384,48350,1,0,0:0:0:0:
40,384,48533,6,0,P|97:343|167:350,1,144,2|8,3:0|0:0,0:0:0:0:
256,232,49265,1,2,3:2:0:0:
224,152,49448,1,8,0:3:0:0:
267,71,49631,2,0,B|301:84|301:84|336:78,1,72,8|0,0:0|0:0,0:0:0:0:
432,72,49997,1,2,3:0:0:0:
432,72,50362,6,0,P|426:107|422:143,1,72,10|0,0:0|0:0,0:0:0:0:
479,207,50728,2,0,P|503:255|494:308,1,108,2|0,3:2|0:0,0:0:0:0:
501,319,51094,2,0,L|429:329,1,72,10|0,0:0|0:0,0:0:0:0:
336,384,51460,6,0,B|297:340|245:347|245:347|229:362|210:369,1,144,10|10,0:3|0:0,0:0:0:0:
128,304,52009,2,0,L|141:196,1,108,6|0,3:2|0:0,0:0:0:0:
145,186,52375,1,8,0:3:0:0:
82,123,52558,2,0,P|52:141|16:145,1,72,8|0,0:0|0:0,0:0:0:0:
111,20,52923,5,0,3:0:0:0:
189,73,53106,1,8,0:0:0:0:
195,71,53289,2,0,P|230:62|265:55,1,72,8|0,0:0|3:0,0:0:0:0:
336,16,53655,2,0,P|371:25|406:32,1,72,8|0,0:0|0:0,0:0:0:0:
385,112,54021,1,8,0:0:0:0:
359,192,54204,6,0,P|400:157|453:156,1,108,6|0,0:0|0:0,0:0:0:0:
463,164,54570,1,8,0:3:0:0:
424,272,54753,2,0,B|360:261|354:320|287:303,1,144,10|0,0:0|3:2,0:0:0:0:
215,359,55301,2,0,P|196:330|196:294,1,72,8|10,0:3|0:0,0:0:0:0:
272,224,55667,6,0,P|279:152|291:81,1,144,2|10,0:0|0:3,0:0:0:0:
224,24,56216,2,0,B|195:43|195:43|158:35,1,72,8|0,0:0|0:0,0:0:0:0:
48,16,56582,5,0,3:0:0:0:
66,94,56765,1,8,0:3:0:0:
85,173,56948,1,8,0:0:0:0:
27,252,57131,6,0,B|54:209|112:221|112:221|129:240|154:240,1,144,2|0,3:0|3:0,0:0:0:0:
240,263,57680,2,0,P|253:231|247:195,1,72,10|0,0:0|0:0,0:0:0:0:
192,104,58045,5,2,3:0:0:0:
272,82,58228,1,8,0:3:0:0:
352,60,58411,1,10,0:0:0:0:
439,15,58594,6,0,P|471:58|469:111,1,108,2|0,0:0|0:0,0:0:0:0:
464,128,58960,1,10,0:3:0:0:
511,207,59143,2,0,P|447:177|375:176,1,144,10|0,0:0|3:0,0:0:0:0:
296,224,59692,1,8,0:3:0:0:
280,144,59875,1,8,0:0:0:0:
256,56,60058,5,8,0:0:0:0:
256,56,60149,1,8,0:0:0:0:
256,56,60240,2,0,B|192:48|192:48|186:43|186:43|115:31,1,144,4|8,0:0|0:0,0:0:0:0:
24,16,60789,2,0,L|35:87,1,72,0|0,0:0|3:0,0:0:0:0:
8,184,61155,1,8,0:3:0:0:
96,168,61338,1,10,0:0:0:0:
162,246,61521,5,2,0:0:0:0:
162,246,61612,1,2,0:0:0:0:
162,246,61704,2,0,B|226:254|230:209|301:220,1,144,2|8,3:0|0:0,0:0:0:0:
360,160,62253,1,0,0:0:0:0:
440,192,62436,2,0,L|453:121,1,72,0|8,3:0|0:3,0:0:0:0:
479,16,62801,2,0,P|435:45|382:40,1,108,8|0,0:0|0:0,0:0:0:0:
370,32,63167,6,0,L|299:45,1,72,2|0,3:0|0:0,0:0:0:0:
222,6,63533,2,0,L|201:148,1,144,8|0,0:0|3:0,0:0:0:0:
282,253,64082,1,8,0:3:0:0:
287,250,64265,2,0,P|296:216|288:181,1,72,10|2,0:0|0:0,0:0:0:0:
168,232,64631,6,0,B|103:216|98:260|27:242,1,144,2|8,3:0|0:0,0:0:0:0:
77,125,65180,1,0,0:0:0:0:
77,125,65271,1,0,0:0:0:0:
77,125,65362,2,0,P|112:117|147:109,1,72,6|0,3:0|0:0,0:0:0:0:
200,40,65728,1,10,0:0:0:0:
280,56,65911,6,0,P|325:108|311:176,1,144,6|8,0:0|0:3,0:0:0:0:
248,232,66460,2,0,L|271:337,1,108,8|0,0:0|0:0,0:0:0:0:
276,349,66826,1,0,3:0:0:0:
362,362,67009,1,8,0:3:0:0:
448,376,67192,2,0,L|460:305,1,72,10|0,0:0|0:0,0:0:0:0:
408,240,67558,6,0,B|416:208|416:208|398:173,1,72,2|0,3:0|0:0,0:0:0:0:
464,128,67923,2,0,P|410:118|357:107,1,108,10|0,0:0|0:0,0:0:0:0:
344,101,68289,2,0,P|313:119|277:119,1,72,2|8,3:2|0:3,0:0:0:0:
144,56,68655,2,0,P|174:37|210:37,1,72,10|0,0:0|0:0,0:0:0:0:
272,112,69021,6,0,L|253:254,1,144,6|8,0:2|0:0,0:0:0:0:
312,336,69570,2,0,B|249:320|241:372|173:351,1,144,6|0,0:0|3:0,0:0:0:0:
88,296,70119,2,0,P|52:294|22:313,1,72,8|0,0:0|0:0,0:0:0:0:
22,313,70393,1,0,0:0:0:0:
22,313,70484,2,0,L|9:242,1,72,8|4,0:3|0:3,0:0:0:0:
80,192,70850,2,0,L|67:121,1,72,8|4,0:0|0:3,0:0:0:0:
16,32,71216,5,8,0:0:0:0:
100,6,71399,1,8,0:0:0:0:
184,32,71582,1,8,0:0:0:0:
224,104,71765,1,8,0:0:0:0:
208,192,71948,6,0,B|271:179|271:179|275:173|275:173|346:159,1,144,6|8,0:0|0:0,0:0:0:0:
424,128,72497,2,0,P|439:159|437:195,1,72,2|0,0:0|3:0,0:0:0:0:
376,312,72862,2,0,P|360:280|362:244,1,72,8|8,0:3|0:0,0:0:0:0:
431,383,73228,6,0,B|399:351|351:351|351:351|331:368|297:364,1,144,2|2,0:0|0:0,0:0:0:0:
216,384,73777,1,8,0:0:0:0:
212,377,73960,2,0,L|222:305,1,72,2|0,0:0|3:0,0:0:0:0:
280,240,74326,1,8,0:3:0:0:
240,168,74509,2,0,P|187:175|141:148,1,108,8|2,0:0|0:0,0:0:0:0:
136,136,74875,6,0,L|65:150,1,72,2|0,3:0|0:0,0:0:0:0:
0,48,75240,1,10,0:0:0:0:
8,56,75423,2,0,P|78:50|128:0,1,144,2|8,0:0|0:3,0:0:0:0:
200,48,75972,1,8,0:0:0:0:
280,16,76155,2,0,P|296:47|294:82,1,72,2|2,0:0|3:0,0:0:0:0:
240,200,76521,2,0,P|223:168|225:133,1,72,2|8,0:0|0:0,0:0:0:0:
360,144,76887,6,0,B|446:119|446:119|467:141|495:141,1,144,2|8,0:0|0:0,0:0:0:0:
482,218,77436,1,8,0:0:0:0:
462,292,77619,1,8,0:0:0:0:
512,352,77801,6,0,B|440:363|440:363|437:370|437:370|374:380,1,144,6|8,0:0|0:0,0:0:0:0:
295,351,78350,2,0,P|284:318|290:283,1,72,2|0,0:0|3:0,0:0:0:0:
232,224,78716,2,0,P|243:190|237:155,1,72,8|8,0:3|0:0,0:0:0:0:
296,80,79082,6,0,L|189:63,1,108,2|0,0:0|0:0,0:0:0:0:
178,54,79448,2,0,P|145:69|110:67,1,72,2|8,0:0|0:0,0:0:0:0:
16,24,79814,6,0,B|65:53|72:98|72:98|57:118|56:143,1,144,2|8,0:0|0:3,0:0:0:0:
16,216,80362,1,10,0:0:0:0:
77,283,80545,5,2,0:0:0:0:
77,283,80637,1,2,0:0:0:0:
77,283,80728,2,0,B|140:274|150:325|214:312,1,144,2|8,3:0|0:0,0:0:0:0:
288,359,81277,2,0,P|320:318|317:265,1,108,2|0,0:0|0:0,0:0:0:0:
306,257,81643,1,8,0:3:0:0:
232,216,81826,2,0,L|220:144,1,72,10|0,0:0|0:0,0:0:0:0:
264,72,82192,5,2,1:0:0:0:
263,63,82375,1,2,1:0:0:0:
408,16,82740,6,0,B|431:9|448:0|448:0|432:56|425:98,1,144,2|2,1:0|1:2,0:0:0:0:
472,176,83289,2,0,L|365:195,1,108,2|0,1:2|0:0,0:0:0:0:
353,198,83655,1,4,0:1:0:0:
256,192,83747,12,0,88045,0:0:0:0:
