osu file format v14

[General]
AudioFilename: audio.mp3
AudioLeadIn: 0
PreviewTime: 48261
Countdown: 0
SampleSet: Soft
StackLeniency: 0.7
Mode: 0
LetterboxInBreaks: 0
WidescreenStoryboard: 1

[Editor]
Bookmarks: 335,12042,23749,35456,48444,77895,89603,101310,114298,143749,149603,161310,173017,186005,221310,233017,244725,250578
DistanceSpacing: 0.7
BeatDivisor: 4
GridSize: 4
TimelineZoom: 2

[Metadata]
Title:Trip -innocent of D-
TitleUnicode:Trip -innocent of D-
Artist:Larval Stage Planning
ArtistUnicode:Larval Stage Planning
Creator:Kowari
Version:Hard
Source:ハイスクールD×D
Tags:highschool high school dxd anime opening op japanese pop j-pop jpop full ver version female vocals rias gremory リアスグレモリー 朝見凛 asami rin 桐島愛里 kirishima airi 舞崎なみ maizaki nami
BeatmapID:3666546
BeatmapSetID:1789427

[Difficulty]
HPDrainRate:5
CircleSize:4
OverallDifficulty:6
ApproachRate:7
SliderMultiplier:1.4
SliderTickRate:1

[Events]
//Background and Video events
0,0,"Trip.jpg",0,0
//Break Periods
2,78095,88703
2,143767,147239
//Storyboard Layer 0 (Background)
//Storyboard Layer 1 (Fail)
//Storyboard Layer 2 (Pass)
//Storyboard Layer 3 (Foreground)
//Storyboard Layer 4 (Overlay)
//Storyboard Sound Samples

[TimingPoints]
335,365.853658536585,4,2,1,80,1,0
5639,-100,4,2,1,70,0,0
23749,-125,4,2,1,60,0,0
41310,-111.111111111111,4,2,1,70,0,0
47895,-166.666666666666,4,2,1,80,0,0
48444,-90.9090909090909,4,2,1,80,0,1
77895,-100,4,2,1,80,0,0
89603,-125,4,2,1,60,0,0
107164,-111.111111111111,4,2,1,70,0,0
113749,-166.666666666666,4,2,1,80,0,0
114298,-90.9090909090909,4,2,1,80,0,1
143749,-100,4,2,1,70,0,0
173017,-125,4,2,1,60,0,0
178871,-111.111111111111,4,2,1,70,0,0
185456,-166.666666666666,4,2,1,80,0,0
186005,-90.9090909090909,4,2,1,80,0,1
218383,-100,4,2,1,70,0,0
250578,-100,4,2,1,5,0,0

[Colours]
Combo1 : 255,128,128
Combo2 : 192,192,192
Combo3 : 128,128,128
Combo4 : 255,0,0
Combo5 : 64,159,255
Combo6 : 168,255,255

[HitObjects]
32,42,5639,5,4,1:3:0:0:
41,131,5822,1,4,1:3:0:0:
53,219,6005,1,4,1:3:0:0:
76,368,6554,5,0,1:0:0:0:
225,353,7285,1,0,1:0:0:0:
389,338,8017,1,0,1:0:0:0:
359,162,8749,1,0,1:0:0:0:
210,177,9480,1,0,1:0:0:0:
46,192,10212,1,0,1:0:0:0:
29,88,10578,69,4,1:3:0:0:
29,88,10761,1,4,1:3:0:0:
82,11,10944,2,0,P|119:14|156:25,1,70,4|4,1:3|1:3,0:0:0:0:
244,13,11310,2,0,L|237:92,1,70,8|4,1:2|1:3,0:0:0:0:
164,139,11676,2,0,P|177:184|171:244,1,105,4|0,1:2|0:0,0:0:0:0:
148,276,12042,22,0,L|155:352,1,70,4|0,1:2|0:0,0:0:0:0:
243,373,12408,1,8,0:0:0:0:
315,318,12591,2,0,B|385:303|392:336|467:315,1,140,0|0,0:0|1:0,0:0:0:0:
508,236,13139,1,8,0:0:0:0:
438,167,13322,6,0,P|431:124|441:86,1,70,0|0,0:0|1:0,0:0:0:0:
334,54,13689,2,0,P|341:97|331:135,1,70,0|8,0:0|0:0,0:0:0:0:
260,189,14054,2,0,L|97:202,1,140,0|0,0:0|1:0,0:0:0:0:
31,249,14603,2,0,L|22:166,1,70,8|0,0:0|0:0,0:0:0:0:
6,83,14969,69,0,1:0:0:0:
97,36,15152,2,0,P|109:79|109:122,1,70,0|8,0:0|0:0,0:0:0:0:
208,137,15517,2,0,P|203:82|257:15,1,140,0|0,0:0|1:0,0:0:0:0:
344,19,16066,1,8,0:0:0:0:
405,92,16249,6,0,L|491:88,1,70,0|0,0:0|1:0,0:0:0:0:
396,177,16615,2,0,L|310:181,1,70,0|8,0:0|0:0,0:0:0:0:
236,138,16981,2,0,P|225:208|247:283,1,140,0|8,0:0|0:0,0:0:0:0:
315,351,17530,1,8,0:0:0:0:
356,253,17713,1,10,0:2:0:0:
431,317,17895,70,0,P|479:324|509:322,1,70,4|0,1:2|0:0,0:0:0:0:
497,229,18261,1,8,0:0:0:0:
403,189,18444,2,0,B|338:183|331:216|249:194,1,140,0|0,0:0|1:0,0:0:0:0:
198,135,18993,1,8,0:0:0:0:
136,207,19176,6,0,L|126:293,1,70,0|0,0:0|1:0,0:0:0:0:
219,342,19542,2,0,L|229:256,1,70,0|8,0:0|0:0,0:0:0:0:
126,371,19908,2,0,P|56:377|-5:330,1,140,0|0,0:0|1:0,0:0:0:0:
3,241,20456,1,8,0:0:0:0:
3,241,20640,1,0,0:0:0:0:
120,268,20822,70,0,L|263:291,1,140,0|8,1:0|0:0,0:0:0:0:
189,175,21371,2,0,L|46:152,1,140,0|0,0:0|1:0,0:0:0:0:
165,77,21920,2,0,P|223:83|253:94,1,70,8|0,0:0|0:0,0:0:0:0:
292,188,22286,5,8,1:2:0:0:
292,188,22469,1,8,1:2:0:0:
424,163,22834,1,8,1:2:0:0:
334,52,23200,1,8,1:2:0:0:
334,52,23383,1,8,1:2:0:0:
292,188,23749,6,0,P|284:244|286:301,1,112,4|8,1:2|0:0,0:0:0:0:
351,372,24298,2,0,L|423:381,1,56,0|0,0:0|1:0,0:0:0:0:
488,322,24664,1,0,1:0:0:0:
435,245,24847,2,0,P|427:205|430:175,1,56,8|0,0:0|0:0,0:0:0:0:
478,98,25213,6,0,P|418:112|357:81,1,112,0|8,1:0|0:0,0:0:0:0:
310,17,25761,1,0,0:0:0:0:
229,72,25944,2,0,P|223:112|230:146,1,56,0|0,1:0|1:0,0:0:0:0:
295,195,26310,2,0,L|288:260,1,56,8|0,0:0|3:0,0:0:0:0:
270,353,26676,70,0,B|216:359|211:338|152:345,1,112,0|8,1:0|0:0,0:0:0:0:
60,371,27225,1,0,0:0:0:0:
8,271,27408,2,0,P|3:225|7:196,1,56,0|0,1:0|1:0,0:0:0:0:
52,134,27774,1,8,0:0:0:0:
52,134,27956,1,0,0:0:0:0:
129,206,28139,6,0,P|198:215|245:176,1,112,0|8,1:0|0:0,0:0:0:0:
278,115,28688,1,0,1:0:0:0:
176,88,28871,2,0,L|111:75,1,56,0|0,1:0|1:0,0:0:0:0:
208,0,29237,2,0,L|273:13,1,56,8|0,0:0|0:0,0:0:0:0:
369,13,29603,70,0,B|380:104|380:104|367:141,1,112,0|8,1:0|0:0,0:0:0:0:
317,196,30152,1,0,0:0:0:0:
395,247,30334,2,0,P|434:256|470:250,1,56,0|0,1:0|1:0,0:0:0:0:
443,351,30700,1,8,0:0:0:0:
349,384,30883,1,0,3:0:0:0:
349,384,30975,1,0,3:0:0:0:
349,384,31066,6,0,P|360:336|348:270,1,112,0|8,1:0|0:0,0:0:0:0:
277,226,31615,1,0,0:0:0:0:
205,282,31798,2,0,L|213:339,2,56,0|0|8,1:0|1:0|0:0,0:0:0:0:
103,274,32347,1,0,3:0:0:0:
106,170,32530,70,0,P|51:159|0:177,2,112,0|8|0,1:0|0:0|1:0,0:0:0:0:
176,241,33444,1,0,1:0:0:0:
241,172,33627,2,0,L|250:98,1,56,8|0,0:0|0:0,0:0:0:0:
159,42,33993,6,0,L|143:166,1,112,0|8,1:0|0:0,0:0:0:0:
74,224,34542,2,0,P|84:260|84:285,1,56,0|0,0:0|1:0,0:0:0:0:
53,372,34908,1,0,1:0:0:0:
155,354,35091,2,0,P|191:349|224:347,1,56,8|8,0:0|0:0,0:0:0:0:
306,378,35456,6,0,P|317:328|282:257,1,112,4|0,1:2|0:0,0:0:0:0:
211,235,36005,1,0,1:0:0:0:
260,153,36188,2,0,L|382:163,1,112,8|0,0:0|0:0,0:0:0:0:
467,167,36737,1,0,1:0:0:0:
435,67,36920,6,0,P|430:32|430:5,1,56,0|0,0:0|1:0,0:0:0:0:
324,28,37286,2,0,P|339:77|327:155,1,112,0|8,1:0|0:0,0:0:0:0:
267,199,37834,1,0,0:0:0:0:
187,138,38017,2,0,L|121:148,1,56,0|0,1:0|0:0,0:0:0:0:
50,66,38383,70,0,L|175:47,1,112,0|0,1:0|0:0,0:0:0:0:
247,0,38932,1,0,1:0:0:0:
308,71,39115,2,0,P|313:110|310:132,1,56,8|0,0:0|0:0,0:0:0:0:
236,189,39481,1,0,1:0:0:0:
236,189,39664,1,0,0:0:0:0:
247,284,39847,6,0,L|253:362,2,56,4|0|0,1:2|1:0|0:0,0:0:0:0:
267,187,40395,1,0,1:0:0:0:
354,241,40578,2,0,P|405:245|469:209,1,112,8|0,0:0|1:0,0:0:0:0:
505,127,41127,37,8,0:0:0:0:
505,127,41219,1,8,0:0:0:0:
505,127,41310,2,0,B|449:110|448:138|377:113,1,125.999996154785,4|8,1:2|0:0,0:0:0:0:
301,22,41859,2,0,L|281:152,1,125.999996154785,0|0,1:0|1:0,0:0:0:0:
266,247,42408,1,8,0:0:0:0:
185,187,42591,1,0,0:0:0:0:
138,268,42774,6,0,P|103:273|56:264,1,62.9999980773926,4|0,1:2|0:0,0:0:0:0:
15,196,43139,1,8,0:0:0:0:
78,122,43322,2,0,P|118:106|210:149,1,125.999996154785,0|0,1:0|1:0,0:0:0:0:
293,111,43871,2,0,P|285:162|286:199,1,62.9999980773926,8|0,0:0|0:0,0:0:0:0:
215,251,44237,69,4,1:2:0:0:
296,323,44420,2,0,L|374:310,1,62.9999980773926,0|8,0:0|0:0,0:0:0:0:
444,358,44786,2,0,B|458:269|458:269|445:221,1,125.999996154785,0|0,1:0|1:0,0:0:0:0:
362,169,45334,1,8,0:0:0:0:
362,169,45517,1,0,0:0:0:0:
443,109,45700,6,0,L|514:120,1,62.9999980773926,4|0,1:2|0:0,0:0:0:0:
414,16,46066,2,0,L|343:5,1,62.9999980773926,8|0,0:2|0:0,0:0:0:0:
255,45,46432,1,0,1:0:0:0:
255,45,46615,1,0,1:0:0:0:
320,128,46798,2,0,P|328:167|290:254,1,125.999996154785,8|4,0:0|1:2,0:0:0:0:
169,269,47530,1,0,1:0:0:0:
52,284,47895,70,0,L|39:185,1,83.9999974365235,8|8,1:2|1:3,0:0:0:0:
4,81,48444,54,0,P|62:58|149:87,1,154.000004699707,4|0,1:2|1:0,0:0:0:0:
256,40,48993,2,0,P|253:93|259:130,1,77.0000023498536,8|0,0:0|0:0,0:0:0:0:
291,216,49359,1,0,1:0:0:0:
199,259,49542,1,0,1:0:0:0:
199,259,49725,1,8,0:0:0:0:
285,331,49908,6,0,P|336:335|375:349,1,77.0000023498536,0|0,1:0|0:0,0:0:0:0:
456,384,50274,1,0,1:0:0:0:
493,281,50456,2,0,L|471:122,1,154.000004699707,8|0,0:0|1:0,0:0:0:0:
403,43,51005,1,0,1:0:0:0:
363,150,51188,1,8,0:0:0:0:
280,79,51371,70,0,B|216:61|196:101|124:66,1,154.000004699707,0|0,1:0|1:0,0:0:0:0:
44,9,51920,2,0,P|32:51|31:89,1,77.0000023498536,8|0,0:0|0:0,0:0:0:0:
112,179,52286,1,0,1:0:0:0:
13,222,52469,1,0,1:0:0:0:
13,222,52652,1,8,0:0:0:0:
92,294,52834,6,0,P|98:341|95:382,1,77.0000023498536,0|0,1:0|1:0,0:0:0:0:
200,358,53200,1,0,1:0:0:0:
182,251,53383,2,0,L|166:79,1,154.000004699707,8|0,0:0|0:0,0:0:0:0:
229,15,53932,1,0,1:0:0:0:
280,119,54115,1,8,0:0:0:0:
347,39,54298,69,0,3:0:0:0:
347,39,54389,1,0,3:0:0:0:
347,39,54481,2,0,P|385:19|498:46,1,154.000004699707,0|8,1:0|0:0,0:0:0:0:
436,140,55030,2,0,L|277:122,1,154.000004699707,0|0,0:0|1:0,0:0:0:0:
193,68,55578,1,8,0:0:0:0:
193,68,55761,1,0,0:0:0:0:
104,127,55944,6,0,P|112:175|110:207,1,77.0000023498536,0|0,1:0|0:0,0:0:0:0:
41,291,56310,2,0,P|89:298|118:310,1,77.0000023498536,8|0,0:0|0:0,0:0:0:0:
189,384,56676,2,0,P|210:340|231:315,1,77.0000023498536,0|0,1:0|1:0,0:0:0:0:
339,292,57042,2,0,P|304:257|287:230,1,77.0000023498536,8|0,0:0|0:0,0:0:0:0:
327,118,57408,70,0,P|258:166|183:165,1,154.000004699707,4|8,1:2|0:0,0:0:0:0:
93,227,57956,2,0,L|82:148,1,77.0000023498536,4|0,1:2|0:0,0:0:0:0:
66,42,58322,1,0,1:0:0:0:
167,60,58505,2,0,P|211:70|248:68,1,77.0000023498536,8|0,0:0|0:0,0:0:0:0:
329,10,58871,5,0,1:0:0:0:
353,111,59054,1,0,1:0:0:0:
353,111,59237,2,0,L|363:194,1,77.0000023498536,8|0,0:0|0:0,0:0:0:0:
459,213,59603,2,0,L|449:130,1,77.0000023498536,0|0,1:0|0:0,0:0:0:0:
429,37,59969,1,8,0:0:0:0:
333,93,60152,70,0,P|311:171|337:246,1,154.000004699707,4|0,1:2|1:0,0:0:0:0:
400,314,60700,2,0,L|485:298,1,77.0000023498536,8|0,0:0|0:0,0:0:0:0:
485,198,61066,1,0,1:0:0:0:
485,198,61249,1,0,1:0:0:0:
374,175,61432,1,8,0:0:0:0:
280,240,61615,6,0,B|199:238|206:269|124:256,1,154.000004699707,0|0,1:0|1:0,0:0:0:0:
36,311,62164,2,0,P|31:262|18:220,1,77.0000023498536,8|0,0:0|0:0,0:0:0:0:
12,130,62530,1,0,1:0:0:0:
115,147,62713,2,0,L|192:160,1,77.0000023498536,0|8,1:0|0:0,0:0:0:0:
289,227,63078,70,0,P|306:159|278:71,1,154.000004699707,0|0,1:0|1:0,0:0:0:0:
200,7,63627,2,0,P|187:59|167:95,1,77.0000023498536,8|0,0:0|0:0,0:0:0:0:
87,144,63993,1,0,1:0:0:0:
78,24,64176,1,0,1:0:0:0:
78,24,64359,1,8,0:0:0:0:
200,7,64542,6,0,L|369:28,1,154.000004699707,0|0,1:0|1:0,0:0:0:0:
461,8,65091,2,0,P|451:55|451:88,1,77.0000023498536,8|0,0:0|0:0,0:0:0:0:
400,172,65456,1,0,1:0:0:0:
351,76,65639,1,0,1:0:0:0:
286,152,65822,1,8,0:0:0:0:
350,257,66005,69,8,1:2:0:0:
350,257,66097,1,8,1:2:0:0:
350,257,66188,2,0,P|407:232|515:275,1,154.000004699707,4|8,1:2|1:2,0:2:0:0:
457,352,66737,2,0,B|394:334|379:370|301:342,1,154.000004699707,0|0,1:2|1:2,0:2:0:0:
229,275,67286,1,8,0:0:0:0:
328,233,67469,1,0,0:0:0:0:
261,157,67652,6,0,L|246:-12,1,154.000004699707,0|8,1:0|0:0,0:0:0:0:
166,71,68200,1,0,0:0:0:0:
78,38,68383,2,0,P|33:30|0:28,1,77.0000023498536,0|0,1:0|1:0,0:0:0:0:
38,132,68749,2,0,B|47:176|49:218,1,77.0000023498536,8|0,0:0|0:0,0:0:0:0:
34,321,69115,70,0,P|98:328|174:258,1,154.000004699707,0|8,1:0|0:0,0:0:0:0:
203,177,69664,2,0,L|45:153,1,154.000004699707,0|0,0:0|1:0,0:0:0:0:
9,55,70213,1,8,0:0:0:0:
102,14,70395,1,0,0:0:0:0:
185,77,70578,6,0,B|262:91|262:60|353:71,1,154.000004699707,4|8,1:2|0:2,0:0:0:0:
410,139,71127,1,0,0:0:0:0:
490,78,71310,2,0,P|496:25|495:-4,1,77.0000023498536,0|0,1:0|0:0,0:0:0:0:
400,8,71676,1,8,0:0:0:0:
410,139,71859,70,0,L|427:303|427:303,1,154.000004699707,4|0,1:2|1:0,0:0:0:0:
349,364,72408,2,0,P|335:319|321:288,1,77.0000023498536,8|0,0:0|0:0,0:0:0:0:
252,219,72774,1,0,1:0:0:0:
252,219,72956,1,0,0:0:0:0:
197,309,73139,2,0,L|110:321,1,77.0000023498536,8|0,0:0|0:0,0:0:0:0:
11,347,73505,6,0,P|25:295|25:257,1,77.0000023498536,0|0,1:0|0:0,0:0:0:0:
120,231,73871,2,0,P|93:184|66:157,1,77.0000023498536,8|0,0:0|0:0,0:0:0:0:
121,76,74237,2,0,P|68:61|31:61,1,77.0000023498536,0|0,1:0|1:0,0:0:0:0:
197,0,74603,2,0,P|249:14|287:14,1,77.0000023498536,8|0,0:0|0:0,0:0:0:0:
207,117,74969,70,0,P|183:164|217:264,1,154.000004699707,4|8,1:2|0:0,0:0:0:0:
320,296,75517,2,0,L|339:131,1,154.000004699707,4|0,1:2|1:0,0:0:0:0:
417,81,76066,2,0,P|429:119|432:161,1,77.0000023498536,8|0,0:0|0:0,0:0:0:0:
489,238,76432,5,0,1:0:0:0:
390,263,76615,1,0,1:0:0:0:
453,365,76798,2,0,P|409:353|364:349,1,77.0000023498536,8|0,0:0|3:0,0:0:0:0:
292,295,77164,69,8,0:0:0:0:
233,375,77347,1,8,0:0:0:0:
173,298,77530,1,8,0:0:0:0:
117,380,77713,1,8,0:0:0:0:
18,359,77895,5,4,1:2:0:0:
9,51,89603,6,0,L|123:45,1,112,4|8,1:2|0:0,0:0:0:0:
219,20,90152,2,0,P|212:47|210:92,1,56,0|0,0:0|1:0,0:0:0:0:
229,172,90518,1,0,1:0:0:0:
129,172,90701,2,0,L|59:181,1,56,8|0,0:0|0:0,0:0:0:0:
37,271,91066,6,0,B|90:285|99:262|153:271,1,112,0|8,1:0|0:0,0:0:0:0:
206,342,91615,1,0,0:0:0:0:
285,286,91798,2,0,P|291:246|284:212,1,56,0|0,1:0|1:0,0:0:0:0:
205,186,92164,2,0,L|210:117,1,56,8|0,0:0|3:0,0:0:0:0:
296,36,92530,70,0,P|312:93|293:149,1,112,0|8,1:0|0:0,0:0:0:0:
228,209,93079,1,0,0:0:0:0:
317,270,93262,2,0,L|393:279,1,56,0|0,1:0|1:0,0:0:0:0:
448,350,93628,1,8,0:0:0:0:
448,350,93810,1,0,0:0:0:0:
512,255,93993,6,0,P|462:230|408:239,1,112,0|8,1:0|0:0,0:0:0:0:
351,311,94542,1,0,1:0:0:0:
298,224,94725,2,0,L|287:169,1,56,0|0,1:0|1:0,0:0:0:0:
369,92,95091,2,0,L|379:146,1,56,8|0,0:0|0:0,0:0:0:0:
377,249,95457,70,0,B|250:233,1,112,0|8,1:0|0:0,0:0:0:0:
197,177,96006,1,0,0:0:0:0:
146,264,96188,2,0,P|146:291|154:318,1,56,0|0,1:0|1:0,0:0:0:0:
45,285,96554,1,8,0:0:0:0:
62,197,96737,1,0,0:0:0:0:
0,114,96920,6,0,P|48:103|113:126,1,112,0|8,1:0|0:0,0:0:0:0:
167,199,97469,1,0,0:0:0:0:
248,138,97652,2,0,L|251:82,1,56,0|0,1:0|1:0,0:0:0:0:
351,88,98017,1,8,0:0:0:0:
375,203,98200,1,0,3:0:0:0:
375,203,98292,1,0,3:0:0:0:
375,203,98384,70,0,L|366:330,2,112,0|8|0,1:0|0:0|1:0,0:0:0:0:
438,140,99298,1,0,1:0:0:0:
495,216,99481,2,0,L|488:290,1,56,8|0,0:0|0:0,0:0:0:0:
507,383,99847,6,0,P|456:358|383:367,1,112,0|8,1:0|0:0,0:0:0:0:
338,288,100396,2,0,L|276:294,1,56,0|0,1:0|0:0,0:0:0:0:
210,347,100762,1,0,1:0:0:0:
135,279,100945,2,0,P|140:243|142:210,1,56,8|8,0:0|0:0,0:0:0:0:
47,164,101310,6,0,L|33:284,1,112,4|0,1:2|0:0,0:0:0:0:
85,364,101859,1,0,1:0:0:0:
155,277,102042,2,0,P|219:267|273:295,1,112,8|0,0:0|0:0,0:0:0:0:
320,359,102591,1,0,1:0:0:0:
408,297,102774,6,0,L|474:288,1,56,0|0,0:0|1:0,0:0:0:0:
508,191,103140,2,0,B|460:187|448:209|379:198,1,112,0|8,1:0|0:0,0:0:0:0:
309,135,103688,1,0,0:0:0:0:
373,75,103871,2,0,L|363:9,1,56,0|0,1:0|0:0,0:0:0:0:
257,0,104237,70,0,L|276:125,1,112,0|0,1:0|0:0,0:0:0:0:
216,172,104786,1,0,1:0:0:0:
135,110,104969,2,0,P|96:105|74:108,1,56,8|0,0:0|0:0,0:0:0:0:
7,179,105335,1,0,1:0:0:0:
7,179,105518,1,0,0:0:0:0:
88,239,105701,6,0,P|93:273|94:317,1,56,4|0,1:2|1:0,0:0:0:0:
55,383,106066,1,0,0:0:0:0:
55,383,106249,1,0,1:0:0:0:
173,365,106432,2,0,L|302:343,1,112,8|0,0:0|1:0,0:0:0:0:
389,377,106981,37,8,0:0:0:0:
389,377,107073,1,8,0:0:0:0:
389,377,107164,2,0,P|399:317|368:257,1,125.999996154785,4|8,1:2|0:0,0:0:0:0:
382,172,107713,2,0,B|318:159|312:188|253:173,1,125.999996154785,0|0,1:0|1:0,0:0:0:0:
178,119,108262,1,8,0:0:0:0:
151,210,108445,1,0,0:0:0:0:
82,137,108628,6,0,P|77:102|86:55,1,62.9999980773926,4|0,1:2|0:0,0:0:0:0:
151,13,108993,1,8,0:0:0:0:
205,86,109176,2,0,L|215:231,1,125.999996154785,0|0,1:0|1:0,0:0:0:0:
145,281,109725,2,0,P|94:273|57:274,1,62.9999980773926,8|0,0:0|0:0,0:0:0:0:
153,383,110091,69,4,1:2:0:0:
245,364,110274,2,0,L|241:276,1,62.9999980773926,0|8,0:0|0:0,0:0:0:0:
318,216,110640,2,0,P|346:273|325:352,1,125.999996154785,0|0,1:0|1:0,0:0:0:0:
245,364,111188,1,8,0:0:0:0:
245,364,111371,1,0,0:0:0:0:
189,293,111554,6,0,L|183:227,1,62.9999980773926,4|0,1:2|0:0,0:0:0:0:
106,157,111920,2,0,P|95:203|79:229,1,62.9999980773926,8|0,0:2|0:0,0:0:0:0:
12,152,112286,1,0,1:0:0:0:
12,152,112469,1,0,1:0:0:0:
68,58,112652,2,0,P|107:50|194:88,1,125.999996154785,8|4,0:0|1:2,0:0:0:0:
243,198,113384,1,0,1:0:0:0:
295,324,113749,70,0,L|394:311,1,83.9999974365235,8|8,1:2|1:3,0:0:0:0:
481,370,114298,54,0,B|494:266|494:266|472:198,1,154.000004699707,4|0,1:2|1:0,0:0:0:0:
508,106,114847,2,0,P|450:116|418:109,1,77.0000023498536,8|0,0:0|0:0,0:0:0:0:
357,36,115213,1,0,1:0:0:0:
309,137,115396,1,0,1:0:0:0:
309,137,115579,1,8,0:0:0:0:
226,78,115762,6,0,L|216:-12,1,77.0000023498536,0|0,1:0|0:0,0:0:0:0:
115,0,116128,1,0,1:0:0:0:
47,72,116310,2,0,P|41:156|69:231,1,154.000004699707,8|0,0:0|1:0,0:0:0:0:
157,262,116859,1,0,1:0:0:0:
62,328,117042,1,8,0:0:0:0:
174,381,117225,70,0,B|244:393|258:358|332:366,1,154.000004699707,0|0,1:0|1:0,0:0:0:0:
427,289,117774,2,0,P|388:286|351:275,1,77.0000023498536,8|0,0:0|0:0,0:0:0:0:
272,200,118140,1,0,1:0:0:0:
363,137,118323,1,0,1:0:0:0:
363,137,118506,1,8,0:0:0:0:
275,90,118688,6,0,L|264:-2,1,77.0000023498536,0|0,1:0|0:0,0:0:0:0:
367,0,119054,1,0,1:0:0:0:
383,110,119237,2,0,P|293:136|211:126,1,154.000004699707,8|0,0:0|1:0,0:0:0:0:
151,64,119786,1,0,1:0:0:0:
122,157,119968,2,0,P|111:203|118:251,1,77.0000023498536,8|0,0:0|0:0,0:0:0:0:
27,308,120334,70,0,L|10:142,1,154.000004699707,0|8,1:0|0:0,0:0:0:0:
95,79,120884,2,0,L|112:232,1,154.000004699707,0|0,0:0|1:0,0:0:0:0:
132,347,121432,1,8,0:0:0:0:
132,347,121615,1,0,0:0:0:0:
213,312,121798,6,0,P|251:311|289:318,1,77.0000023498536,0|0,1:0|0:0,0:0:0:0:
379,232,122164,2,0,P|340:232|302:225,1,77.0000023498536,8|0,0:0|0:0,0:0:0:0:
260,125,122530,2,0,P|298:124|336:131,1,77.0000023498536,0|0,1:0|1:0,0:0:0:0:
426,45,122896,2,0,P|387:45|349:38,1,77.0000023498536,8|0,0:0|0:0,0:0:0:0:
258,0,123262,70,0,L|242:171,1,154.000004699707,4|8,1:2|0:0,0:0:0:0:
320,269,123810,2,0,L|330:192,1,77.0000023498536,4|0,1:2|0:0,0:0:0:0:
392,118,124176,1,0,1:0:0:0:
478,160,124359,2,0,P|488:204|486:241,1,77.0000023498536,8|0,0:0|0:0,0:0:0:0:
443,326,124725,5,0,1:0:0:0:
353,270,124908,1,0,1:0:0:0:
353,270,125091,2,0,L|270:260,1,77.0000023498536,8|0,0:0|0:0,0:0:0:0:
221,359,125457,2,0,P|182:368|92:298,1,154.000004699707,0|8,1:0|0:0,0:0:0:0:
11,204,126005,70,0,B|92:189|86:217|171:197,1,154.000004699707,4|0,1:2|1:0,0:0:0:0:
270,217,126554,2,0,L|254:132,1,77.0000023498536,8|0,0:0|0:0,0:0:0:0:
232,52,126920,1,0,1:0:0:0:
232,52,127103,1,0,1:0:0:0:
160,145,127286,1,8,0:0:0:0:
91,65,127469,6,0,P|147:34|236:55,1,154.000004699707,0|0,1:0|1:0,0:0:0:0:
320,111,128018,2,0,P|369:106|411:93,1,77.0000023498536,8|0,0:0|0:0,0:0:0:0:
451,8,128384,1,0,1:0:0:0:
498,126,128567,2,0,P|506:167|510:201,1,77.0000023498536,0|8,1:0|0:0,0:0:0:0:
437,279,128932,70,0,B|362:299|356:264|280:278,1,154.000004699707,0|0,1:0|1:0,0:0:0:0:
193,347,129481,2,0,P|180:295|160:259,1,77.0000023498536,8|0,0:0|0:0,0:0:0:0:
82,216,129847,1,0,1:0:0:0:
52,328,130030,1,0,1:0:0:0:
52,328,130213,1,8,0:0:0:0:
82,216,130396,6,0,P|92:141|37:78,1,154.000004699707,0|0,1:0|1:0,0:0:0:0:
168,0,130945,2,0,P|158:47|158:80,1,77.0000023498536,8|0,0:0|0:0,0:0:0:0:
231,149,131310,1,0,1:0:0:0:
314,98,131493,1,0,1:0:0:0:
231,149,131676,1,8,0:0:0:0:
326,231,131859,69,8,1:2:0:0:
326,231,131951,1,8,1:2:0:0:
326,231,132042,2,0,L|308:396,1,154.000004699707,4|8,1:2|1:2,0:2:0:0:
218,282,132591,2,0,P|214:206|260:141,1,154.000004699707,0|0,1:2|1:2,0:2:0:0:
361,127,133140,1,8,0:0:0:0:
405,223,133323,1,0,0:0:0:0:
486,161,133506,6,0,P|496:94|427:19,1,154.000004699707,0|8,1:0|0:0,0:0:0:0:
357,4,134054,1,0,0:0:0:0:
352,103,134237,2,0,L|350:181,1,77.0000023498536,0|0,1:0|1:0,0:0:0:0:
441,262,134603,2,0,B|442:229|451:185,1,77.0000023498536,8|0,0:0|0:0,0:0:0:0:
336,297,134969,70,0,P|278:248|203:252,1,154.000004699707,0|8,1:0|0:0,0:0:0:0:
124,317,135517,2,0,P|109:270|107:234,1,77.0000023498536,0|0,0:0|1:0,0:0:0:0:
155,167,135883,1,0,1:0:0:0:
61,130,136067,1,8,0:0:0:0:
61,130,136249,1,0,0:0:0:0:
0,228,136432,6,0,B|-14:305|17:305|6:396,1,154.000004699707,4|8,1:2|0:2,0:0:0:0:
102,321,136981,1,0,0:0:0:0:
197,354,137164,2,0,P|250:360|279:359,1,77.0000023498536,0|0,1:0|0:0,0:0:0:0:
359,279,137530,1,8,0:0:0:0:
271,201,137713,70,0,P|188:186|107:184,1,154.000004699707,4|0,1:2|1:0,0:0:0:0:
25,224,138262,2,0,L|22:136,1,77.0000023498536,8|0,0:0|0:0,0:0:0:0:
15,49,138628,1,0,1:0:0:0:
15,49,138810,1,0,1:0:0:0:
115,3,138993,2,0,P|115:38|125:90,1,77.0000023498536,8|0,0:0|0:0,0:0:0:0:
219,140,139359,6,0,L|309:126,1,77.0000023498536,0|0,1:0|0:0,0:0:0:0:
191,232,139724,2,0,L|101:246,1,77.0000023498536,8|0,0:0|0:0,0:0:0:0:
281,274,140091,2,0,L|371:260,1,77.0000023498536,0|0,1:0|1:0,0:0:0:0:
253,366,140456,2,0,L|163:380,1,77.0000023498536,8|0,0:0|0:0,0:0:0:0:
281,274,140823,70,0,P|328:250|428:284,1,154.000004699707,4|8,1:2|0:0,0:0:0:0:
495,373,141371,2,0,L|514:208,1,154.000004699707,4|0,1:2|1:0,0:0:0:0:
442,100,141920,2,0,L|430:179,1,77.0000023498536,8|0,0:0|0:0,0:0:0:0:
393,282,142286,5,0,1:0:0:0:
336,197,142469,1,0,1:0:0:0:
270,267,142652,2,0,P|226:279|181:283,1,77.0000023498536,8|0,0:0|3:0,0:0:0:0:
102,218,143018,69,8,0:0:0:0:
202,189,143201,1,8,0:0:0:0:
180,87,143384,1,8,0:0:0:0:
76,113,143567,1,8,0:0:0:0:
313,325,148139,53,4,1:1:0:0:
313,325,148322,1,4,1:3:0:0:
226,257,148505,2,0,P|229:220|240:183,1,70,8|4,1:2|1:3,0:0:0:0:
152,99,148871,2,0,L|145:178,1,70,4|4,1:3|1:3,0:0:0:0:
45,203,149237,2,0,L|58:93,1,105,4|0,1:2|0:0,0:0:0:0:
70,48,149603,22,0,B|139:32|146:70|225:42,1,140,4|8,1:2|0:0,0:0:0:0:
296,3,150152,1,0,0:0:0:0:
339,90,150334,2,0,P|336:129|324:163,1,70,0|0,1:0|1:0,0:0:0:0:
240,214,150700,2,0,L|226:136,1,70,8|0,0:0|0:0,0:0:0:0:
139,212,151066,6,0,P|135:271|167:350,1,140,0|8,1:0|0:0,0:0:0:0:
263,365,151615,1,0,0:0:0:0:
334,290,151798,2,0,P|375:288|407:298,1,70,0|0,1:0|1:0,0:0:0:0:
471,207,152164,2,0,L|394:193,1,70,8|0,0:0|0:0,0:0:0:0:
305,184,152530,70,0,P|282:121|307:50,1,140,0|8,1:0|0:0,0:0:0:0:
388,0,153078,2,0,L|398:78,1,70,0|0,1:0|0:0,0:0:0:0:
471,143,153444,1,0,1:0:0:0:
381,194,153627,1,8,0:0:0:0:
381,194,153810,1,0,0:0:0:0:
465,254,153993,6,0,P|479:298|481:331,1,70,0|0,1:0|0:0,0:0:0:0:
414,380,154359,1,8,0:0:0:0:
332,327,154542,2,0,P|286:318|260:321,1,70,0|0,0:0|1:0,0:0:0:0:
176,377,154908,1,8,0:2:0:0:
140,290,155091,1,8,0:2:0:0:
221,242,155274,1,8,0:2:0:0:
130,192,155456,70,0,P|90:183|56:184,1,70,4|0,1:2|0:0,0:0:0:0:
0,111,155822,1,8,0:0:0:0:
85,55,156005,2,0,B|146:41|163:76|233:49,1,140,0|0,0:0|1:0,0:0:0:0:
330,12,156554,2,0,P|328:68|323:92,1,70,8|0,0:0|0:0,0:0:0:0:
259,145,156920,5,0,1:0:0:0:
356,198,157103,2,0,P|403:207|435:209,1,70,0|8,0:0|0:0,0:0:0:0:
358,303,157469,2,0,P|317:322|232:285,1,140,0|0,0:0|1:0,0:0:0:0:
138,305,158017,2,0,P|145:265|148:231,1,70,8|0,0:0|0:0,0:0:0:0:
228,163,158383,70,0,L|70:130,2,140,0|8|0,1:0|0:0|1:0,0:0:0:0:
305,220,159298,1,0,1:0:0:0:
366,148,159481,2,0,P|375:104|372:64,1,70,8|0,0:0|0:0,0:0:0:0:
276,0,159847,6,0,P|251:58|253:158,1,140,0|8,1:0|0:0,0:0:0:0:
305,220,160395,2,0,L|384:235,1,70,0|0,0:0|1:0,0:0:0:0:
462,253,160761,1,8,0:0:0:0:
373,315,160944,1,8,0:0:0:0:
477,356,161127,1,8,0:0:0:0:
462,253,161310,70,0,P|465:206|475:175,1,70,4|0,1:2|0:0,0:0:0:0:
505,98,161676,1,8,0:0:0:0:
435,30,161859,2,0,P|371:18|303:58,1,140,0|0,0:0|1:0,0:0:0:0:
239,128,162408,1,8,0:0:0:0:
162,50,162591,6,0,L|77:40,1,70,0|0,0:0|1:0,0:0:0:0:
46,136,162956,2,0,L|122:145,1,70,0|8,0:0|0:0,0:0:0:0:
174,239,163323,2,0,B|228:222|263:248|313:227,1,140,0|0,0:0|1:0,0:0:0:0:
416,202,163872,2,0,P|416:246|407:285,1,70,8|0,0:0|0:0,0:0:0:0:
353,353,164238,69,0,1:0:0:0:
274,306,164421,2,0,P|231:294|188:294,1,70,0|8,0:0|0:0,0:0:0:0:
152,384,164786,2,0,P|106:332|107:264,1,140,0|0,0:0|1:0,0:0:0:0:
181,188,165335,1,8,0:0:0:0:
87,151,165518,6,0,L|1:147,1,70,0|0,0:0|1:0,0:0:0:0:
61,53,165884,2,0,L|147:57,1,70,0|8,0:0|0:0,0:0:0:0:
201,0,166250,2,0,P|183:67|194:135,1,140,0|8,0:0|0:0,0:0:0:0:
271,201,166799,1,8,0:0:0:0:
182,257,166982,1,10,0:2:0:0:
263,314,167164,70,0,P|270:362|268:392,1,70,4|0,1:2|0:0,0:0:0:0:
381,372,167530,1,8,0:0:0:0:
362,266,167713,2,0,B|368:118,1,140,0|0,0:0|1:0,0:0:0:0:
428,50,168262,1,8,0:0:0:0:
342,0,168445,6,0,P|300:-1|272:8,1,70,0|0,0:0|1:0,0:0:0:0:
262,106,168811,2,0,L|257:179,1,70,0|8,0:0|0:0,0:0:0:0:
161,224,169177,2,0,P|122:167|128:98,1,140,0|0,0:0|1:0,0:0:0:0:
191,28,169725,1,8,0:0:0:0:
191,28,169909,1,0,0:0:0:0:
279,75,170091,70,0,L|256:218,1,140,0|8,1:0|0:0,0:0:0:0:
158,236,170640,2,0,L|181:93,1,140,0|0,0:0|1:0,0:0:0:0:
128,18,171189,2,0,P|93:10|59:8,1,70,8|0,0:0|0:0,0:0:0:0:
4,88,171555,5,8,1:2:0:0:
4,88,171738,1,8,1:2:0:0:
23,225,172103,1,8,1:2:0:0:
56,383,172469,1,8,1:2:0:0:
56,383,172652,1,8,1:2:0:0:
178,284,173017,38,0,P|229:263|283:274,1,112,4|0,1:2|0:0,0:0:0:0:
352,344,173566,1,0,1:0:0:0:
417,266,173749,2,0,L|427:144,1,112,8|0,0:0|0:0,0:0:0:0:
368,74,174298,1,0,1:0:0:0:
301,147,174481,6,0,P|266:152|239:152,1,56,0|0,0:0|1:0,0:0:0:0:
215,245,174847,2,0,L|85:237,1,112,0|8,1:0|0:0,0:0:0:0:
22,183,175395,1,0,0:0:0:0:
73,115,175578,2,0,P|81:83|81:59,1,56,0|0,1:0|0:0,0:0:0:0:
171,0,175944,70,0,L|190:125,1,112,4|0,1:2|0:0,0:0:0:0:
161,202,176493,1,0,1:0:0:0:
209,287,176676,2,0,P|248:292|270:289,1,56,8|0,0:0|0:0,0:0:0:0:
330,213,177042,1,0,1:0:0:0:
330,213,177225,1,0,0:0:0:0:
391,306,177408,6,0,L|397:384,2,56,4|0|0,1:2|1:0|0:0,0:0:0:0:
448,226,177956,1,0,1:0:0:0:
400,141,178139,2,0,P|396:90|432:26,1,112,8|0,0:0|1:0,0:0:0:0:
512,104,178688,37,8,0:0:0:0:
512,104,178780,1,8,0:0:0:0:
512,104,178871,2,0,B|498:232,1,125.999996154785,4|8,1:2|0:0,0:0:0:0:
484,347,179420,2,0,P|421:347|355:317,1,125.999996154785,0|0,1:0|1:0,0:0:0:0:
304,242,179969,1,8,0:0:0:0:
232,329,180152,1,0,0:0:0:0:
157,263,180335,6,0,P|152:228|161:181,1,62.9999980773926,4|0,1:2|0:0,0:0:0:0:
217,121,180700,1,8,0:0:0:0:
127,47,180883,2,0,P|67:30|10:54,1,125.999996154785,0|0,1:0|1:0,0:0:0:0:
0,171,181432,2,0,P|2:202|8:233,1,62.9999980773926,8|0,0:0|3:0,0:0:0:0:
54,334,181798,69,4,1:2:0:0:
139,257,181981,2,0,L|217:244,1,62.9999980773926,0|8,0:0|0:0,0:0:0:0:
238,354,182347,2,0,P|295:328|372:362,1,125.999996154785,0|0,1:0|1:0,0:0:0:0:
441,384,182895,1,8,0:0:0:0:
441,384,183078,1,0,0:0:0:0:
492,301,183261,6,0,L|503:230,1,62.9999980773926,4|0,1:2|0:0,0:0:0:0:
426,168,183627,2,0,L|437:97,1,62.9999980773926,8|0,0:2|0:0,0:0:0:0:
367,25,183993,1,0,1:0:0:0:
367,25,184176,1,0,1:0:0:0:
291,94,184359,1,8,0:0:0:0:
291,94,184450,1,0,1:0:0:0:
291,94,184542,2,0,L|250:95,2,31.4999990386963,0|0|0,1:0|1:0|1:0,0:0:0:0:
293,220,185091,1,0,1:0:0:0:
302,353,185456,70,0,P|256:367|209:363,1,83.9999974365235,8|8,1:2|1:3,0:0:0:0:
106,381,186005,54,0,B|94:308|128:300|112:224,1,154.000004699707,4|0,1:2|1:0,0:0:0:0:
8,153,186554,2,0,P|4:191|7:229,1,77.0000023498536,8|0,0:0|0:0,0:0:0:0:
112,228,186920,1,0,1:0:0:0:
157,118,187103,1,0,1:0:0:0:
157,118,187286,1,8,0:0:0:0:
75,26,187469,6,0,P|24:30|-15:44,1,77.0000023498536,0|0,1:0|0:0,0:0:0:0:
47,133,187835,1,0,1:0:0:0:
158,93,188017,2,0,L|317:71,1,154.000004699707,8|0,0:0|1:0,0:0:0:0:
419,113,188566,1,0,1:0:0:0:
332,177,188749,1,8,0:0:0:0:
424,236,188932,70,0,P|445:316|411:392,1,154.000004699707,0|0,1:0|1:0,0:0:0:0:
344,300,189481,2,0,P|302:288|264:287,1,77.0000023498536,8|0,0:0|0:0,0:0:0:0:
189,351,189847,1,0,1:0:0:0:
107,266,190030,1,0,1:0:0:0:
107,266,190213,1,8,0:0:0:0:
195,206,190395,6,0,P|196:167|190:129,1,77.0000023498536,0|0,1:0|0:0,0:0:0:0:
127,34,190761,1,0,1:0:0:0:
30,104,190944,2,0,P|21:169|46:276,1,154.000004699707,8|0,0:0|1:0,0:0:0:0:
114,343,191493,1,0,1:0:0:0:
184,242,191676,1,8,0:0:0:0:
271,320,191859,69,0,3:0:0:0:
271,320,191950,1,0,3:0:0:0:
271,320,192042,2,0,B|338:337|353:299|429:320,1,154.000004699707,0|8,1:0|0:0,0:0:0:0:
512,384,192591,2,0,P|517:299|489:238,1,154.000004699707,0|0,0:0|1:0,0:0:0:0:
383,196,193139,1,8,0:0:0:0:
383,196,193322,1,0,0:0:0:0:
444,116,193505,6,0,L|450:36,1,77.0000023498536,0|0,1:0|0:0,0:0:0:0:
359,11,193871,2,0,L|349:93,1,77.0000023498536,8|0,0:0|0:0,0:0:0:0:
272,149,194237,2,0,L|281:225,1,77.0000023498536,0|0,1:0|1:0,0:0:0:0:
188,247,194603,2,0,L|178:170,1,77.0000023498536,8|0,0:0|0:0,0:0:0:0:
150,58,194969,70,0,B|78:30|55:65|-10:29,1,154.000004699707,4|8,1:2|0:0,0:0:0:0:
17,132,195517,2,0,L|28:211,1,77.0000023498536,4|0,1:2|0:0,0:0:0:0:
50,303,195883,1,0,1:0:0:0:
129,226,196066,2,0,P|173:216|210:218,1,77.0000023498536,8|0,0:0|0:0,0:0:0:0:
287,285,196432,5,0,1:0:0:0:
218,368,196615,1,0,1:0:0:0:
218,368,196798,2,0,L|135:378,1,77.0000023498536,8|0,0:0|0:0,0:0:0:0:
39,384,197164,2,0,L|29:301,1,77.0000023498536,0|0,1:0|0:0,0:0:0:0:
2,204,197530,1,8,0:0:0:0:
109,244,197713,70,0,P|187:266|262:240,1,154.000004699707,4|0,1:2|1:0,0:0:0:0:
348,261,198261,2,0,L|332:176,1,77.0000023498536,8|0,0:0|0:0,0:0:0:0:
257,113,198627,1,0,1:0:0:0:
257,113,198810,1,0,1:0:0:0:
327,34,198993,1,8,0:0:0:0:
417,107,199176,6,0,B|407:174|442:188|433:258,1,154.000004699707,0|0,1:0|1:0,0:0:0:0:
477,356,199725,2,0,P|428:361|386:374,1,77.0000023498536,8|0,0:0|0:0,0:0:0:0:
320,293,200091,1,0,1:0:0:0:
286,379,200274,2,0,L|273:303,1,77.0000023498536,0|8,1:0|0:0,0:0:0:0:
168,347,200639,70,0,P|151:279|179:191,1,154.000004699707,0|0,1:0|1:0,0:0:0:0:
172,94,201188,2,0,P|224:107|260:127,1,77.0000023498536,8|0,0:0|0:0,0:0:0:0:
308,199,201554,1,0,1:0:0:0:
397,138,201737,1,0,1:0:0:0:
397,138,201920,1,8,0:0:0:0:
319,44,202103,6,0,L|166:25,1,154.000004699707,0|0,1:0|1:0,0:0:0:0:
64,0,202652,2,0,P|54:47|54:80,1,77.0000023498536,8|0,0:0|0:0,0:0:0:0:
131,153,203017,1,0,1:0:0:0:
29,203,203200,1,0,1:0:0:0:
125,267,203383,1,8,0:0:0:0:
48,340,203566,69,8,1:2:0:0:
48,340,203658,1,8,1:2:0:0:
48,340,203749,2,0,P|105:315|213:358,1,154.000004699707,4|8,1:2|1:2,0:2:0:0:
287,384,204298,2,0,B|297:228,1,154.000004699707,0|0,1:2|1:2,0:2:0:0:
356,155,204847,1,8,0:0:0:0:
251,110,205030,1,0,0:0:0:0:
333,49,205213,6,0,B|398:30|431:65|502:34,1,154.000004699707,0|8,1:0|0:0,0:0:0:0:
512,141,205761,1,0,0:0:0:0:
405,156,205944,2,0,P|397:201|395:234,1,77.0000023498536,0|0,1:0|1:0,0:0:0:0:
483,301,206310,2,0,B|492:257|494:215,1,77.0000023498536,8|0,0:0|0:0,0:0:0:0:
405,156,206676,70,0,P|341:149|265:219,1,154.000004699707,0|8,1:0|0:0,0:0:0:0:
260,293,207225,1,0,0:0:0:0:
173,340,207408,2,0,P|126:334|86:316,1,77.0000023498536,0|0,1:0|1:0,0:0:0:0:
33,250,207774,1,8,0:0:0:0:
128,211,207956,1,0,0:0:0:0:
43,140,208139,6,0,P|28:64|67:-4,1,154.000004699707,4|8,1:2|0:2,0:0:0:0:
162,12,208688,1,0,0:0:0:0:
173,110,208871,2,0,P|226:116|255:115,1,77.0000023498536,0|0,1:0|0:0,0:0:0:0:
305,23,209237,1,8,0:0:0:0:
354,98,209420,70,0,L|371:262|371:262,1,154.000004699707,4|0,1:2|1:0,0:0:0:0:
437,346,209969,2,0,P|451:301|465:270,1,77.0000023498536,8|0,0:0|0:0,0:0:0:0:
512,195,210335,1,0,1:0:0:0:
512,195,210517,1,0,0:0:0:0:
448,120,210700,2,0,P|405:109|361:108,1,77.0000023498536,8|0,0:0|0:0,0:0:0:0:
284,46,211066,6,0,L|270:136,1,77.0000023498536,0|0,1:0|0:0,0:0:0:0:
347,209,211432,2,0,P|311:246|293:287,1,77.0000023498536,8|0,0:0|0:0,0:0:0:0:
204,364,211798,2,0,L|194:280,1,77.0000023498536,0|0,1:0|1:0,0:0:0:0:
97,315,212164,2,0,P|82:277|54:244,1,77.0000023498536,8|0,0:0|0:0,0:0:0:0:
0,168,212530,70,0,P|47:192|147:158,1,154.000004699707,4|8,1:2|0:0,0:0:0:0:
237,217,213078,2,0,L|219:64,1,154.000004699707,4|0,1:2|1:0,0:0:0:0:
328,14,213627,2,0,P|316:52|313:94,1,77.0000023498536,8|0,0:0|0:0,0:0:0:0:
346,182,213993,5,0,1:0:0:0:
426,129,214176,1,0,1:0:0:0:
495,212,214359,2,0,P|507:256|511:301,1,77.0000023498536,8|0,0:0|1:0,0:0:0:0:
438,357,214725,69,8,0:0:0:0:
373,277,214908,1,8,0:0:0:0:
319,362,215091,1,8,0:0:0:0:
265,283,215274,1,8,0:0:0:0:
373,277,215456,6,0,P|382:211|348:114,1,154.000004699707,4|8,1:2|0:0,0:0:0:0:
274,71,216005,2,0,L|107:56,1,154.000004699707,0|0,0:0|1:0,0:0:0:0:
39,12,216554,1,8,0:0:0:0:
5,109,216737,1,0,0:0:0:0:
88,161,216920,70,0,P|97:207|93:254,1,77.0000023498536,0|0,1:0|0:0,0:0:0:0:
16,289,217286,2,0,P|7:243|11:196,1,77.0000023498536,8|0,0:0|0:0,0:0:0:0:
88,161,217652,1,0,1:0:0:0:
160,236,217834,1,0,1:0:0:0:
237,162,218017,2,0,L|326:153,1,77.0000023498536,8|0,0:0|0:0,0:0:0:0:
406,139,218383,1,0,1:0:0:0:
406,139,219846,6,0,P|418:187|416:219,1,70,8|0,0:0|1:0,0:0:0:0:
325,244,220213,2,0,P|313:196|315:164,1,70,8|0,0:0|1:0,0:0:0:0:
337,81,220578,1,8,0:0:0:0:
290,6,220761,1,8,0:0:0:0:
200,31,220944,1,8,0:0:0:0:
241,115,221127,1,8,0:0:0:0:
179,188,221310,70,0,P|132:185|101:175,1,70,4|0,1:2|0:0,0:0:0:0:
66,85,221676,1,8,0:0:0:0:
0,183,221859,2,0,P|-11:250|22:310,1,140,0|0,0:0|1:0,0:0:0:0:
93,372,222408,1,8,0:0:0:0:
174,313,222591,6,0,L|255:308,1,70,0|0,0:0|1:0,0:0:0:0:
242,213,222956,2,0,L|158:220,1,70,0|8,0:0|0:0,0:0:0:0:
84,170,223323,2,0,P|70:94|89:26,1,140,0|0,0:0|1:0,0:0:0:0:
181,5,223872,2,0,L|190:88,1,70,8|0,0:0|0:0,0:0:0:0:
199,177,224238,69,0,1:0:0:0:
289,121,224421,2,0,P|332:109|375:109,1,70,0|8,0:0|0:0,0:0:0:0:
332,15,224786,2,0,P|383:60|451:59,1,140,0|0,0:0|1:0,0:0:0:0:
512,144,225335,1,8,0:0:0:0:
430,195,225518,6,0,L|426:264,1,70,0|0,0:0|1:0,0:0:0:0:
506,329,225884,2,0,L|509:259,1,70,0|8,0:0|0:0,0:0:0:0:
415,362,226250,2,0,P|345:351|270:373,1,140,0|8,0:0|0:0,0:0:0:0:
192,317,226799,1,8,0:0:0:0:
281,265,226982,1,8,0:2:0:0:
196,206,227164,70,0,P|189:158|191:128,1,70,4|0,1:2|0:0,0:0:0:0:
248,52,227530,1,8,0:0:0:0:
297,144,227713,2,0,P|370:168|451:149,1,140,0|0,0:0|1:0,0:0:0:0:
480,96,228262,1,8,0:0:0:0:
409,10,228445,6,0,L|323:0,1,70,0|0,0:0|1:0,0:0:0:0:
271,68,228811,2,0,L|185:58,1,70,0|8,0:0|0:0,0:0:0:0:
123,0,229177,2,0,P|84:56|90:125,1,140,0|0,0:0|1:0,0:0:0:0:
133,194,229725,1,8,0:0:0:0:
133,194,229909,1,0,0:0:0:0:
206,229,230091,70,0,L|67:251,1,140,0|8,1:0|0:0,0:0:0:0:
10,160,230640,2,0,L|148:137,1,140,0|0,0:0|1:0,0:0:0:0:
199,50,231189,2,0,P|247:66|287:67,1,70,8|0,0:0|0:0,0:0:0:0:
290,169,231555,5,8,1:2:0:0:
290,169,231738,1,8,1:2:0:0:
218,240,231920,1,6,0:2:0:0:
298,313,232103,2,0,P|355:328|431:304,1,140,0|8,3:0|0:0,0:0:0:0:
487,222,232652,1,8,0:0:0:0:
368,167,232834,1,8,0:0:0:0:
452,95,233017,70,0,P|460:61|461:26,1,70,4|0,1:2|0:0,0:0:0:0:
356,0,233383,1,8,0:0:0:0:
311,90,233566,2,0,P|243:101|183:67,1,140,0|0,0:0|1:0,0:0:0:0:
104,0,234115,1,8,0:0:0:0:
39,80,234298,6,0,L|42:161,1,70,0|0,0:0|1:0,0:0:0:0:
126,184,234665,2,0,P|120:218|128:252,1,70,0|8,0:0|0:0,0:0:0:0:
58,306,235030,2,0,L|221:293,1,140,0|0,0:0|1:0,0:0:0:0:
259,373,235579,2,0,L|342:364,1,70,8|0,0:0|0:0,0:0:0:0:
383,289,235945,69,0,1:0:0:0:
302,225,236128,2,0,P|304:190|315:156,1,70,0|8,0:0|0:0,0:0:0:0:
413,105,236493,2,0,P|458:156|457:224,1,140,0|0,0:0|1:0,0:0:0:0:
505,312,237042,1,8,0:0:0:0:
395,374,237225,6,0,L|391:288,1,70,0|0,0:0|1:0,0:0:0:0:
299,317,237591,2,0,L|295:231,1,70,0|8,0:0|0:0,0:0:0:0:
262,143,237957,2,0,P|195:119|123:154,1,140,0|8,0:0|0:0,0:0:0:0:
81,249,238506,1,8,0:0:0:0:
1,162,238689,1,8,0:2:0:0:
71,73,238871,70,0,P|78:25|76:-5,1,70,4|0,1:2|0:0,0:0:0:0:
178,5,239237,1,8,0:0:0:0:
219,96,239420,2,0,B|376:106,1,140,0|0,0:0|1:0,0:0:0:0:
427,40,239969,1,8,0:0:0:0:
504,114,240152,6,0,P|511:152|514:200,1,70,0|0,0:0|1:0,0:0:0:0:
428,234,240518,2,0,P|421:199|419:164,1,70,0|8,0:0|0:0,0:0:0:0:
498,304,240884,2,0,P|441:265|372:271,1,140,0|0,0:0|1:0,0:0:0:0:
319,365,241432,1,8,0:0:0:0:
319,365,241616,1,0,0:0:0:0:
248,283,241798,70,0,L|271:140,1,140,0|8,1:0|0:0,0:0:0:0:
193,24,242347,2,0,L|170:167,1,140,0|0,0:0|1:0,0:0:0:0:
84,230,242896,2,0,P|78:172|67:142,1,70,8|0,0:0|0:0,0:0:0:0:
14,92,243262,5,8,1:2:0:0:
14,92,243445,1,8,1:2:0:0:
184,136,243810,1,8,1:2:0:0:
356,175,244176,1,8,1:2:0:0:
356,175,244359,1,8,1:2:0:0:
510,209,244725,1,4,1:2:0:0:
256,192,244816,12,0,250578,0:0:0:0:
