osu file format v14

[General]
AudioFilename: audio.mp3
AudioLeadIn: 0
PreviewTime: -1
Countdown: 3
SampleSet: Normal
StackLeniency: 0.8
Mode: 0
LetterboxInBreaks: 1
StoryFireInFront: 0
CountdownOffset: 3
WidescreenStoryboard: 1
SamplesMatchPlaybackRate: 1

[Editor]
DistanceSpacing: 1
BeatDivisor: 16
GridSize: 4
TimelineZoom: 1

[Metadata]
Title:Symphatie (Highschool DxD OP2)
TitleUnicode:Symphatie (Highschool DxD OP2)
Artist:Larval Stage Planning
ArtistUnicode:Larval Stage Planning
Creator:EcchixHunter21
Version:Normal
Source:
Tags:Highschool DxD Op2,Normal
BeatmapID:1276127
BeatmapSetID:604068

[Difficulty]
HPDrainRate:7
CircleSize:4
OverallDifficulty:7
ApproachRate:7
SliderMultiplier:1.4
SliderTickRate:2

[Events]
//Background and Video events
0,0,"11226-high-school-dxd-high-school-dxd.jpg",0,0
Video,0,"Untitled.mp4"
//Break Periods
//Storyboard Layer 0 (Background)
//Storyboard Layer 1 (Fail)
//Storyboard Layer 2 (Pass)
//Storyboard Layer 3 (Foreground)
//Storyboard Sound Samples

[TimingPoints]
0,500,4,1,1,100,1,0

[HitObjects]
40,296,1000,5,0,0:0:0:0:
264,336,1500,1,0,0:0:0:0:
324,160,1750,2,0,L|340:40,1,113.75
300,244,2375,1,0,0:0:0:0:
296,240,2562,2,0,B|124:240|124:240|76:276,1,227.5
144,252,3500,2,0,P|-24:268|-32:268,1,140
4,244,4500,1,0,0:0:0:0:
240,140,5218,2,0,L|272:292,1,148.75
100,320,6375,6,0,L|12:240,1,113.75
24,224,7500,1,0,0:0:0:0:
168,328,8000,1,0,0:0:0:0:
168,304,8500,1,0,0:0:0:0:
60,236,9000,1,0,0:0:0:0:
232,192,9500,6,0,P|112:304|96:264,1,280
108,308,10843,1,0,0:0:0:0:
152,296,11093,1,0,0:0:0:0:
60,352,11343,1,0,0:0:0:0:
248,352,11593,1,0,0:0:0:0:
212,180,12125,2,0,P|80:320|40:296,1,280
256,192,13500,12,0,14500,0:0:0:0:
4,112,15000,6,0,P|112:224|136:224,1,192.5
168,228,15937,2,0,B|40:320|68:304,1,131.25
56,260,17000,1,0,0:0:0:0:
112,168,17500,1,0,0:0:0:0:
160,244,18000,2,0,L|284:160,1,157.5
196,124,18812,2,0,B|56:176|68:168,1,131.25
272,212,20000,1,0,0:0:0:0:
272,144,20500,1,0,0:0:0:0:
152,96,20937,2,0,L|76:204,1,131.25
100,220,21906,2,0,L|164:120,1,113.75
200,144,22625,5,0,0:0:0:0:
288,228,22906,1,0,0:0:0:0:
192,112,23437,5,0,0:0:0:0:
140,184,23718,2,0,L|48:264,1,122.5
256,192,25000,12,0,26000,0:0:0:0:
40,120,26500,5,0,0:0:0:0:
52,120,27000,1,0,0:0:0:0:
88,224,27500,2,0,P|236:168|252:196,1,140
204,152,28500,2,0,L|152:288,1,140
76,300,29250,6,0,L|40:200,1,105
92,144,29937,1,0,0:0:0:0:
232,104,30187,2,0,L|224:272,1,166.25
284,116,31093,2,0,L|160:176,1,131.25
180,272,32000,6,0,L|12:356,1,140
40,324,32843,2,0,L|112:184,1,157.5
120,192,33656,1,0,0:0:0:0:
176,180,34218,1,0,0:0:0:0:
24,248,35000,1,0,0:0:0:0:
120,208,35187,1,0,0:0:0:0:
276,128,35718,2,0,L|156:268,1,183.75
168,256,37000,1,0,0:0:0:0:
104,104,37656,1,0,0:0:0:0:
4,220,37906,2,0,L|116:288,1,131.25
120,92,39218,6,0,L|44:232,1,157.5
264,192,40468,1,0,0:0:0:0:
284,272,41156,2,0,L|88:336,1,201.25
88,352,42125,2,0,L|176:220,1,157.5
184,220,43000,1,0,0:0:0:0:
232,336,43500,1,0,0:0:0:0:
324,296,44000,6,0,L|204:168,1,140
104,288,45000,2,0,P|48:156|36:112,1,140
120,144,46000,1,0,0:0:0:0:
52,324,46500,1,0,0:0:0:0:
184,332,47750,6,0,B|308:164|288:196,1,183.75
256,192,49000,12,0,51500,0:0:0:0:
16,88,51718,6,0,P|56:204|60:220,1,140
188,160,52593,2,0,L|280:244,1,122.5
136,80,53187,1,0,0:0:0:0:
128,96,53406,2,0,L|48:240,1,157.5
228,276,54656,2,0,L|244:120,1,157.5
252,116,55562,1,0,0:0:0:0:
284,112,56093,1,0,0:0:0:0:
200,148,56468,1,0,0:0:0:0:
144,252,56750,1,0,0:0:0:0:
100,116,57062,5,0,0:0:0:0:
16,264,57437,2,0,L|8:120,1,140
104,184,58375,2,0,L|248:180,1,140
40,344,59500,1,0,0:0:0:0:
188,332,60000,1,0,0:0:0:0:
184,200,60250,2,0,L|144:96,1,105
256,192,61000,12,0,63000,0:0:0:0:
32,96,63250,6,0,L|108:212,1,131.25
192,172,63968,2,0,L|216:236,1,61.25
104,288,64437,2,0,L|104:184,1,105
296,196,65281,1,0,0:0:0:0:
260,276,65593,2,0,L|140:216,1,131.25
168,116,66593,2,0,L|80:224,1,140
64,224,67468,1,0,0:0:0:0:
80,232,67781,2,0,L|136:328,1,105
136,328,68500,1,0,0:0:0:0:
192,296,69000,1,0,0:0:0:0:
320,356,69500,1,0,0:0:0:0:
236,200,70000,2,0,P|132:300|164:136,1,420
284,224,71781,6,0,L|124:208,1,157.5
228,332,72750,1,0,0:0:0:0:
276,256,73000,2,0,L|140:164,1,157.5
256,120,74500,5,0,0:0:0:0:
192,208,74812,1,0,0:0:0:0:
196,216,75093,2,0,L|96:112,1,140
96,200,75968,2,0,L|208:308,1,148.75
188,304,77343,1,0,0:0:0:0:
336,344,77968,1,0,0:0:0:0:
312,300,78375,2,0,L|212:168,1,166.25
260,228,79500,2,0,L|168:176,1,105
164,188,80156,5,0,0:0:0:0:
204,320,80406,1,0,0:0:0:0:
72,176,80656,1,0,0:0:0:0:
256,192,81000,12,0,83000,0:0:0:0:
