osu file format v14

[General]
AudioFilename: audio.mp3
AudioLeadIn: 0
PreviewTime: 53048
Countdown: 0
SampleSet: Normal
StackLeniency: 0.7
Mode: 1
LetterboxInBreaks: 0
WidescreenStoryboard: 0

[Editor]
Bookmarks: 741,6894,9971,14587,26894,39202,51510,53048,65356,77664,80741,93048
DistanceSpacing: 1
BeatDivisor: 1
GridSize: 8
TimelineZoom: 0.5999998

[Metadata]
Title:Honey Trap Aufheben
TitleUnicode:ハニートラップ・アウフヘーベン
Artist:Larval Stage Planning
ArtistUnicode:Larval Stage Planning
Creator:Volta
Version:Kantan
Source:恋のハニトー~えっちで甘いハニートラップ~
Tags:Koi no Honey Toast ~Ecchi de Amai Honey Trap~ visual novel eroge i've sound whitesoft albino C.G MIX awful heaven 松島詩史 matsushima shifumi 桐島愛里 kirishima airi Communication Groove mix
BeatmapID:1087757
BeatmapSetID:511678

[Difficulty]
HPDrainRate:7
CircleSize:2
OverallDifficulty:3.5
ApproachRate:10
SliderMultiplier:1.4
SliderTickRate:1

[Events]
//Background and Video events
0,0,"687474703a2f2f7075752e73682f726b4d62782f616436373132373435352e6a7067.jpg",0,0
//Break Periods
//Storyboard Layer 0 (Background)
//Storyboard Layer 1 (Fail)
//Storyboard Layer 2 (Pass)
//Storyboard Layer 3 (Foreground)
//Storyboard Sound Samples

[TimingPoints]
741,384.615384615385,4,1,0,85,1,0
14394,-100,4,1,0,85,0,0
14587,-100,4,1,0,85,0,1
26894,-100,4,1,0,85,0,0
53048,-100,4,1,0,85,0,1
77664,-100,4,1,0,85,0,0
80741,-100,4,1,0,85,0,1
93048,-100,4,1,0,85,0,0

[HitObjects]
128,184,741,5,0,0:0:0:0:
128,184,2279,1,0,0:0:0:0:
128,184,3817,1,8,0:0:0:0:
128,184,5356,1,0,0:0:0:0:
128,184,6894,1,8,0:0:0:0:
128,184,7664,1,8,0:0:0:0:
128,184,8433,1,0,0:0:0:0:
128,184,9971,1,8,0:0:0:0:
128,184,10741,1,0,0:0:0:0:
112,192,11510,1,8,0:0:0:0:
192,144,12279,1,0,0:0:0:0:
80,200,13048,1,12,0:0:0:0:
288,80,14587,5,0,0:0:0:0:
16,264,15356,1,0,0:0:0:0:
64,240,15741,1,0,0:0:0:0:
160,216,16125,1,8,0:0:0:0:
160,216,16894,1,8,0:0:0:0:
160,216,17279,1,8,0:0:0:0:
160,192,17664,1,0,0:0:0:0:
160,192,18433,1,0,0:0:0:0:
160,192,19202,1,8,0:0:0:0:
136,160,20741,1,0,0:0:0:0:
136,160,21510,1,0,0:0:0:0:
32,192,21894,1,0,0:0:0:0:
56,192,22279,1,8,0:0:0:0:
56,192,23048,1,8,0:0:0:0:
56,192,23433,1,8,0:0:0:0:
64,200,23817,1,0,0:0:0:0:
200,184,24587,1,8,0:0:0:0:
64,200,25356,1,0,0:0:0:0:
192,192,25741,1,0,0:0:0:0:
192,192,26125,1,8,0:0:0:0:
184,248,26894,1,0,0:0:0:0:
184,248,28433,1,0,0:0:0:0:
184,248,29202,1,0,0:0:0:0:
184,248,29971,1,0,0:0:0:0:
184,240,31510,1,8,0:0:0:0:
120,176,31894,1,8,0:0:0:0:
184,240,32279,1,8,0:0:0:0:
176,216,33048,1,0,0:0:0:0:
176,216,34587,1,0,0:0:0:0:
176,216,35356,1,0,0:0:0:0:
176,216,36125,1,0,0:0:0:0:
176,216,37664,1,8,0:0:0:0:
176,216,38048,1,8,0:0:0:0:
176,216,38433,1,8,0:0:0:0:
176,216,39202,1,0,0:0:0:0:
176,216,39971,1,0,0:0:0:0:
96,216,40741,1,8,0:0:0:0:
96,216,41510,1,8,0:0:0:0:
96,216,42279,1,0,0:0:0:0:
168,144,43048,1,8,0:0:0:0:
88,232,43433,1,0,0:0:0:0:
168,152,43817,1,8,0:0:0:0:
112,232,45356,1,0,0:0:0:0:
112,232,46125,1,0,0:0:0:0:
112,224,46894,1,8,0:0:0:0:
112,224,47664,1,8,0:0:0:0:
112,224,48433,1,0,0:0:0:0:
112,224,49202,1,0,0:0:0:0:
112,224,49587,1,8,0:0:0:0:
112,224,49971,1,0,0:0:0:0:
104,208,50741,1,0,0:0:0:0:
104,208,53048,5,0,0:0:0:0:
104,208,53433,1,0,0:0:0:0:
104,208,53817,1,0,0:0:0:0:
96,200,54587,1,8,0:0:0:0:
96,200,54971,1,8,0:0:0:0:
96,200,55356,1,8,0:0:0:0:
88,216,56125,1,0,0:0:0:0:
88,216,56894,1,0,0:0:0:0:
64,216,57279,1,0,0:0:0:0:
88,216,57664,1,8,0:0:0:0:
88,184,58433,1,0,0:0:0:0:
128,184,59202,1,8,0:0:0:0:
128,184,59587,1,8,0:0:0:0:
128,184,59971,1,8,0:0:0:0:
144,200,60741,1,0,0:0:0:0:
144,200,61125,1,0,0:0:0:0:
144,200,61510,1,0,0:0:0:0:
144,208,62279,1,8,0:0:0:0:
144,192,63048,1,8,0:0:0:0:
144,192,63433,1,8,0:0:0:0:
144,200,63817,1,0,0:0:0:0:
144,200,65356,1,0,0:0:0:0:
144,200,65741,5,8,0:0:0:0:
144,200,66125,1,0,0:0:0:0:
144,200,66894,1,8,0:0:0:0:
144,200,67279,1,0,0:0:0:0:
144,200,67664,1,8,0:0:0:0:
144,200,68433,1,0,0:0:0:0:
144,200,69202,1,8,0:0:0:0:
240,144,69587,1,8,0:0:0:0:
136,192,69971,1,0,0:0:0:0:
136,192,70741,1,8,0:0:0:0:
168,144,71510,1,8,0:0:0:0:
168,144,71894,1,0,0:0:0:0:
168,144,72279,1,8,0:0:0:0:
168,144,73048,1,0,0:0:0:0:
168,144,73433,1,8,0:0:0:0:
168,144,73817,1,0,0:0:0:0:
168,144,74587,1,8,0:0:0:0:
176,136,75356,1,0,0:0:0:0:
240,160,75741,1,0,0:0:0:0:
176,136,76125,1,8,0:0:0:0:
176,136,77664,1,4,0:0:0:0:
264,192,79202,1,8,0:0:0:0:
240,192,79971,1,8,0:0:0:0:
288,80,80741,5,0,0:0:0:0:
16,264,81510,1,0,0:0:0:0:
64,240,81895,1,0,0:0:0:0:
160,216,82279,1,8,0:0:0:0:
160,216,83048,1,8,0:0:0:0:
160,216,83433,1,8,0:0:0:0:
160,192,83818,1,0,0:0:0:0:
160,192,84587,1,0,0:0:0:0:
160,192,85356,1,8,0:0:0:0:
136,160,86895,1,0,0:0:0:0:
136,160,87664,1,0,0:0:0:0:
32,192,88048,1,0,0:0:0:0:
56,192,88433,1,8,0:0:0:0:
56,192,89202,1,8,0:0:0:0:
56,192,89587,1,8,0:0:0:0:
64,200,89971,1,0,0:0:0:0:
200,184,90741,1,8,0:0:0:0:
64,200,91510,1,0,0:0:0:0:
192,192,91895,1,0,0:0:0:0:
192,192,92279,1,8,0:0:0:0:
240,184,92664,1,8,0:0:0:0:
240,200,93048,1,4,0:0:0:0:
