osu file format v14

[General]
AudioFilename: audio.mp3
AudioLeadIn: 0
PreviewTime: 53048
Countdown: 0
SampleSet: Normal
StackLeniency: 0.7
Mode: 1
LetterboxInBreaks: 0
WidescreenStoryboard: 0

[Editor]
Bookmarks: 741,6894,9971,14587,26894,39202,51510,53048,65356,77664,80741,93048
DistanceSpacing: 1
BeatDivisor: 4
GridSize: 8
TimelineZoom: 1.2

[Metadata]
Title:Honey Trap Aufheben
TitleUnicode:ハニートラップ・アウフヘーベン
Artist:Larval Stage Planning
ArtistUnicode:Larval Stage Planning
Creator:Volta
Version:Inner Oni
Source:恋のハニトー~えっちで甘いハニートラップ~
Tags:Koi no Honey Toast ~Ecchi de Amai Honey Trap~ visual novel eroge i've sound whitesoft albino C.G MIX awful heaven 松島詩史 matsushima shifumi 桐島愛里 kirishima airi Communication Groove mix
BeatmapID:1087646
BeatmapSetID:511678

[Difficulty]
HPDrainRate:6
CircleSize:2
OverallDifficulty:6
ApproachRate:10
SliderMultiplier:1.4
SliderTickRate:1

[Events]
//Background and Video events
0,0,"687474703a2f2f7075752e73682f726b4d62782f616436373132373435352e6a7067.jpg",0,0
//Break Periods
//Storyboard Layer 0 (Background)
//Storyboard Layer 1 (Fail)
//Storyboard Layer 2 (Pass)
//Storyboard Layer 3 (Foreground)
//Storyboard Sound Samples

[TimingPoints]
741,384.615384615385,4,1,0,85,1,0
741,-142.857142857143,4,1,0,85,0,0
6894,-117.647058823529,4,1,0,85,0,0
13385,-117.647058823529,4,1,0,85,0,0
14394,-100,4,1,0,85,0,0
14587,-100,4,1,0,85,0,1
26894,-100,4,1,0,85,0,0
53048,-100,4,1,0,85,0,1
77664,-100,4,1,0,85,0,0
80741,-86.9565217391304,4,1,0,85,0,1
93048,-86.9565217391304,4,1,0,85,0,0

[HitObjects]
216,240,741,5,0,0:0:0:0:
216,240,1510,1,8,0:0:0:0:
216,240,2279,1,0,0:0:0:0:
216,240,3048,1,0,0:0:0:0:
216,240,3817,1,8,0:0:0:0:
216,240,4587,1,8,0:0:0:0:
216,240,5356,1,0,0:0:0:0:
216,240,6125,1,8,0:0:0:0:
280,176,6894,1,8,0:0:0:0:
280,176,7279,1,8,0:0:0:0:
280,176,7664,1,0,0:0:0:0:
120,160,7856,1,0,0:0:0:0:
280,176,8048,1,0,0:0:0:0:
184,184,8433,1,8,0:0:0:0:
184,176,8817,1,0,0:0:0:0:
176,176,9202,1,0,0:0:0:0:
120,160,9394,1,0,0:0:0:0:
176,176,9587,1,8,0:0:0:0:
256,168,9971,1,0,0:0:0:0:
256,168,10356,1,0,0:0:0:0:
280,112,10741,1,8,0:0:0:0:
184,160,10933,1,8,0:0:0:0:
280,112,11125,1,8,0:0:0:0:
56,176,11510,5,0,0:0:0:0:
208,152,11894,1,0,0:0:0:0:
112,168,12087,1,0,0:0:0:0:
104,168,12279,5,8,0:0:0:0:
104,168,12471,1,0,0:0:0:0:
96,176,12664,1,0,0:0:0:0:
80,168,12760,1,0,0:0:0:0:
96,176,12856,1,0,0:0:0:0:
80,168,12952,1,0,0:0:0:0:
272,248,13048,5,8,0:0:0:0:
248,152,13433,1,12,0:0:0:0:
352,296,14587,5,0,0:0:0:0:
256,240,14683,5,8,0:0:0:0:
256,248,14779,1,8,0:0:0:0:
256,248,14875,1,0,0:0:0:0:
256,248,14971,1,8,0:0:0:0:
256,248,15067,1,8,0:0:0:0:
200,240,15164,1,0,0:0:0:0:
240,136,15260,1,8,0:0:0:0:
200,240,15356,1,0,0:0:0:0:
152,160,15452,1,8,0:0:0:0:
152,160,15548,1,8,0:0:0:0:
152,160,15644,1,0,0:0:0:0:
128,144,15837,1,0,0:0:0:0:
144,104,15933,1,8,0:0:0:0:
184,64,16029,1,0,0:0:0:0:
328,144,16125,1,8,0:0:0:0:
272,184,16221,1,0,0:0:0:0:
112,184,16317,1,0,0:0:0:0:
208,136,16414,1,8,0:0:0:0:
264,80,16510,1,0,0:0:0:0:
264,80,16606,1,0,0:0:0:0:
320,64,16702,1,8,0:0:0:0:
144,96,16798,1,0,0:0:0:0:
144,96,16894,1,0,0:0:0:0:
16,88,16991,1,8,0:0:0:0:
16,88,17087,1,0,0:0:0:0:
16,88,17183,1,0,0:0:0:0:
192,80,17279,1,8,0:0:0:0:
192,80,17375,1,8,0:0:0:0:
192,80,17471,1,0,0:0:0:0:
192,184,17664,1,8,0:0:0:0:
216,176,17760,1,0,0:0:0:0:
224,168,17856,1,8,0:0:0:0:
224,168,17952,1,8,0:0:0:0:
224,168,18048,1,8,0:0:0:0:
224,168,18144,1,8,0:0:0:0:
288,120,18241,1,0,0:0:0:0:
288,120,18337,1,0,0:0:0:0:
360,88,18433,1,8,0:0:0:0:
128,120,18529,1,0,0:0:0:0:
128,120,18625,1,0,0:0:0:0:
128,120,18721,1,8,0:0:0:0:
128,120,18817,1,8,0:0:0:0:
200,96,18914,5,8,0:0:0:0:
384,80,19010,1,0,0:0:0:0:
408,96,19106,1,0,0:0:0:0:
336,80,19202,1,0,0:0:0:0:
192,160,19298,1,8,0:0:0:0:
96,144,19394,1,0,0:0:0:0:
224,176,19491,1,8,0:0:0:0:
216,168,19587,1,0,0:0:0:0:
96,144,19683,1,8,0:0:0:0:
216,168,19779,1,8,0:0:0:0:
224,184,19875,1,8,0:0:0:0:
80,120,19971,1,0,0:0:0:0:
80,120,20067,1,0,0:0:0:0:
96,120,20164,1,8,0:0:0:0:
96,120,20260,1,0,0:0:0:0:
104,136,20356,1,0,0:0:0:0:
216,128,20452,1,0,0:0:0:0:
200,136,20548,1,8,0:0:0:0:
352,296,20741,1,0,0:0:0:0:
256,240,20837,1,8,0:0:0:0:
256,248,20933,1,8,0:0:0:0:
256,248,21029,1,0,0:0:0:0:
256,248,21125,1,8,0:0:0:0:
256,248,21221,1,8,0:0:0:0:
200,240,21318,5,0,0:0:0:0:
240,136,21414,1,8,0:0:0:0:
200,240,21510,1,0,0:0:0:0:
152,160,21606,1,8,0:0:0:0:
152,160,21702,1,8,0:0:0:0:
152,160,21798,1,0,0:0:0:0:
128,144,21991,1,0,0:0:0:0:
144,104,22087,1,8,0:0:0:0:
184,64,22183,1,0,0:0:0:0:
328,144,22279,1,8,0:0:0:0:
272,184,22375,1,0,0:0:0:0:
112,184,22471,1,0,0:0:0:0:
208,136,22568,1,8,0:0:0:0:
264,80,22664,1,0,0:0:0:0:
264,80,22760,1,0,0:0:0:0:
320,64,22856,1,8,0:0:0:0:
144,96,22952,1,0,0:0:0:0:
144,96,23048,1,0,0:0:0:0:
16,88,23145,1,8,0:0:0:0:
16,88,23241,1,0,0:0:0:0:
16,88,23337,1,0,0:0:0:0:
192,80,23433,1,8,0:0:0:0:
192,80,23529,1,8,0:0:0:0:
192,80,23625,1,0,0:0:0:0:
144,176,23817,1,8,0:0:0:0:
224,184,23914,1,0,0:0:0:0:
240,168,24010,1,8,0:0:0:0:
248,168,24106,1,8,0:0:0:0:
200,216,24202,1,8,0:0:0:0:
424,136,24298,1,0,0:0:0:0:
184,48,24394,1,0,0:0:0:0:
272,120,24491,1,0,0:0:0:0:
160,104,24587,1,8,0:0:0:0:
80,184,24683,1,0,0:0:0:0:
72,112,24779,1,8,0:0:0:0:
72,112,24875,1,8,0:0:0:0:
72,112,24971,1,8,0:0:0:0:
72,112,25067,1,8,0:0:0:0:
72,96,25164,5,0,0:0:0:0:
72,96,25260,1,0,0:0:0:0:
296,120,25356,1,8,0:0:0:0:
184,120,25452,1,0,0:0:0:0:
176,128,25548,1,8,0:0:0:0:
184,120,25644,1,8,0:0:0:0:
184,136,25741,1,0,0:0:0:0:
256,64,25837,1,8,0:0:0:0:
280,208,25933,1,0,0:0:0:0:
128,72,26029,1,0,0:0:0:0:
360,112,26125,1,8,0:0:0:0:
112,192,26317,1,0,0:0:0:0:
112,192,26702,1,8,0:0:0:0:
176,152,26894,1,4,0:0:0:0:
120,152,27279,1,8,0:0:0:0:
248,168,27471,1,0,0:0:0:0:
248,168,27664,1,0,0:0:0:0:
160,240,27856,1,0,0:0:0:0:
360,104,28048,1,8,0:0:0:0:
160,240,28241,1,0,0:0:0:0:
144,152,28625,1,0,0:0:0:0:
176,136,28817,5,8,0:0:0:0:
144,152,29010,1,0,0:0:0:0:
144,152,29106,1,0,0:0:0:0:
144,152,29202,1,0,0:0:0:0:
144,152,29394,1,0,0:0:0:0:
296,168,29587,1,8,0:0:0:0:
136,168,29971,1,0,0:0:0:0:
216,184,30164,1,0,0:0:0:0:
216,184,30356,1,8,0:0:0:0:
216,184,30548,1,8,0:0:0:0:
216,184,30644,1,8,0:0:0:0:
216,184,30741,1,0,0:0:0:0:
216,184,30933,1,0,0:0:0:0:
216,184,31125,1,8,0:0:0:0:
216,184,31317,1,8,0:0:0:0:
216,184,31702,1,0,0:0:0:0:
280,152,31894,1,8,0:0:0:0:
96,160,32087,1,0,0:0:0:0:
280,152,32279,1,8,0:0:0:0:
395,191,32375,1,8,0:0:0:0:
280,160,32471,1,8,0:0:0:0:
220,163,32664,1,0,0:0:0:0:
220,163,32856,1,8,0:0:0:0:
119,166,33048,1,0,0:0:0:0:
120,152,33433,1,8,0:0:0:0:
248,168,33625,1,0,0:0:0:0:
248,168,33818,1,0,0:0:0:0:
160,240,34010,1,8,0:0:0:0:
160,240,34395,1,8,0:0:0:0:
8,180,34587,1,0,0:0:0:0:
15,175,34779,5,0,0:0:0:0:
235,153,34875,1,0,0:0:0:0:
157,160,34971,1,8,0:0:0:0:
158,171,35164,1,8,0:0:0:0:
257,169,35356,1,0,0:0:0:0:
96,184,35548,1,0,0:0:0:0:
15,175,35741,1,8,0:0:0:0:
276,118,36125,1,0,0:0:0:0:
270,124,36221,1,0,0:0:0:0:
270,126,36317,1,0,0:0:0:0:
211,138,36510,1,8,0:0:0:0:
210,158,36702,1,0,0:0:0:0:
210,158,36894,1,0,0:0:0:0:
210,158,37087,1,8,0:0:0:0:
211,158,37471,1,0,0:0:0:0:
319,215,37664,1,0,0:0:0:0:
319,215,37760,1,0,0:0:0:0:
317,206,37856,1,0,0:0:0:0:
305,108,38048,1,8,0:0:0:0:
232,128,38241,1,0,0:0:0:0:
232,129,38337,1,8,0:0:0:0:
155,171,38433,1,0,0:0:0:0:
271,137,38625,1,0,0:0:0:0:
271,137,38721,1,0,0:0:0:0:
223,141,38817,1,8,0:0:0:0:
223,141,38914,1,8,0:0:0:0:
223,141,39010,1,8,0:0:0:0:
223,141,39106,1,8,0:0:0:0:
252,157,39202,1,0,0:0:0:0:
147,128,39394,1,0,0:0:0:0:
144,216,39587,1,8,0:0:0:0:
124,108,39779,1,0,0:0:0:0:
16,160,39875,1,0,0:0:0:0:
16,160,39971,1,0,0:0:0:0:
128,128,40164,1,0,0:0:0:0:
232,136,40356,1,8,0:0:0:0:
160,96,40548,1,0,0:0:0:0:
160,96,40644,1,8,0:0:0:0:
160,96,40741,1,0,0:0:0:0:
160,96,40933,1,0,0:0:0:0:
88,176,41125,1,8,0:0:0:0:
88,176,41317,1,8,0:0:0:0:
216,176,41414,1,8,0:0:0:0:
216,176,41510,1,0,0:0:0:0:
144,176,41702,1,0,0:0:0:0:
144,176,41894,1,8,0:0:0:0:
176,184,42087,1,0,0:0:0:0:
176,184,42183,1,8,0:0:0:0:
176,184,42279,1,0,0:0:0:0:
176,184,42471,1,0,0:0:0:0:
216,144,42664,1,8,0:0:0:0:
216,144,42856,1,8,0:0:0:0:
88,120,42952,1,8,0:0:0:0:
88,120,43048,1,8,0:0:0:0:
152,136,43241,1,0,0:0:0:0:
192,144,43433,1,8,0:0:0:0:
200,136,43625,1,0,0:0:0:0:
200,160,43817,1,8,0:0:0:0:
232,176,43914,1,0,0:0:0:0:
120,144,44010,1,8,0:0:0:0:
120,144,44202,1,0,0:0:0:0:
120,144,44394,1,8,0:0:0:0:
200,160,44587,1,0,0:0:0:0:
224,240,44971,1,8,0:0:0:0:
224,240,45067,1,8,0:0:0:0:
224,240,45164,1,8,0:0:0:0:
232,232,45260,1,8,0:0:0:0:
184,120,45356,1,0,0:0:0:0:
136,152,45548,1,0,0:0:0:0:
136,136,45644,1,0,0:0:0:0:
256,112,45741,1,8,0:0:0:0:
184,136,45933,1,8,0:0:0:0:
184,136,46125,1,0,0:0:0:0:
184,136,46317,1,8,0:0:0:0:
272,128,46510,1,8,0:0:0:0:
176,176,46606,1,8,0:0:0:0:
240,176,46702,1,0,0:0:0:0:
120,184,46894,1,0,0:0:0:0:
168,136,47087,1,0,0:0:0:0:
168,136,47183,1,0,0:0:0:0:
176,144,47279,1,8,0:0:0:0:
176,144,47471,1,8,0:0:0:0:
216,128,47664,1,0,0:0:0:0:
216,128,47856,1,8,0:0:0:0:
216,128,47952,1,8,0:0:0:0:
264,112,48048,1,8,0:0:0:0:
176,176,48241,1,0,0:0:0:0:
304,128,48433,1,8,0:0:0:0:
120,200,48817,1,8,0:0:0:0:
120,200,49010,1,0,0:0:0:0:
184,160,49202,1,8,0:0:0:0:
184,160,49298,1,8,0:0:0:0:
184,160,49394,1,8,0:0:0:0:
64,176,49587,1,0,0:0:0:0:
184,160,49779,1,8,0:0:0:0:
118,217,49971,5,4,0:0:0:0:
152,112,50356,1,8,0:0:0:0:
118,217,50548,1,4,0:0:0:0:
118,217,50741,1,4,0:0:0:0:
219,220,51702,5,4,0:0:0:0:
219,220,51894,1,4,0:0:0:0:
219,220,52087,1,4,0:0:0:0:
219,220,52279,1,4,0:0:0:0:
219,220,52471,1,12,0:0:0:0:
219,220,52664,1,12,0:0:0:0:
225,136,52856,1,12,0:0:0:0:
213,183,53048,1,4,0:0:0:0:
160,152,53241,1,0,0:0:0:0:
360,128,53433,1,8,0:0:0:0:
104,160,53625,1,0,0:0:0:0:
104,160,53721,1,0,0:0:0:0:
216,136,53817,1,8,0:0:0:0:
216,136,53914,1,8,0:0:0:0:
104,160,54010,1,0,0:0:0:0:
104,96,54202,1,8,0:0:0:0:
112,104,54394,1,0,0:0:0:0:
280,96,54491,1,8,0:0:0:0:
112,104,54587,1,0,0:0:0:0:
176,208,54779,1,0,0:0:0:0:
231,189,54971,1,8,0:0:0:0:
231,189,55067,1,8,0:0:0:0:
200,168,55164,1,0,0:0:0:0:
200,168,55260,1,0,0:0:0:0:
202,175,55356,1,8,0:0:0:0:
199,176,55548,1,0,0:0:0:0:
90,196,55741,1,8,0:0:0:0:
282,151,55933,1,0,0:0:0:0:
282,151,56029,1,0,0:0:0:0:
282,151,56125,1,0,0:0:0:0:
212,189,56317,1,0,0:0:0:0:
207,191,56510,1,8,0:0:0:0:
212,189,56606,1,8,0:0:0:0:
212,189,56702,1,0,0:0:0:0:
212,189,56798,1,0,0:0:0:0:
256,203,56894,1,8,0:0:0:0:
256,203,57087,1,0,0:0:0:0:
256,203,57279,1,8,0:0:0:0:
145,125,57471,5,8,0:0:0:0:
145,125,57567,1,8,0:0:0:0:
279,159,57664,1,0,0:0:0:0:
125,255,57856,1,0,0:0:0:0:
260,65,58048,1,8,0:0:0:0:
125,255,58241,1,0,0:0:0:0:
44,187,58625,1,0,0:0:0:0:
131,180,58817,1,8,0:0:0:0:
257,169,59010,1,0,0:0:0:0:
230,165,59202,1,8,0:0:0:0:
230,165,59298,1,8,0:0:0:0:
230,165,59394,1,8,0:0:0:0:
228,148,59491,1,0,0:0:0:0:
230,166,59587,1,8,0:0:0:0:
78,159,59779,1,0,0:0:0:0:
176,115,59971,1,8,0:0:0:0:
177,124,60164,1,0,0:0:0:0:
124,136,60260,1,0,0:0:0:0:
177,124,60356,1,0,0:0:0:0:
69,153,60548,1,8,0:0:0:0:
241,64,60644,1,8,0:0:0:0:
69,153,60741,1,0,0:0:0:0:
245,175,60837,1,0,0:0:0:0:
245,175,60933,1,8,0:0:0:0:
245,175,61125,1,8,0:0:0:0:
226,168,61317,1,0,0:0:0:0:
68,176,61414,1,0,0:0:0:0:
123,151,61510,1,8,0:0:0:0:
123,151,61702,1,8,0:0:0:0:
59,119,61894,1,0,0:0:0:0:
131,75,62087,1,8,0:0:0:0:
131,75,62183,1,8,0:0:0:0:
131,75,62279,1,8,0:0:0:0:
136,158,62471,1,0,0:0:0:0:
134,124,62664,1,8,0:0:0:0:
136,158,62856,1,0,0:0:0:0:
224,163,62952,1,0,0:0:0:0:
157,136,63048,1,8,0:0:0:0:
157,136,63241,1,8,0:0:0:0:
239,160,63433,5,0,0:0:0:0:
228,144,63625,5,8,0:0:0:0:
286,255,63817,5,0,0:0:0:0:
275,362,63914,1,0,0:0:0:0:
256,286,64010,1,8,0:0:0:0:
256,286,64106,1,0,0:0:0:0:
256,286,64202,1,8,0:0:0:0:
256,286,64298,1,8,0:0:0:0:
256,286,64394,1,0,0:0:0:0:
256,286,64491,1,0,0:0:0:0:
256,286,64587,1,8,0:0:0:0:
256,286,64683,1,0,0:0:0:0:
208,193,64779,1,8,0:0:0:0:
272,190,64971,1,0,0:0:0:0:
134,195,65067,1,0,0:0:0:0:
134,195,65164,1,0,0:0:0:0:
134,195,65260,1,0,0:0:0:0:
445,203,65356,1,8,0:0:0:0:
297,83,65548,1,0,0:0:0:0:
216,154,65741,1,8,0:0:0:0:
221,177,65837,1,0,0:0:0:0:
221,177,65933,1,8,0:0:0:0:
159,214,66029,1,8,0:0:0:0:
352,201,66125,1,0,0:0:0:0:
144,115,66317,1,8,0:0:0:0:
132,114,66510,1,0,0:0:0:0:
161,150,66702,1,8,0:0:0:0:
161,150,66798,1,8,0:0:0:0:
161,150,66894,1,8,0:0:0:0:
283,97,67087,1,8,0:0:0:0:
276,111,67279,1,0,0:0:0:0:
279,104,67375,1,8,0:0:0:0:
276,111,67471,1,0,0:0:0:0:
276,111,67567,1,0,0:0:0:0:
279,104,67664,1,8,0:0:0:0:
137,126,67856,1,0,0:0:0:0:
192,101,68048,1,8,0:0:0:0:
212,233,68241,1,0,0:0:0:0:
212,233,68337,1,0,0:0:0:0:
212,233,68433,1,0,0:0:0:0:
142,114,68625,1,0,0:0:0:0:
297,124,68817,1,8,0:0:0:0:
297,124,68914,1,8,0:0:0:0:
297,124,69010,1,0,0:0:0:0:
263,135,69106,1,8,0:0:0:0:
297,124,69202,1,0,0:0:0:0:
132,151,69394,1,0,0:0:0:0:
159,155,69587,1,8,0:0:0:0:
142,133,69779,1,8,0:0:0:0:
142,133,69875,1,8,0:0:0:0:
294,151,69971,1,0,0:0:0:0:
294,151,70164,1,0,0:0:0:0:
290,133,70356,1,8,0:0:0:0:
215,115,70548,1,0,0:0:0:0:
203,199,70933,1,0,0:0:0:0:
352,128,71125,1,8,0:0:0:0:
203,199,71317,1,0,0:0:0:0:
104,200,71510,1,8,0:0:0:0:
104,200,71606,1,8,0:0:0:0:
136,128,71702,1,0,0:0:0:0:
136,128,71798,1,0,0:0:0:0:
224,120,71894,1,8,0:0:0:0:
56,128,72087,1,0,0:0:0:0:
160,80,72279,1,8,0:0:0:0:
112,128,72375,1,8,0:0:0:0:
112,128,72471,1,0,0:0:0:0:
136,160,72567,1,0,0:0:0:0:
80,112,72664,1,0,0:0:0:0:
176,176,72856,1,8,0:0:0:0:
168,136,73048,1,0,0:0:0:0:
168,136,73241,1,8,0:0:0:0:
56,168,73433,1,8,0:0:0:0:
216,168,73529,1,8,0:0:0:0:
248,96,73625,1,0,0:0:0:0:
248,96,73721,1,0,0:0:0:0:
216,168,73817,1,8,0:0:0:0:
224,104,74010,1,0,0:0:0:0:
168,160,74394,1,0,0:0:0:0:
232,160,74587,1,8,0:0:0:0:
136,152,74779,1,8,0:0:0:0:
224,80,74875,1,8,0:0:0:0:
40,176,74971,1,0,0:0:0:0:
56,176,75164,1,0,0:0:0:0:
160,136,75356,1,8,0:0:0:0:
160,144,75548,1,8,0:0:0:0:
144,152,75644,1,8,0:0:0:0:
160,144,75741,1,0,0:0:0:0:
160,136,75933,1,8,0:0:0:0:
156,150,76125,5,0,0:0:0:0:
156,150,76894,1,0,0:0:0:0:
156,150,77087,1,0,0:0:0:0:
156,150,77279,1,8,0:0:0:0:
390,228,77471,1,0,0:0:0:0:
390,228,77567,1,0,0:0:0:0:
305,248,77664,1,0,0:0:0:0:
308,191,77856,1,0,0:0:0:0:
112,160,78048,1,8,0:0:0:0:
176,96,78241,1,0,0:0:0:0:
112,184,78625,1,0,0:0:0:0:
208,176,78817,1,8,0:0:0:0:
112,184,79010,1,0,0:0:0:0:
112,184,79202,1,0,0:0:0:0:
232,202,79394,1,0,0:0:0:0:
180,102,79491,1,0,0:0:0:0:
306,157,79587,1,8,0:0:0:0:
232,202,79779,1,0,0:0:0:0:
92,195,79971,5,8,0:0:0:0:
258,178,80067,1,0,0:0:0:0:
244,202,80164,1,8,0:0:0:0:
258,178,80260,1,8,0:0:0:0:
258,178,80356,1,0,0:0:0:0:
352,296,80741,5,0,0:0:0:0:
256,240,80837,1,8,0:0:0:0:
256,248,80933,1,8,0:0:0:0:
256,248,81029,1,0,0:0:0:0:
256,248,81125,1,8,0:0:0:0:
256,248,81221,1,8,0:0:0:0:
200,240,81318,1,0,0:0:0:0:
240,136,81414,1,8,0:0:0:0:
200,240,81510,1,0,0:0:0:0:
152,160,81606,1,8,0:0:0:0:
152,160,81702,1,8,0:0:0:0:
152,160,81798,1,0,0:0:0:0:
128,144,81991,1,0,0:0:0:0:
144,104,82087,1,8,0:0:0:0:
184,64,82183,1,0,0:0:0:0:
328,144,82279,1,8,0:0:0:0:
272,184,82375,1,0,0:0:0:0:
112,184,82471,1,0,0:0:0:0:
208,136,82568,1,8,0:0:0:0:
264,80,82664,1,0,0:0:0:0:
264,80,82760,1,0,0:0:0:0:
320,64,82856,1,8,0:0:0:0:
144,96,82952,1,0,0:0:0:0:
144,96,83048,1,0,0:0:0:0:
16,88,83145,1,8,0:0:0:0:
16,88,83241,1,0,0:0:0:0:
16,88,83337,1,0,0:0:0:0:
192,80,83433,1,8,0:0:0:0:
192,80,83529,1,8,0:0:0:0:
192,80,83625,1,0,0:0:0:0:
192,184,83818,1,8,0:0:0:0:
216,176,83914,1,0,0:0:0:0:
224,168,84010,1,8,0:0:0:0:
224,168,84106,1,8,0:0:0:0:
224,168,84202,1,8,0:0:0:0:
224,168,84298,1,8,0:0:0:0:
288,120,84395,1,0,0:0:0:0:
288,120,84491,1,0,0:0:0:0:
360,88,84587,1,8,0:0:0:0:
128,120,84683,1,0,0:0:0:0:
128,120,84779,1,0,0:0:0:0:
128,120,84875,1,8,0:0:0:0:
128,120,84971,1,8,0:0:0:0:
200,96,85068,1,8,0:0:0:0:
384,80,85164,1,0,0:0:0:0:
408,96,85260,1,0,0:0:0:0:
336,80,85356,1,0,0:0:0:0:
192,160,85452,1,8,0:0:0:0:
96,144,85548,1,0,0:0:0:0:
224,176,85645,1,8,0:0:0:0:
216,168,85741,1,0,0:0:0:0:
96,144,85837,1,8,0:0:0:0:
216,168,85933,1,8,0:0:0:0:
224,184,86029,1,8,0:0:0:0:
80,120,86125,1,0,0:0:0:0:
80,120,86221,1,0,0:0:0:0:
96,120,86318,1,8,0:0:0:0:
96,120,86414,1,0,0:0:0:0:
104,136,86510,1,0,0:0:0:0:
216,128,86606,1,0,0:0:0:0:
200,136,86702,1,8,0:0:0:0:
352,296,86895,1,0,0:0:0:0:
256,240,86991,1,8,0:0:0:0:
256,248,87087,1,8,0:0:0:0:
256,248,87183,1,0,0:0:0:0:
256,248,87279,1,8,0:0:0:0:
256,248,87375,1,8,0:0:0:0:
200,240,87472,1,0,0:0:0:0:
240,136,87568,1,8,0:0:0:0:
200,240,87664,1,0,0:0:0:0:
152,160,87760,1,8,0:0:0:0:
152,160,87856,1,8,0:0:0:0:
152,160,87952,1,0,0:0:0:0:
128,144,88145,1,0,0:0:0:0:
144,104,88241,1,8,0:0:0:0:
184,64,88337,1,0,0:0:0:0:
328,144,88433,1,8,0:0:0:0:
272,184,88529,1,0,0:0:0:0:
112,184,88625,1,0,0:0:0:0:
208,136,88722,1,8,0:0:0:0:
264,80,88818,1,0,0:0:0:0:
264,80,88914,1,0,0:0:0:0:
320,64,89010,1,8,0:0:0:0:
144,96,89106,1,0,0:0:0:0:
144,96,89202,1,0,0:0:0:0:
16,88,89299,1,8,0:0:0:0:
16,88,89395,1,0,0:0:0:0:
16,88,89491,1,0,0:0:0:0:
192,80,89587,1,8,0:0:0:0:
192,80,89683,1,8,0:0:0:0:
192,80,89779,1,0,0:0:0:0:
144,176,89971,1,8,0:0:0:0:
224,184,90068,1,0,0:0:0:0:
240,168,90164,1,8,0:0:0:0:
248,168,90260,1,8,0:0:0:0:
200,216,90356,1,8,0:0:0:0:
424,136,90452,1,0,0:0:0:0:
184,48,90548,1,0,0:0:0:0:
272,120,90645,1,0,0:0:0:0:
160,104,90741,1,8,0:0:0:0:
80,184,90837,1,0,0:0:0:0:
72,112,90933,1,8,0:0:0:0:
72,112,91029,1,8,0:0:0:0:
72,112,91125,1,8,0:0:0:0:
72,112,91221,1,8,0:0:0:0:
72,96,91318,1,0,0:0:0:0:
72,96,91414,1,0,0:0:0:0:
296,120,91510,1,8,0:0:0:0:
184,120,91606,1,0,0:0:0:0:
176,128,91702,1,8,0:0:0:0:
184,120,91798,1,8,0:0:0:0:
184,136,91895,1,0,0:0:0:0:
256,64,91991,1,8,0:0:0:0:
280,208,92087,1,0,0:0:0:0:
128,72,92183,1,0,0:0:0:0:
360,112,92279,1,8,0:0:0:0:
184,120,92375,1,0,0:0:0:0:
176,128,92471,1,8,0:0:0:0:
184,120,92567,1,8,0:0:0:0:
184,136,92664,1,0,0:0:0:0:
256,64,92760,1,8,0:0:0:0:
280,208,92856,1,0,0:0:0:0:
128,72,92952,1,0,0:0:0:0:
360,112,93048,1,8,0:0:0:0:
