osu file format v14

[General]
AudioFilename: audio.mp3
AudioLeadIn: 0
PreviewTime: 79861
Countdown: 0
SampleSet: Soft
StackLeniency: 0.7
Mode: 0
LetterboxInBreaks: 0
WidescreenStoryboard: 0

[Editor]
Bookmarks: 30495,44824,112883
DistanceSpacing: 1.08
BeatDivisor: 4
GridSize: 4
TimelineZoom: 1

[Metadata]
Title:Hanabira to Ribbon
TitleUnicode:花びらとりぼん
Artist:Larval Stage Planning
ArtistUnicode:Larval Stage Planning
Creator:Asuka_-
Version:Insane
Source:魔女こいにっき
Tags:Majo koi nikki eroge opening
BeatmapID:1451973
BeatmapSetID:685968

[Difficulty]
HPDrainRate:6.5
CircleSize:3.9
OverallDifficulty:7.2
ApproachRate:8
SliderMultiplier:1.7
SliderTickRate:1

[Events]
//Background and Video events
0,0,"Bg.jpg",0,0
//Break Periods
//Storyboard Layer 0 (Background)
//Storyboard Layer 1 (Fail)
//Storyboard Layer 2 (Pass)
//Storyboard Layer 3 (Foreground)
//Storyboard Sound Samples

[TimingPoints]
1839,447.761194029851,4,2,1,40,1,0
30495,-117.647058823529,4,2,1,50,0,0
59152,-100,4,2,1,55,0,0
80644,-90.9090909090909,4,2,1,70,0,1
112883,-90.9090909090909,4,2,1,30,0,0

[Colours]
Combo1 : 128,255,255
Combo2 : 255,128,192

[HitObjects]
10,189,30495,6,0,P|14:152|22:111,1,72.2500013780594,2|0,0:0|0:0,0:0:0:0:
80,259,30943,2,0,P|84:303|85:356,1,72.2500013780594,8|0,0:0|0:0,0:0:0:0:
155,192,31391,1,2,0:0:0:0:
155,192,31615,1,0,0:0:0:0:
231,285,31839,2,0,P|263:284|306:276,1,72.2500013780594,8|0,0:0|0:0,0:0:0:0:
443,188,32286,6,0,P|452:155|459:112,1,72.2500013780594,2|0,0:0|0:0,0:0:0:0:
393,31,32734,1,8,0:0:0:0:
315,114,32958,1,0,0:0:0:0:
216,40,33182,2,0,P|175:39|125:34,1,72.2500013780594,2|0,0:0|0:0,0:0:0:0:
47,18,33630,1,8,0:0:0:0:
47,18,33853,1,0,0:0:0:0:
52,209,34077,6,0,P|122:198|210:193,1,144.500002756119,2|8,0:0|0:0,0:0:0:0:
294,229,34749,1,0,0:0:0:0:
392,205,34973,2,0,P|391:241|382:276,1,72.2500013780594,2|0,0:0|0:0,0:0:0:0:
355,83,35421,1,8,0:0:0:0:
448,129,35644,1,0,0:0:0:0:
269,126,35868,6,0,P|259:84|265:43,1,72.2500013780594,2|0,0:0|0:0,0:0:0:0:
392,205,36316,1,8,0:0:0:0:
298,329,36540,2,0,P|241:338|171:287,1,144.500002756119
172,290,37100,1,8,0:0:0:0:
172,290,37212,1,8,0:0:0:0:
145,204,37436,1,0,0:0:0:0:
62,254,37659,6,0,P|51:221|52:165,1,72.2500013780594,2|0,0:0|0:0,0:0:0:0:
228,151,38107,2,0,P|240:187|242:231,1,72.2500013780594,8|0,0:0|0:0,0:0:0:0:
136,85,38555,1,2,0:0:0:0:
219,30,38779,1,0,0:0:0:0:
319,114,39003,2,0,P|358:108|400:94,1,72.2500013780594,8|0,0:0|0:0,0:0:0:0:
494,40,39450,6,0,P|485:77|481:134,1,72.2500013780594,2|0,0:0|0:0,0:0:0:0:
501,236,39898,1,8,0:0:0:0:
474,262,40346,2,0,P|440:269|401:273,1,72.2500013780594,2|0,0:0|0:0,0:0:0:0:
402,272,40682,1,8,0:0:0:0:
402,272,40794,1,8,0:0:0:0:
325,215,41018,1,2,0:0:0:0:
246,301,41241,6,0,P|205:232|230:158,1,144.500002756119,2|8,0:0|0:0,0:0:0:0:
250,53,41913,1,2,0:0:0:0:
123,124,42137,2,0,P|106:162|103:220,1,72.2500013780594,2|0,0:0|0:0,0:0:0:0:
101,192,42473,1,2,0:0:0:0:
101,192,42585,1,8,0:0:0:0:
157,301,42809,5,2,0:0:0:0:
348,229,43033,1,2,0:0:0:0:
238,161,43256,1,0,0:0:0:0:
321,331,43480,1,8,0:0:0:0:
421,143,43704,1,2,0:0:0:0:
241,265,43928,2,0,P|201:266|146:253,1,72.2500013780594,2|0,0:0|0:0,0:0:0:0:
169,260,44264,1,8,0:0:0:0:
169,260,44376,1,8,0:0:0:0:
108,334,44600,1,2,0:0:0:0:
129,119,44824,6,0,P|163:111|213:112,1,72.2500013780594,6|0,0:0|0:0,0:0:0:0:
298,164,45271,2,0,P|305:122|315:76,1,72.2500013780594,8|0,0:0|0:0,0:0:0:0:
361,238,45719,1,2,0:0:0:0:
361,238,45944,1,0,0:0:0:0:
449,283,46167,2,0,P|460:241|452:207,1,72.2500013780594,8|0,0:0|0:0,0:0:0:0:
382,135,46615,6,0,P|356:131|311:144,1,72.2500013780594,2|0,0:0|0:0,0:0:0:0:
256,252,47063,1,8,0:0:0:0:
198,149,47287,1,0,0:0:0:0:
124,291,47510,2,0,P|92:291|33:285,1,72.2500013780594,2|0,0:0|0:0,0:0:0:0:
2,193,47958,1,8,0:0:0:0:
2,193,48182,1,0,0:0:0:0:
65,43,48406,6,0,P|135:32|223:27,1,144.500002756119,2|8,0:0|0:0,0:0:0:0:
294,73,49078,1,0,0:0:0:0:
390,46,49301,2,0,P|389:91|375:132,1,72.2500013780594,2|0,0:0|0:0,0:0:0:0:
348,224,49749,1,8,0:0:0:0:
455,197,49973,1,0,0:0:0:0:
395,307,50197,6,0,P|351:320|309:317,1,72.2500013780594,2|0,0:0|0:0,0:0:0:0:
241,262,50644,1,8,0:0:0:0:
116,360,50868,2,0,P|68:287|101:223,1,144.500002756119,2|0,0:0|0:0,0:0:0:0:
84,238,51429,1,8,0:0:0:0:
84,238,51540,1,8,0:0:0:0:
128,158,51764,1,2,0:0:0:0:
241,262,51988,6,0,P|278:260|330:252,1,72.2500013780594,2|0,0:0|0:0,0:0:0:0:
449,280,52435,2,0,P|437:244|435:200,1,72.2500013780594,8|0,0:0|0:0,0:0:0:0:
465,69,52883,1,2,0:0:0:0:
359,138,53108,1,0,0:0:0:0:
273,41,53331,2,0,P|242:32|200:30,1,72.2500013780594,8|0,0:0|0:0,0:0:0:0:
82,117,53779,6,0,P|73:154|69:211,1,72.2500013780594,2|0,0:0|0:0,0:0:0:0:
157,317,54227,1,8,0:0:0:0:
244,247,54450,1,0,0:0:0:0:
76,366,54674,2,0,P|67:329|65:293,1,72.2500013780594,2|2,0:0|0:0,0:0:0:0:
64,294,55010,1,2,0:0:0:0:
64,294,55123,1,2,0:0:0:0:
73,188,55346,1,2,0:0:0:0:
159,57,55570,6,0,P|237:44|286:120,1,144.500002756119,2|8,0:0|0:0,0:0:0:0:
317,204,56241,1,0,0:0:0:0:
427,86,56465,2,0,P|419:119|418:162,1,72.2500013780594,2|0,0:0|0:0,0:0:0:0:
411,267,56913,1,8,0:0:0:0:
317,204,57137,1,0,0:0:0:0:
231,329,57361,5,8,0:0:0:0:
231,329,57473,1,8,0:0:0:0:
231,329,57585,1,8,0:0:0:0:
114,241,57809,1,8,0:0:0:0:
163,131,58033,1,2,0:0:0:0:
183,117,58144,1,2,0:0:0:0:
211,107,58256,5,8,0:0:0:0:
242,107,58368,1,8,0:0:0:0:
274,120,58480,1,8,0:0:0:0:
301,134,58592,1,8,0:0:0:0:
333,145,58704,1,8,0:0:0:0:
364,145,58816,1,8,0:0:0:0:
393,136,58928,1,8,0:0:0:0:
421,120,59040,1,8,0:0:0:0:
442,98,59152,6,0,P|434:195|426:272,1,170,6|8,0:0|0:0,0:0:0:0:
385,367,59824,1,0,0:0:0:0:
288,249,60047,2,0,P|283:291|276:333,1,85,2|0,0:0|0:0,0:0:0:0:
282,136,60495,1,8,0:0:0:0:
195,191,60719,1,0,0:0:0:0:
253,41,60943,6,0,P|288:36|354:58,1,85,2|0,0:0|0:0,0:0:0:0:
464,139,61391,2,0,L|448:257,1,85,8|0,0:0|0:0,0:0:0:0:
398,337,61839,1,2,0:0:0:0:
261,254,62062,1,2,0:0:0:0:
261,254,62174,1,2,0:0:0:0:
261,254,62286,1,8,0:0:0:0:
361,191,62510,1,2,0:0:0:0:
221,339,62734,6,0,P|170:264|215:169,1,170,2|8,0:0|0:0,0:0:0:0:
251,120,63406,1,0,0:0:0:0:
393,210,63630,2,0,P|348:266|249:250,1,170,2|8,0:0|0:0,0:0:0:0:
189,196,64301,1,0,0:0:0:0:
359,23,64525,6,0,P|365:66|367:123,1,85,2|0,0:0|0:0,0:0:0:0:
312,196,64973,1,8,0:0:0:0:
212,66,65197,2,0,P|143:46|70:140,1,170,2|2,0:0|0:0,0:0:0:0:
85,224,65868,1,8,0:0:0:0:
154,128,66092,1,0,0:0:0:0:
202,321,66316,6,0,L|384:301,1,170,2|8,0:0|0:0,0:0:0:0:
486,287,66988,1,0,0:0:0:0:
343,226,67212,2,0,L|162:244,1,170,2|8,0:0|0:0,0:0:0:0:
53,303,67883,1,0,0:0:0:0:
101,166,68107,6,0,P|111:121|118:65,1,85,2|0,0:0|0:0,0:0:0:0:
228,40,68555,2,0,P|233:86|244:149,1,85,8|0,0:0|0:0,0:0:0:0:
338,244,69003,2,0,P|346:198|354:146,1,85,2|0,0:0|0:0,0:0:0:0:
450,17,69450,2,0,P|453:60|460:111,1,85,8|0,0:0|0:0,0:0:0:0:
413,349,69898,6,0,L|228:334,1,170,2|8,0:0|0:0,0:0:0:0:
155,325,70570,1,2,0:0:0:0:
38,274,70794,2,0,P|23:316|38:378,1,85,2|0,0:0|0:0,0:0:0:0:
203,250,71241,2,0,P|213:203|200:150,1,85,8|0,0:0|0:0,0:0:0:0:
108,81,71689,5,2,0:0:0:0:
135,101,72137,1,8,0:0:0:0:
234,73,72361,1,2,0:0:0:0:
164,15,72585,1,2,0:0:0:0:
207,167,72809,1,0,0:0:0:0:
325,28,73033,1,8,0:0:0:0:
374,207,73256,1,2,0:0:0:0:
512,41,73480,6,0,P|503:124|493:233,1,170,6|8,0:0|0:0,0:0:0:0:
471,318,74152,1,2,0:0:0:0:
374,207,74376,2,0,P|330:192|270:194,1,85,2|0,0:0|0:0,0:0:0:0:
235,339,74824,2,0,P|187:353|140:357,1,85,8|0,0:0|0:0,0:0:0:0:
41,277,75271,5,2,0:0:0:0:
87,132,75495,1,8,0:0:0:0:
121,103,75607,1,8,0:0:0:0:
164,95,75719,1,8,0:0:0:0:
204,113,75831,1,8,0:0:0:0:
236,143,75943,1,8,0:0:0:0:
277,155,76055,1,8,0:0:0:0:
312,133,76167,6,8,L|302:76,1,42.5
423,173,76391,2,8,L|415:228,1,42.5
303,273,76615,2,8,L|294:220,1,42.5
421,317,76839,2,8,L|414:373,1,42.5
296,370,77062,5,2,0:0:0:0:
172,290,77286,1,8,0:0:0:0:
172,290,77398,1,8,0:0:0:0:
172,290,77510,2,8,L|177:335,1,42.5
94,246,77734,2,8,L|86:292,1,42.5
41,179,77958,5,2,0:0:0:0:
170,93,78182,1,8,0:0:0:0:
170,93,78294,1,8,0:0:0:0:
170,93,78406,2,8,L|162:42,1,42.5
247,140,78630,2,8,L|256:71,1,42.5
315,201,78853,5,8,0:0:0:0:
315,201,78965,1,8,0:0:0:0:
315,201,79077,1,8,0:0:0:0:
420,147,79301,1,8,0:0:0:0:
454,267,79525,1,8,0:0:0:0:
316,114,79749,1,8,0:0:0:0:
270,118,79861,1,8,0:0:0:0:
234,147,79973,1,8,0:0:0:0:
222,191,80085,1,8,0:0:0:0:
231,236,80197,1,8,0:0:0:0:
329,345,80421,1,8,0:0:0:0:
329,345,80533,1,8,0:0:0:0:
329,345,80644,6,0,P|414:349|465:262,1,187.000005706787,6|8,0:0|0:0,0:0:0:0:
420,147,81316,1,2,0:0:0:0:
329,345,81540,1,2,0:0:0:0:
460,268,81764,1,0,0:0:0:0:
295,166,81988,1,8,0:0:0:0:
469,71,82212,1,0,0:0:0:0:
195,240,82436,6,0,L|190:47,1,187.000005706787,2|8,0:0|0:0,0:0:0:0:
294,164,83107,1,2,0:0:0:0:
103,105,83331,1,2,0:0:0:0:
287,43,83555,1,0,0:0:0:0:
158,319,83779,1,8,0:0:0:0:
294,164,84003,1,0,0:0:0:0:
81,16,84227,6,0,P|28:52|42:167,1,187.000005706787,2|8,0:0|0:0,0:0:0:0:
266,268,84898,1,2,0:0:0:0:
94,365,85122,2,0,P|52:357|1:340,1,93.5000028533936,2|0,0:0|0:0,0:0:0:0:
205,150,85570,2,0,P|250:137|312:135,1,93.5000028533936,8|0,0:0|0:0,0:0:0:0:
420,350,86018,6,0,P|427:261|441:147,1,187.000005706787,2|8,0:0|0:0,0:0:0:0:
494,84,86689,1,0,0:0:0:0:
322,280,86913,2,0,P|280:295|230:298,1,93.5000028533936,2|0,0:0|0:0,0:0:0:0:
152,272,87249,1,8,0:0:0:0:
152,272,87361,2,0,P|159:328|168:386,1,93.5000028533936,8|0,0:0|0:0,0:0:0:0:
190,103,87809,5,2,0:0:0:0:
78,141,88033,1,2,0:0:0:0:
283,155,88256,1,8,0:0:0:0:
10,89,88480,2,0,P|-5:134|11:196,1,93.5000028533936,2|0,0:0|0:0,0:0:0:0:
357,209,88928,2,0,P|371:157|357:101,1,93.5000028533936,2|8,0:0|0:0,0:0:0:0:
320,9,89376,1,0,0:0:0:0:
444,56,89600,5,2,0:0:0:0:
253,212,89824,1,2,0:0:0:0:
320,9,90047,1,8,0:0:0:0:
395,289,90271,1,0,0:0:0:0:
115,171,90495,6,0,B|54:183|54:183|110:198,1,93.5000028533936,2|0,0:0|0:0,0:0:0:0:
405,204,90943,2,0,B|466:192|466:192|410:177,1,93.5000028533936,8|0,0:0|0:0,0:0:0:0:
222,337,91391,5,2,0:0:0:0:
317,61,91615,2,0,L|322:157,1,93.5000028533936,2|8,0:0|0:0,0:0:0:0:
183,225,92062,2,0,L|177:123,1,93.5000028533936,2|0,0:0|0:0,0:0:0:0:
423,17,92510,2,0,L|428:118,1,93.5000028533936,0|8,0:0|0:0,0:0:0:0:
86,275,92958,1,0,0:0:0:0:
426,316,93182,5,8,0:0:0:0:
378,345,93294,1,8,0:0:0:0:
319,344,93406,1,8,0:0:0:0:
273,308,93518,1,8,0:0:0:0:
260,253,93630,1,8,0:0:0:0:
339,31,93853,5,8,0:0:0:0:
339,31,93965,1,8,0:0:0:0:
339,31,94077,1,8,0:0:0:0:
416,229,94301,6,8,L|354:240,1,46.7500014266968
229,119,94525,2,8,L|168:104,1,46.7500014266968
147,311,94749,2,8,L|94:322,1,46.7500014266968
95,69,94973,6,0,P|120:38|267:59,1,187.000005706787,6|8,0:0|0:0,0:0:0:0:
378,237,95644,1,2,0:0:0:0:
194,156,95868,1,2,0:0:0:0:
408,67,96092,1,0,0:0:0:0:
254,273,96316,1,8,0:0:0:0:
486,191,96540,1,0,0:0:0:0:
174,69,96764,6,0,P|116:114|131:221,1,187.000005706787,2|8,0:0|0:0,0:0:0:0:
277,368,97436,1,2,0:0:0:0:
6,280,97659,1,2,0:0:0:0:
194,156,97883,1,0,0:0:0:0:
77,363,98107,1,8,0:0:0:0:
7,52,98331,1,0,0:0:0:0:
274,284,98555,6,0,P|339:241|328:120,1,187.000005706787,2|8,0:0|0:0,0:0:0:0:
286,39,99227,1,2,0:0:0:0:
132,175,99450,2,0,L|142:303,1,93.5000028533936,2|0,0:0|0:0,0:0:0:0:
433,170,99898,2,0,L|422:70,1,93.5000028533936,8|0,0:0|0:0,0:0:0:0:
44,152,100346,6,0,L|58:352,1,187.000005706787,2|8,0:0|0:0,0:0:0:0:
269,212,101018,1,2,0:0:0:0:
133,70,101241,1,2,0:0:0:0:
369,6,101465,1,8,0:0:0:0:
369,6,101577,1,8,0:0:0:0:
369,6,101689,1,8,0:0:0:0:
294,235,101913,1,2,0:0:0:0:
133,70,102137,6,0,L|39:77,1,93.5000028533936,6|0,0:0|0:0,0:0:0:0:
369,6,102585,2,0,L|465:11,1,93.5000028533936,8|0,0:0|0:0,0:0:0:0:
255,318,103033,1,2,0:0:0:0:
329,120,103256,1,0,0:0:0:0:
153,184,103480,1,8,0:0:0:0:
425,234,103704,1,0,0:0:0:0:
65,232,103928,6,0,P|57:196|67:138,1,93.5000028533936,2|0,0:0|0:0,0:0:0:0:
425,234,104376,2,0,P|430:286|402:351,1,93.5000028533936,8|0,0:0|0:0,0:0:0:0:
65,140,104824,2,0,P|65:85|93:27,1,93.5000028533936,2|0,0:0|0:0,0:0:0:0:
418,325,105271,1,8,0:0:0:0:
181,360,105495,1,0,0:0:0:0:
495,172,105719,6,0,P|517:256|512:358,1,187.000005706787,2|8,0:0|0:0,0:0:0:0:
373,69,106391,1,0,0:0:0:0:
188,251,106615,2,0,P|137:247|75:238,1,93.5000028533936,2|0,0:0|0:0,0:0:0:0:
348,207,107062,1,8,0:0:0:0:
181,380,107286,1,0,0:0:0:0:
97,72,107510,5,2,0:0:0:0:
102,93,107958,1,8,0:0:0:0:
349,208,108182,1,2,0:0:0:0:
222,299,108406,1,2,0:0:0:0:
369,56,108630,1,0,0:0:0:0:
487,307,108853,1,8,0:0:0:0:
139,103,109077,1,2,0:0:0:0:
487,307,109301,6,0,P|525:215|455:132,1,187.000005706787,6|8,0:0|0:0,0:0:0:0:
315,60,109973,1,2,0:0:0:0:
210,367,110197,2,0,L|24:381,1,187.000005706787,2|8,0:0|0:0,0:0:0:0:
338,253,110868,1,2,0:0:0:0:
103,151,111092,6,8,L|90:104,1,46.7500014266968
250,77,111316,2,8,L|265:26,1,46.7500014266968
431,63,111540,1,12,0:0:0:0:
461,252,111764,6,8,L|483:306,1,46.7500014266968
317,319,111988,2,8,L|313:378,1,46.7500014266968,12|8,0:0|0:0,0:0:0:0:
146,334,112212,1,8,0:0:0:0:
86,128,112436,6,8,L|66:63,1,46.7500014266968
245,66,112659,2,8,L|252:-6,1,46.7500014266968
423,68,112883,1,6,0:0:0:0:
