osu file format v14

[General]
AudioFilename: audio.mp3
AudioLeadIn: 0
PreviewTime: 79861
Countdown: 0
SampleSet: None
StackLeniency: 0.7
Mode: 0
LetterboxInBreaks: 0
WidescreenStoryboard: 1

[Editor]
Bookmarks: 30495,44824,112883
DistanceSpacing: 1
BeatDivisor: 4
GridSize: 8
TimelineZoom: 1

[Metadata]
Title:Hanabira to Ribbon
TitleUnicode:花びらとりぼん
Artist:Larval Stage Planning
ArtistUnicode:Larval Stage Planning
Creator:Asuka_-
Version:Easy
Source:魔女こいにっき
Tags:Majo koi nikki eroge opening
BeatmapID:1452114
BeatmapSetID:685968

[Difficulty]
HPDrainRate:3
CircleSize:3
OverallDifficulty:3
ApproachRate:3
SliderMultiplier:0.8
SliderTickRate:1

[Events]
//Background and Video events
0,0,"Bg.jpg",0,0
//Break Periods
2,77262,79204
//Storyboard Layer 0 (Background)
//Storyboard Layer 1 (Fail)
//Storyboard Layer 2 (Pass)
//Storyboard Layer 3 (Foreground)
//Storyboard Sound Samples

[TimingPoints]
1839,447.761194029851,4,2,1,40,1,0
30495,-100,4,2,1,50,0,0
59152,-100,4,2,1,55,0,0
80644,-100,4,2,1,70,0,1
112883,-100,4,2,1,30,0,0

[Colours]
Combo1 : 128,255,255
Combo2 : 255,128,192

[HitObjects]
21,103,30495,6,0,P|92:49|159:65,1,160,2|2,0:0|0:0,0:0:0:0:
220,111,31839,1,8,0:0:0:0:
271,171,32286,2,0,P|326:208|409:171,1,160,2|2,0:0|0:0,0:0:0:0:
449,107,33630,1,8,0:0:0:0:
397,46,34077,6,0,L|230:57,1,160,2|2,0:0|0:0,0:0:0:0:
159,74,35421,1,8,0:0:0:0:
89,113,35868,2,0,P|78:149|85:208,1,80,2|8,0:0|0:0,0:0:0:0:
136,248,36764,2,0,L|223:244,1,80,0|8,0:0|0:0,0:0:0:0:
293,226,37659,5,2,0:0:0:0:
439,290,38555,2,0,P|453:246|458:198,1,80,2|8,0:0|0:0,0:0:0:0:
450,132,39450,2,0,P|410:122|357:124,1,80,2|8,0:0|0:0,0:0:0:0:
300,159,40346,2,0,P|263:166|205:164,1,80,0|8,0:0|0:0,0:0:0:0:
172,102,41241,6,0,P|102:74|27:119,1,160,2|2,0:0|0:0,0:0:0:0:
8,188,42585,1,8,0:0:0:0:
47,257,43033,2,0,P|84:271|129:272,1,80,2|8,0:0|0:0,0:0:0:0:
191,229,43928,2,0,P|230:220|279:220,1,80,2|8,0:0|0:0,0:0:0:0:
316,283,44824,6,0,P|348:205|292:142,1,160,6|2,0:0|0:0,0:0:0:0:
243,101,46167,1,8,0:0:0:0:
180,150,46615,2,0,P|106:178|37:134,1,160,2|2,0:0|0:0,0:0:0:0:
0,70,47958,1,8,0:0:0:0:
65,25,48406,6,0,L|224:14,1,160,2|2,0:0|0:0,0:0:0:0:
301,36,49749,1,8,0:0:0:0:
374,5,50197,2,0,P|380:49|367:81,1,80,2|8,0:0|0:0,0:0:0:0:
313,141,51092,2,8,P|302:171|317:226,1,80,2|8,0:0|0:0,0:0:0:0:
363,277,51988,5,8,0:0:0:0:
234,371,52883,2,0,P|182:378|143:375,1,80,2|8,0:0|0:0,0:0:0:0:
80,345,53779,2,0,P|39:283|50:200,1,160,2|8,0:0|0:0,0:0:0:0:
72,124,55122,1,8,0:0:0:0:
114,56,55570,6,0,P|194:41|257:80,1,160,2|2,0:0|0:0,0:0:0:0:
269,160,56913,1,8,0:0:0:0:
293,236,57361,2,0,P|330:250|375:251,1,80,8|8,0:0|0:0,0:0:0:0:
428,197,58256,2,0,P|435:159|437:110,1,80,8|8,0:0|0:0,0:0:0:0:
372,70,59152,6,0,L|206:80,1,160,6|2,0:0|0:0,0:0:0:0:
133,65,60495,1,8,0:0:0:0:
69,113,60943,2,0,P|57:140|61:204,1,80,2|8,0:0|0:0,0:0:0:0:
103,255,61839,2,0,L|189:245,1,80,2|8,0:0|0:0,0:0:0:0:
260,225,62734,6,0,P|301:153|257:84,2,160,2|2|2,0:0|0:0|0:0,0:0:0:0:
188,260,64973,1,8,0:0:0:0:
108,265,65421,2,0,P|57:257|26:243,1,80
53,168,66316,6,0,L|213:161,2,160,2|2|2,0:0|0:0|0:0,0:0:0:0:
31,245,68555,1,8,0:0:0:0:
40,324,69003,2,0,P|69:348|116:364,1,80,2|8,0:0|0:0,0:0:0:0:
187,374,69898,6,0,P|273:367|346:329,1,160,6|2,0:0|0:0,0:0:0:0:
398,283,71241,1,8,0:0:0:0:
441,215,71689,2,0,P|448:179|443:133,1,80,2|8,0:0|0:0,0:0:0:0:
374,95,72585,2,0,L|283:103,1,80,2|8,0:0|0:0,0:0:0:0:
248,167,73480,6,0,P|170:169|80:143,1,160,6|2,0:0|0:0,0:0:0:0:
30,95,74824,1,8,0:0:0:0:
80,32,75271,2,0,P|114:24|172:24,1,80,2|8,0:0|0:0,0:0:0:0:
227,64,76167,2,0,P|270:72|321:72,1,80,8|8,0:0|0:0,0:0:0:0:
380,43,77062,5,2,0:0:0:0:
438,351,80644,6,0,P|455:309|456:267,1,80,6|8,0:0|0:0,0:0:0:0:
420,203,81540,1,2,0:0:0:0:
346,235,81988,1,8,0:0:0:0:
269,212,82436,2,0,P|232:137|274:65,1,160,2|2,0:0|0:0,0:0:0:0:
334,38,83779,1,8,0:0:0:0:
411,56,84227,6,0,P|426:107|426:137,1,80,2|8,0:0|0:0,0:0:0:0:
412,212,85122,1,2,0:0:0:0:
365,277,85570,1,8,0:0:0:0:
305,330,86018,2,0,P|226:327|130:309,1,160,2|2,0:0|0:0,0:0:0:0:
86,259,87361,1,8,0:0:0:0:
30,201,87809,6,0,P|39:262|38:332,2,120,2|2|8,0:0|0:0|0:0,0:0:0:0:
0,127,89600,2,0,P|39:119|84:144,1,80,2|8,0:0|0:0,0:0:0:0:
131,190,90495,1,2,0:0:0:0:
203,155,90943,1,8,0:0:0:0:
268,200,91391,6,0,P|333:191|398:187,2,120,2|0|8,0:0|0:0|0:0,0:0:0:0:
210,255,93182,1,8,0:0:0:0:
60,350,94973,6,0,P|47:303|51:263,1,80,6|8,0:0|0:0,0:0:0:0:
58,192,95869,1,2,0:0:0:0:
95,121,96317,1,8,0:0:0:0:
157,70,96765,2,0,P|251:74|279:133,1,160,2|0,0:0|0:0,0:0:0:0:
269,204,98108,1,8,0:0:0:0:
240,278,98556,6,0,P|274:286|321:263,1,80,2|8,0:0|0:0,0:0:0:0:
374,216,99451,1,2,0:0:0:0:
358,137,99899,1,8,0:0:0:0:
301,80,100347,2,0,P|230:66|126:59,1,160,2|0,0:0|0:0,0:0:0:0:
66,83,101690,1,8,0:0:0:0:
0,127,102137,6,0,P|0:171|9:213,1,80,6|8,0:0|0:0,0:0:0:0:
48,274,103033,2,0,P|88:279|138:278,1,80,2|8,0:0|0:0,0:0:0:0:
206,264,103929,2,0,P|265:200|240:129,1,160,2|2,0:0|0:0,0:0:0:0:
188,82,105272,1,8,0:0:0:0:
245,26,105719,6,0,P|328:17|412:24,1,160,2|0,0:0|0:0,0:0:0:0:
461,78,107062,1,8,0:0:0:0:
487,153,107511,1,2,0:0:0:0:
423,299,108406,2,0,P|387:309|336:308,1,80,2|8,0:0|0:0,0:0:0:0:
267,286,109301,2,0,L|259:115,1,160,6|6,0:0|0:0,0:0:0:0:
251,46,110644,1,8,0:0:0:0:
256,192,111092,12,4,112883,0:0:0:0:
