osu file format v14

[General]
AudioFilename: audio.mp3
AudioLeadIn: 0
PreviewTime: 79861
Countdown: 0
SampleSet: None
StackLeniency: 0.7
Mode: 0
LetterboxInBreaks: 0
WidescreenStoryboard: 1

[Editor]
Bookmarks: 30495,44824,112883
DistanceSpacing: 1
BeatDivisor: 4
GridSize: 8
TimelineZoom: 1

[Metadata]
Title:Hanabira to Ribbon
TitleUnicode:花びらとりぼん
Artist:Larval Stage Planning
ArtistUnicode:Larval Stage Planning
Creator:Asuka_-
Version:Normal
Source:魔女こいにっき
Tags:Majo koi nikki eroge opening
BeatmapID:1452115
BeatmapSetID:685968

[Difficulty]
HPDrainRate:4
CircleSize:3.5
OverallDifficulty:4
ApproachRate:5
SliderMultiplier:1.1
SliderTickRate:1

[Events]
//Background and Video events
0,0,"Bg.jpg",0,0
//Break Periods
2,77262,78773
//Storyboard Layer 0 (Background)
//Storyboard Layer 1 (Fail)
//Storyboard Layer 2 (Pass)
//Storyboard Layer 3 (Foreground)
//Storyboard Sound Samples

[TimingPoints]
1839,447.761194029851,4,2,1,40,1,0
30495,-100,4,2,1,50,0,0
59152,-100,4,2,1,55,0,0
80644,-100,4,2,1,70,0,1
112883,-100,4,2,1,30,0,0

[Colours]
Combo1 : 128,255,255
Combo2 : 255,128,192

[HitObjects]
61,330,30495,6,0,P|105:356|174:339,1,110,2|8,0:0|0:0,0:0:0:0:
253,288,31391,1,2,0:0:0:0:
189,198,31839,1,8,0:0:0:0:
249,106,32286,2,0,P|297:85|363:98,1,110,2|8,0:0|0:0,0:0:0:0:
397,125,32958,2,0,L|409:243,1,110,0|0,0:0|0:0,0:0:0:0:
395,288,33630,1,8,0:0:0:0:
395,288,33853,6,0,P|327:320|234:289,1,165,0|8,0:0|0:0,0:0:0:0:
170,214,34973,1,2,0:0:0:0:
236,126,35421,1,8,0:0:0:0:
181,30,35868,2,0,P|124:24|59:25,1,110,2|8,0:0|0:0,0:0:0:0:
18,40,36540,2,0,L|24:169,1,110
27,205,37212,1,8,0:0:0:0:
102,284,37659,5,2,0:0:0:0:
187,214,38107,1,8,0:0:0:0:
265,291,38555,2,0,P|312:311|379:289,1,110,2|8,0:0|0:0,0:0:0:0:
453,229,39450,2,0,L|467:106,1,110,2|8,0:0|0:0,0:0:0:0:
390,38,40346,1,2,0:0:0:0:
291,87,40794,1,8,0:0:0:0:
203,20,41241,6,0,P|181:68|191:131,1,110,2|8,0:0|0:0,0:0:0:0:
258,207,42137,2,0,P|315:206|379:200,1,110,0|8,0:0|0:0,0:0:0:0:
423,198,42809,1,2,0:0:0:0:
423,198,43033,2,0,P|444:257|423:319,1,110,2|8,0:0|0:0,0:0:0:0:
398,343,43704,2,0,P|347:346|273:340,1,110
234,328,44376,1,8,0:0:0:0:
131,287,44824,6,0,P|118:230|142:174,1,110,6|8,0:0|0:0,0:0:0:0:
194,89,45720,1,2,0:0:0:0:
269,168,46168,1,8,0:0:0:0:
328,75,46615,2,0,P|383:69|440:69,1,110,2|8,0:0|0:0,0:0:0:0:
485,96,47287,2,0,L|497:214,1,110
470,254,47959,1,8,0:0:0:0:
470,254,48182,6,0,P|405:294|309:264,1,165,0|8,0:0|0:0,0:0:0:0:
242,199,49302,1,2,0:0:0:0:
145,253,49750,1,8,0:0:0:0:
51,195,50197,2,0,P|47:139|45:74,1,110,2|8,0:0|0:0,0:0:0:0:
59,31,50869,2,0,P|119:30|176:33,1,110,2|0,0:0|0:0,0:0:0:0:
205,73,51541,1,8,0:0:0:0:
309,40,51988,5,2,0:0:0:0:
406,91,52436,1,8,0:0:0:0:
506,45,52884,2,0,P|519:97|500:150,1,110,2|8,0:0|0:0,0:0:0:0:
427,230,53779,2,0,L|302:235,1,110,2|8,0:0|0:0,0:0:0:0:
266,217,54450,2,0,P|239:167|263:106,1,110,0|2,0:0|0:0,0:0:0:0:
297,85,55123,1,2,0:0:0:0:
201,29,55570,6,0,P|140:31|69:37,1,110,2|8,0:0|0:0,0:0:0:0:
30,131,56466,1,2,0:0:0:0:
65,234,56913,2,0,P|96:238|132:232,1,55
169,212,57361,2,0,P|225:206|290:209,1,110,8|2,0:0|0:0,0:0:0:0:
367,143,58256,2,0,P|389:196|376:256,1,110,8|8,0:0|0:0,0:0:0:0:
357,354,59152,6,0,L|490:344,1,110,6|8,0:0|0:0,0:0:0:0:
498,240,60047,1,2,0:0:0:0:
448,141,60495,1,8,0:0:0:0:
448,141,60719,2,0,P|356:183|296:151,1,165,0|8,0:0|0:0,0:0:0:0:
210,100,61839,1,2,0:0:0:0:
103,135,62286,2,0,P|96:158|95:206,1,55,8|0,0:0|0:0,0:0:0:0:
129,230,62734,6,0,P|130:288|134:362,1,110,2|8,0:0|0:0,0:0:0:0:
179,368,63406,1,0,0:0:0:0:
179,368,63630,2,0,P|235:377|289:350,1,110,2|8,0:0|0:0,0:0:0:0:
322,253,64525,2,0,P|371:228|439:249,1,110,2|8,0:0|0:0,0:0:0:0:
453,284,65197,2,0,L|477:117,1,165,0|8,0:0|0:0,0:0:0:0:
494,68,66092,1,0,0:0:0:0:
494,68,66316,6,0,P|436:93|374:77,1,110,2|8,0:0|0:0,0:0:0:0:
293,35,67212,2,0,P|232:22|172:44,1,110,2|8,0:0|0:0,0:0:0:0:
109,112,68107,1,2,0:0:0:0:
187,189,68555,1,8,0:0:0:0:
103,260,69003,1,2,0:0:0:0:
175,342,69450,1,8,0:0:0:0:
65,356,69898,6,0,P|5:251|59:167,1,220,6|2,0:0|0:0,0:0:0:0:
143,117,71241,1,8,0:0:0:0:
218,197,71689,2,0,P|274:203|344:207,1,110,2|8,0:0|0:0,0:0:0:0:
425,156,72585,1,2,0:0:0:0:
425,156,72809,2,0,P|433:186|437:227,2,55,0|8|0,0:0|0:0|0:0,0:0:0:0:
399,107,73480,6,0,P|346:71|283:83,1,110,6|8,0:0|0:0,0:0:0:0:
215,141,74376,2,0,P|163:159|103:137,1,110,2|8,0:0|0:0,0:0:0:0:
22,81,75271,1,2,0:0:0:0:
22,81,75495,2,0,L|27:207,1,110,8|8,0:0|0:0,0:0:0:0:
45,242,76167,2,0,P|97:277|201:245,1,165,8|0,0:0|0:0,0:0:0:0:
227,214,77062,5,2,0:0:0:0:
451,341,79973,5,8,0:0:0:0:
451,341,80197,2,0,P|457:311|460:277,1,55,8|8,0:0|0:0,0:0:0:0:
455,231,80644,6,0,P|418:195|344:203,1,110,6|8,0:0|0:0,0:0:0:0:
317,226,81316,1,0,0:0:0:0:
317,226,81540,2,0,P|286:232|249:228,1,55,2|0,0:0|0:0,0:0:0:0:
214,203,81988,2,0,L|211:131,1,55,8|0,0:0|0:0,0:0:0:0:
225,94,82436,2,0,P|269:63|336:86,1,110,2|8,0:0|0:0,0:0:0:0:
361,110,83107,1,0,0:0:0:0:
361,110,83331,2,0,P|362:140|355:174,1,55,2|0,0:0|0:0,0:0:0:0:
336,215,83779,2,0,P|329:247|332:283,1,55,8|0,0:0|0:0,0:0:0:0:
349,320,84227,1,0,0:0:0:0:
184,330,84898,5,0,0:0:0:0:
184,330,85122,2,0,P|179:300|190:264,1,55,2|0,0:0|0:0,0:0:0:0:
204,224,85570,2,0,P|209:190|202:158,1,55,8|0,0:0|0:0,0:0:0:0:
202,114,86018,2,0,P|247:94|320:124,1,110,2|8,0:0|0:0,0:0:0:0:
375,191,86913,1,2,0:0:0:0:
448,109,87361,1,8,0:0:0:0:
510,199,87809,6,0,P|508:253|500:319,1,110,2|8,0:0|0:0,0:0:0:0:
461,346,88480,2,0,P|436:354|392:355,1,55,2|0,0:0|0:0,0:0:0:0:
356,334,88928,2,0,P|329:328|277:327,1,55,2|8,0:0|0:0,0:0:0:0:
251,349,89376,1,0,0:0:0:0:
251,349,89600,2,0,L|261:220,1,110,2|8,0:0|0:0,0:0:0:0:
229,192,90271,1,0,0:0:0:0:
229,192,90495,2,0,P|181:176|116:197,1,110,2|8,0:0|0:0,0:0:0:0:
71,286,91391,5,2,0:0:0:0:
71,286,91615,2,0,P|104:295|140:295,1,55,0|8,0:0|0:0,0:0:0:0:
174,273,92062,2,0,B|159:383,2,110,0|0|0,0:0|0:0|0:0,0:0:0:0:
219,241,93182,1,8,0:0:0:0:
472,348,94301,5,0,0:0:0:0:
472,348,94525,2,0,L|482:274,1,55,0|0,0:0|0:0,0:0:0:0:
479,238,94973,6,0,P|438:206|372:222,1,110,6|8,0:0|0:0,0:0:0:0:
334,238,95644,1,0,0:0:0:0:
334,238,95869,2,0,P|337:271|336:300,1,55,2|0,0:0|0:0,0:0:0:0:
306,339,96317,2,0,P|279:344|234:342,1,55,8|0,0:0|0:0,0:0:0:0:
200,323,96765,2,0,P|175:275|192:212,1,110,2|8,0:0|0:0,0:0:0:0:
206,171,97436,1,0,0:0:0:0:
206,171,97660,2,0,P|236:170|270:177,1,55,2|0,0:0|0:0,0:0:0:0:
307,203,98108,2,0,P|342:208|375:207,1,55,8|0,0:0|0:0,0:0:0:0:
414,194,98555,1,0,0:0:0:0:
379,47,99227,5,0,0:0:0:0:
379,47,99451,2,0,P|343:41|313:41,1,55,2|0,0:0|0:0,0:0:0:0:
277,68,99899,2,0,P|244:71|211:70,1,55,8|0,0:0|0:0,0:0:0:0:
168,58,100347,2,0,P|134:90|143:158,1,110,2|8,0:0|0:0,0:0:0:0:
216,225,101242,1,2,0:0:0:0:
316,179,101690,1,8,0:0:0:0:
413,229,102138,6,0,P|411:283|403:349,1,110,6|8,0:0|0:0,0:0:0:0:
298,365,103033,2,0,P|272:366|219:358,1,55,2|0,0:0|0:0,0:0:0:0:
197,332,103480,2,0,P|169:326|132:329,1,55,8|0,0:0|0:0,0:0:0:0:
92,347,103929,2,0,L|102:218,1,110,2|8,0:0|0:0,0:0:0:0:
132,132,104824,2,0,P|184:117|236:133,1,110,2|8,0:0|0:0,0:0:0:0:
268,177,105495,6,0,P|325:206|386:178,1,110,0|0,0:0|0:0,0:0:0:0:
406,155,106167,1,8,0:0:0:0:
502,208,106615,1,0,0:0:0:0:
416,276,107062,1,8,0:0:0:0:
502,344,107511,1,2,0:0:0:0:
338,364,108182,1,0,0:0:0:0:
338,364,108406,2,0,P|334:336|334:298,1,55,2|0,0:0|0:0,0:0:0:0:
357,259,108853,2,0,P|360:228|364:186,1,55,8|0,0:0|0:0,0:0:0:0:
349,150,109301,6,0,P|297:117|232:134,1,110,6|8,0:0|0:0,0:0:0:0:
207,156,109973,1,2,0:0:0:0:
207,156,110197,2,0,P|163:184|94:168,1,110,6|8,0:0|0:0,0:0:0:0:
256,192,111092,12,4,112883,0:0:0:0:
