osu file format v14

[General]
AudioFilename: audio.mp3
AudioLeadIn: 0
PreviewTime: 36210
Countdown: 0
SampleSet: Soft
StackLeniency: 0.7
Mode: 0
LetterboxInBreaks: 0
WidescreenStoryboard: 1

[Editor]
DistanceSpacing: 1
BeatDivisor: 4
GridSize: 4
TimelineZoom: 1

[Metadata]
Title:Kolyaheiter
TitleUnicode:Коляхейтер
Artist:Larin
ArtistUnicode:Ларин
Creator:KabbaRam
Version:Easy
Source:
Tags:Пика Pika #partymaker partymaker patimaker патимейкер #патимейкер russian #kolyaheiter #коляхейтер Youtube kolyahater #kolyahater
BeatmapID:1017573
BeatmapSetID:473508

[Difficulty]
HPDrainRate:2
CircleSize:2.5
OverallDifficulty:2
ApproachRate:3
SliderMultiplier:1
SliderTickRate:1

[Events]
//Background and Video events
0,0,"DramaBG.png",0,0
Video,0,"DramaVID_encoded.avi"
//Break Periods
//Storyboard Layer 0 (Background)
//Storyboard Layer 1 (Fail)
//Storyboard Layer 2 (Pass)
//Storyboard Layer 3 (Foreground)
//Storyboard Sound Samples

[TimingPoints]
5729,476.190476190476,4,2,0,30,1,0
14778,-100,4,2,0,35,0,0
22873,-100,4,2,0,40,0,0
24778,-100,4,2,0,45,0,0
26205,-100,4,2,0,50,0,0
27157,-100,4,2,0,55,0,0
28111,-100,4,2,0,65,0,0
30014,-100,4,2,0,50,0,0
33824,-100,4,2,0,50,0,0
34302,-100,4,2,0,50,0,0
34540,-100,4,2,0,50,0,0
38586,-100,4,2,0,55,0,1
40020,-100,4,2,0,60,0,1
41924,-100,4,2,0,65,0,1
43829,-100,4,2,0,70,0,1
45734,-100,4,2,0,70,0,1
60490,-100,4,2,0,40,0,0
68591,-100,4,2,0,45,0,0
70496,-100,4,2,0,45,0,0
71924,-100,4,2,0,45,0,0
72877,-100,4,2,0,50,0,0
73829,-100,4,2,0,60,0,0
75728,-100,4,2,0,60,0,1
79542,-100,4,2,0,65,0,1
80019,-100,4,2,0,75,0,1
80258,-100,4,2,0,60,0,1
83829,-100,4,2,0,65,0,1
85734,-100,4,2,0,70,0,1
87639,-100,4,2,0,75,0,1
88943,-100,4,2,0,70,0,0

[HitObjects]
256,192,7633,12,0,9538,0:0:0:0:
126,280,11443,6,0,L|176:249,1,50,0|0,0:0|3:0,0:0:0:0:
304,44,12871,2,0,L|304:96,2,50,0|0|0,0:0|0:0|1:0,0:0:0:0:
427,253,15252,5,0,1:0:0:0:
336,212,15728,2,0,P|329:261|344:309,2,100,0|0|0,3:0|3:0|3:0,0:0:0:0:
427,253,17157,2,0,P|436:198|408:144,1,100,0|0,3:0|3:0,0:0:0:0:
326,119,18109,1,0,0:0:0:0:
226,127,18586,5,0,3:0:0:0:
201,224,19062,1,0,3:0:0:0:
160,315,19538,2,0,P|127:289|105:224,1,100,0|0,0:0|3:0,0:0:0:0:
129,139,20490,1,0,3:0:0:0:
167,46,20967,1,0,0:0:0:0:
266,42,21443,2,0,B|334:81|316:156|316:156|292:232,1,200,0|0,0:0|1:0,0:0:0:0:
391,239,22871,5,0,0:0:0:0:
329,318,23348,2,0,B|268:334|229:305|211:281|211:281|127:302,1,200,0|0,3:0|1:0,0:0:0:0:
44,300,24776,1,0,0:0:0:0:
5,209,25252,6,0,L|28:96,1,100,0|0,3:0|1:0,0:0:0:0:
127,117,26205,1,0,3:0:0:0:
145,18,26681,1,0,1:0:0:0:
245,17,27157,6,0,L|225:119,1,100,0|0,3:0|1:0,0:0:0:0:
322,112,28109,1,0,3:0:0:0:
291,207,28586,2,0,L|389:226,1,100,0|0,3:0|1:0,0:0:0:0:
459,297,29538,1,0,1:0:0:0:
384,363,30014,5,0,3:0:0:0:
306,299,30490,1,0,0:0:0:0:
217,348,30967,2,0,P|205:308|226:243,2,100,0|0|2,1:0|3:0|3:0,0:0:0:0:
305,299,32395,2,0,P|319:247|301:199,2,100,0|0|2,1:0|0:0|3:0,0:0:0:0:
219,252,33824,5,2,0:0:0:0:
219,152,34300,1,2,0:0:0:0:
122,127,34776,6,0,P|152:77|202:54,2,100,0|0|2,3:0|1:0|3:0,0:0:0:0:
56,51,36205,1,0,1:0:0:0:
27,146,36681,2,0,B|46:211|109:223|109:223|-7:281,1,200
116,319,38109,1,0,1:0:0:0:
198,265,38586,6,0,B|211:201|197:165|171:143|121:127|121:127|107:102,1,200,8|8,0:0|0:0,0:0:0:0:
203,67,40014,1,0,1:0:0:0:
302,73,40490,2,0,B|301:117|274:146|274:146|299:203|285:268,1,200,8|8,0:0|0:0,0:0:0:0:
385,256,41919,1,0,1:0:0:0:
365,353,42395,2,0,P|452:329|477:221,1,200,8|8,0:0|0:0,0:0:0:0:
468,135,43824,1,0,1:0:0:0:
484,36,44300,2,0,B|415:30|380:89|380:89|299:72,1,200,8|8,0:0|0:0,0:0:0:0:
209,103,45728,6,0,P|235:146|279:169,1,100,0|8,1:0|0:0,0:0:0:0:
353,237,46681,2,0,P|298:266|244:262,1,100,0|8,1:0|0:0,0:0:0:0:
161,268,47633,2,0,L|177:181,2,50,0|0|8,1:0|3:0|0:0,0:0:0:0:
71,222,48586,1,0,0:0:0:0:
29,311,49062,5,8,0:0:0:0:
119,354,49538,2,0,P|211:350|254:248,1,200,0|0,1:0|1:0,0:0:0:0:
356,261,50967,1,8,0:0:0:0:
297,175,51443,2,0,P|202:182|160:267,1,200,0|0,1:0|1:0,0:0:0:0:
72,199,52871,5,8,0:0:0:0:
118,110,53348,1,0,3:0:0:0:
120,10,53824,2,0,P|168:21|203:55,1,100,8|0,0:0|1:0,0:0:0:0:
294,95,54776,1,8,0:0:0:0:
248,184,55253,1,0,3:0:0:0:
165,239,55729,2,0,P|200:273|249:285,1,100,8|0,0:0|1:0,0:0:0:0:
332,232,56681,5,8,0:0:0:0:
365,326,57157,2,0,P|418:280|431:236,1,100,0|8,1:0|0:0,0:0:0:0:
332,232,58109,2,0,B|272:245|253:312,1,100,0|8,1:0|0:0,0:0:0:0:
160,309,59062,2,0,B|169:368|218:383,2,100,0|8|0,1:0|0:0|1:0,0:0:0:0:
122,216,60490,5,12,2:0:0:0:
39,262,60967,2,0,P|29:200|47:158,1,100,0|0,3:0|0:0,0:0:0:0:
119,119,61919,2,0,P|134:167|121:215,1,100,0|0,3:0|0:0,0:0:0:0:
216,199,62871,2,0,L|315:249,2,100
174,290,64300,5,0,0:0:0:0:
264,332,64776,1,2,2:0:0:0:
305,244,65252,2,0,P|352:287|362:328,1,100,0|0,3:0|0:0,0:0:0:0:
264,332,66205,5,0,0:0:0:0:
174,290,66681,2,0,L|173:190,1,100,2|0,2:0|2:0,2:0:0:0:
116,108,67633,2,0,P|162:88|211:97,1,100,0|0,3:0|0:0,0:0:0:0:
268,177,68586,6,0,L|361:211,1,100
382,309,69538,2,0,P|428:287|455:243,1,100,0|0,3:0|0:0,0:0:0:0:
456,146,70490,1,0,0:0:0:0:
473,47,70967,6,0,P|423:50|377:87,1,100,0|2,0:0|3:0,0:0:0:0:
315,151,71919,1,0,0:0:0:0:
286,54,72395,1,2,3:0:0:0:
187,35,72871,2,0,P|187:84|217:129,1,100,0|2,0:0|3:0,0:0:0:0:
269,209,73824,5,0,0:0:0:0:
367,191,74300,2,0,P|348:145|306:118,1,100,0|0,3:0|3:0,3:0:0:0:
211,127,75252,1,0,0:0:0:0:
206,37,75728,5,8,0:0:0:0:
305,37,76205,1,0,1:0:0:0:
387,94,76681,2,0,P|403:55|389:-11,2,100,8|0|8,0:0|3:0|0:0,3:0:0:0:
314,163,78109,2,0,P|381:199|408:196,2,100,0|8|0,1:0|0:0|1:0,0:0:0:0:
219,151,79538,5,2,0:0:0:0:
230,250,80014,1,2,0:0:0:0:
232,349,80490,6,0,P|154:317|134:272,2,100,8|0|8,0:0|1:0|0:0,0:0:0:0:
230,250,81919,1,0,1:0:0:0:
327,230,82395,2,0,B|308:164|245:152|245:152|333:104,1,200,8|8,0:0|0:0,0:0:0:0:
405,156,83823,1,0,1:0:0:0:
396,56,84300,2,8,B|350:4|285:20|285:20|173:76,1,200
145,127,85728,5,0,1:0:0:0:
61,182,86205,2,8,B|92:226|135:228|135:228|106:291|134:337,1,200
222,285,87633,1,0,1:0:0:0:
289,358,88109,2,8,P|321:276|250:189,1,200
