osu file format v14

[General]
AudioFilename: audio.mp3
AudioLeadIn: 0
PreviewTime: -1
Countdown: 1
SampleSet: Soft
StackLeniency: 0.7
Mode: 0
LetterboxInBreaks: 0
WidescreenStoryboard: 0

[Editor]
Bookmarks: 15346,28497,41647,67949,94250,120551,133702,146853,160004,173154,186305,199456,212606,225757,252058,265209,291510
DistanceSpacing: 2.1
BeatDivisor: 8
GridSize: 4
TimelineZoom: 2.3

[Metadata]
Title:lapix - Inner Spirit (Extended)
TitleUnicode:lapix - Inner Spirit (Extended)
Artist:Lapix
ArtistUnicode:Lapix
Creator:eridsV
Version:196
Source:
Tags:
BeatmapID:1857004
BeatmapSetID:888436

[Difficulty]
HPDrainRate:3
CircleSize:4
OverallDifficulty:8.5
ApproachRate:9.5
SliderMultiplier:3
SliderTickRate:1

[Events]
//Background and Video events
0,0,"54e519379db3673ea7195e09cc2071ec.jpg",0,0
//Break Periods
//Storyboard Layer 0 (Background)
//Storyboard Layer 1 (Fail)
//Storyboard Layer 2 (Pass)
//Storyboard Layer 3 (Foreground)
//Storyboard Sound Samples

[TimingPoints]
552,410.958904109589,4,2,0,100,1,0
1373,-222.222222222221,4,2,0,75,0,0
1990,-133.333333333333,4,2,0,75,0,0
5483,-66.6666666666667,4,2,0,75,0,0
5688,-133.333333333333,4,2,0,75,0,0
7846,-100,4,2,0,75,0,0
8565,-50,4,2,0,75,0,0
8976,-133.333333333333,4,2,0,75,0,0
12058,-66.6666666666667,4,2,0,75,0,0
12264,-133.333333333333,4,2,0,75,0,0
12469,-111.111111111111,4,2,0,75,0,0
12675,-95.2380952380952,4,2,0,75,0,0
12880,-83.3333333333333,4,2,0,75,0,0
13086,-74.0740740740741,4,2,0,75,0,0
13291,-66.6666666666667,4,2,0,75,0,0
13497,-60.6060606060606,4,2,0,75,0,0
13702,-100,4,2,0,75,0,0
14730,-133.333333333333,4,2,0,75,0,0
15141,-50,4,2,0,75,0,0
15552,-100,4,2,0,75,0,0
17504,-100,4,2,0,75,0,0
18223,-100,4,2,0,75,0,0
18634,-57.1428571428571,4,2,0,75,0,0
18839,-100,4,2,0,75,0,0
20278,-83.3333333333333,4,2,0,75,0,0
21099,-1000,4,2,0,75,0,0
21510,-66.6666666666667,4,2,0,75,0,0
21716,-50,4,2,0,75,0,0
22127,-66.6666666666667,4,2,0,75,0,0
22743,-83.3333333333333,4,2,0,75,0,0
24798,-133.333333333333,4,2,0,75,0,0
25209,-66.6666666666667,4,2,0,75,0,0
26236,-66.6666666666667,4,2,0,75,0,0
27161,-133.333333333333,4,2,0,75,0,0
28497,-250,4,2,0,75,0,0
31784,-250,4,2,0,75,0,0
38360,-100,4,2,0,75,0,0
38411,-100,4,2,0,5,0,0
38462,-95.2380952380952,4,2,0,26,0,0
38514,-100,4,2,0,5,0,0
38565,-90.9090909090909,4,2,0,29,0,0
38617,-100,4,2,0,5,0,0
38668,-86.9565217391304,4,2,0,32,0,0
38719,-100,4,2,0,5,0,0
38771,-83.3333333333333,4,2,0,35,0,0
38822,-100,4,2,0,5,0,0
38873,-80,4,2,0,38,0,0
38925,-100,4,2,0,5,0,0
38976,-76.9230769230769,4,2,0,41,0,0
39028,-100,4,2,0,5,0,0
39079,-74.0740740740741,4,2,0,44,0,0
39130,-100,4,2,0,5,0,0
39182,-71.4285714285714,4,2,0,47,0,0
39233,-100,4,2,0,5,0,0
39284,-68.9655172413793,4,2,0,50,0,0
39336,-100,4,2,0,5,0,0
39387,-66.6666666666667,4,2,0,53,0,0
39438,-100,4,2,0,5,0,0
39490,-64.5161290322581,4,2,0,56,0,0
39541,-100,4,2,0,5,0,0
39593,-62.5,4,2,0,59,0,0
39644,-100,4,2,0,5,0,0
39695,-60.6060606060606,4,2,0,61,0,0
39747,-100,4,2,0,5,0,0
39798,-58.8235294117647,4,2,0,64,0,0
39849,-100,4,2,0,5,0,0
39901,-55.5555555555556,4,2,0,67,0,0
39952,-100,4,2,0,5,0,0
40004,-66.6666666666667,4,2,0,70,0,0
41236,-100,4,2,0,70,0,0
41442,-500,4,2,2,75,0,0
41647,-66.6666666666667,4,2,3,75,0,0
42058,-100,4,2,0,75,0,0
43291,-66.6666666666667,4,2,0,75,0,0
43702,-100,4,2,0,75,0,0
44935,-66.6666666666667,4,2,0,75,0,0
45346,-100,4,2,0,75,0,0
46579,-66.6666666666667,4,2,0,75,0,0
46990,-100,4,2,0,75,0,0
47812,-50,4,2,0,75,0,0
47966,-50,4,2,0,5,0,0
48017,-50,4,2,0,75,0,0
48171,-50,4,2,0,5,0,0
48223,-66.6666666666667,4,2,0,75,0,0
48634,-83.3333333333333,4,2,0,75,0,0
49867,-66.6666666666667,4,2,0,75,0,0
50278,-83.3333333333333,4,2,0,75,0,0
51510,-66.6666666666667,4,2,3,75,0,0
51921,-83.3333333333333,4,2,0,75,0,0
52743,-83.3333333333333,4,2,2,75,0,0
52949,-83.3333333333333,4,2,0,75,0,0
54798,-1000,4,2,0,75,0,0
55106,-1000,4,2,0,5,0,0
55209,-83.3333333333333,4,2,0,75,0,0
56442,-66.6666666666667,4,2,0,75,0,0
56853,-83.3333333333333,4,2,0,75,0,0
59319,-83.3333333333333,4,2,2,75,0,0
60962,-83.3333333333333,4,2,3,75,0,0
61373,-1000,4,2,0,75,0,0
61733,-1000,4,2,0,5,0,0
61784,-83.3333333333333,4,2,0,75,0,0
63017,-66.6666666666667,4,2,0,75,0,0
63428,-83.3333333333333,4,2,0,75,0,0
63839,-83.3333333333333,4,2,0,40,0,0
64250,-83.3333333333333,4,2,0,75,0,0
65483,-83.3333333333333,4,2,0,75,0,0
66305,-66.6666666666667,4,2,0,75,0,0
66716,-83.3333333333333,4,2,0,75,0,0
67127,-50,4,2,0,75,0,0
67332,-83.3333333333333,4,2,0,75,0,0
67538,-100,4,2,0,75,0,0
67641,-100,4,2,0,5,0,0
67743,-66.6666666666667,4,2,2,75,0,0
67949,-66.6666666666667,4,2,0,75,0,0
68360,-83.3333333333333,4,2,0,75,0,0
69182,-40,4,2,0,75,0,0
69336,-33.3333333333333,4,2,0,5,0,0
69387,-33.3333333333333,4,2,0,75,0,0
69490,-33.3333333333333,4,2,0,5,0,0
69593,-83.3333333333333,4,2,0,75,0,0
71236,-66.6666666666667,4,2,0,75,0,0
71647,-83.3333333333333,4,2,0,75,0,0
72469,-33.3333333333333,4,2,0,75,0,0
72623,-33.3333333333333,4,2,0,5,0,0
72674,-33.3333333333333,4,2,0,75,0,0
72777,-33.3333333333333,4,2,0,5,0,0
72880,-83.3333333333333,4,2,0,75,0,0
73086,-100,4,2,0,75,0,0
73291,-100,4,2,0,75,0,0
73702,-50,4,2,0,75,0,0
74113,-100,4,2,0,35,0,0
74524,-66.6666666666667,4,2,0,75,0,0
74935,-83.3333333333333,4,2,0,75,0,0
75757,-33.3333333333333,4,2,0,75,0,0
75911,-33.3333333333333,4,2,0,5,0,0
75962,-33.3333333333333,4,2,0,75,0,0
76065,-33.3333333333333,4,2,0,5,0,0
76168,-83.3333333333333,4,2,0,75,0,0
77812,-66.6666666666667,4,2,0,75,0,0
78223,-83.3333333333333,4,2,0,75,0,0
78634,-50,4,2,2,75,0,0
79045,-83.3333333333333,4,2,2,75,0,0
79250,-83.3333333333333,4,2,2,75,0,0
80688,-100,4,2,0,75,0,0
80894,-66.6666666666667,4,2,0,75,0,0
81099,-1000,4,2,0,75,0,0
81459,-500,4,2,0,5,0,0
81510,-83.3333333333333,4,2,0,75,0,0
82332,-33.3333333333333,4,2,0,75,0,0
82486,-33.3333333333333,4,2,0,5,0,0
82537,-33.3333333333333,4,2,0,75,0,0
82640,-33.3333333333333,4,2,0,5,0,0
82743,-83.3333333333333,4,2,0,75,0,0
85620,-33.3333333333333,4,2,0,75,0,0
85774,-33.3333333333333,4,2,0,5,0,0
85825,-33.3333333333333,4,2,0,75,0,0
85928,-33.3333333333333,4,2,0,5,0,0
86031,-83.3333333333333,4,2,0,75,0,0
87264,-50,4,2,0,75,0,0
87469,-83.3333333333333,4,2,0,75,0,0
87675,-100,4,2,0,75,0,0
89319,-100,4,2,0,75,0,0
90141,-40,4,2,0,75,0,0
90552,-100,4,2,0,75,0,0
91784,-100,4,2,2,75,0,0
92606,-500,4,2,0,75,0,0
93017,-100,4,2,0,75,0,0
93428,-100,4,1,2,75,0,0
93839,-100,4,2,0,75,0,0
94250,-66.6666666666667,4,2,5,75,0,1
94456,-66.6666666666667,4,2,5,75,0,1
99182,-50,4,2,5,75,0,1
99319,-50,4,2,5,5,0,1
99387,-50,4,2,5,75,0,1
99524,-50,4,2,5,5,0,1
99593,-66.6666666666667,4,2,5,75,0,1
100004,-50,4,2,5,75,0,1
100141,-50,4,2,5,5,0,1
100209,-50,4,2,5,75,0,1
100346,-50,4,2,5,5,0,1
100415,-66.6666666666667,4,2,2,75,0,1
100825,-66.6666666666667,4,2,5,75,0,1
105141,-50,4,2,5,75,0,1
105346,-66.6666666666667,4,2,5,75,0,1
106168,-1000,4,2,5,5,0,1
106271,-1000,4,2,5,25,0,1
106373,-1000,4,2,5,50,0,1
106476,-1000,4,2,5,75,0,1
106579,-66.6666666666667,4,2,5,75,0,1
106990,-66.6666666666667,4,2,2,75,0,1
107401,-66.6666666666667,4,2,5,75,0,1
107606,-66.6666666666667,4,2,5,75,0,1
112332,-50,4,2,5,75,0,1
112469,-50,4,2,5,5,0,1
112537,-50,4,2,5,75,0,1
112674,-50,4,2,5,5,0,1
112743,-66.6666666666667,4,2,5,75,0,1
112949,-50,4,2,5,75,0,1
113154,-66.6666666666667,4,2,5,75,0,1
113565,-66.6666666666667,4,2,2,75,0,1
113976,-66.6666666666667,4,2,5,75,0,1
118086,-66.6666666666667,4,2,2,75,0,1
118908,-100,4,2,2,75,0,1
119730,-66.6666666666667,4,2,2,75,0,1
120551,-66.6666666666667,4,2,0,75,0,0
120552,-100,4,2,0,75,0,0
132058,-100,4,2,0,75,0,0
171510,-1000,4,2,0,75,0,0
173052,-1000,4,2,0,5,0,0
173154,-66.6666666666667,4,2,0,75,0,0
225757,-66.6666666666667,4,2,0,75,0,1
252058,-66.6666666666667,4,2,0,75,0,0

[HitObjects]
106,154,1373,6,0,L|45:319,1,168.749994850159,8|0,3:0|0:0,0:0:0:0:
51,384,1990,6,0,P|23:380|0:365,1,56.2500021457673,8|0,3:0|0:0,0:0:0:0:
103,82,2195,2,0,P|130:85|154:100,1,56.2500021457673,4|0,1:0|0:0,0:0:0:0:
185,321,2401,1,8,3:0:0:0:
205,327,2504,1,0,0:0:0:0:
146,330,2606,5,2,2:0:0:0:
155,309,2709,1,0,0:0:0:0:
162,286,2812,1,0,0:0:0:0:
118,244,2915,2,0,L|170:263,1,56.2500021457673
218,271,3120,2,0,L|112:231,1,112.500004291535
106,154,3428,2,0,L|181:181,1,56.2500021457673
253,209,3634,1,0,0:0:0:0:
276,217,3736,1,0,0:0:0:0:
341,270,3839,6,0,P|356:246|359:219,1,56.2500021457673,8|0,3:0|0:0,0:0:0:0:
318,145,4045,1,0,0:0:0:0:
318,145,4147,1,0,0:0:0:0:
386,93,4250,1,8,1:0:0:0:
386,93,4353,2,0,P|399:117|401:145,1,56.2500021457673,8|0,1:0|0:0,0:0:0:0:
477,182,4558,2,0,P|463:206|440:221,1,56.2500021457673,8|0,1:0|0:0,0:0:0:0:
445,305,4764,2,0,P|417:304|392:292,1,56.2500021457673,8|0,1:0|0:0,0:0:0:0:
318,145,4969,1,0,0:0:0:0:
306,285,5072,2,0,P|308:313|322:338,3,56.2500021457673,8|0|8|0,3:0|0:0|3:0|0:0,0:0:0:0:
331,354,5483,6,0,P|284:324|275:270,1,112.500004291535,2|0,1:0|0:0,0:0:0:0:
405,73,5688,1,8,3:0:0:0:
411,53,5791,1,0,0:0:0:0:
414,111,5893,5,2,2:0:0:0:
391,103,5997,1,0,0:0:0:0:
368,95,6099,1,0,0:0:0:0:
365,14,6202,2,0,L|417:33,1,56.2500021457673
463,39,6407,2,0,L|357:-1,1,112.500004291535
249,39,6716,2,0,L|301:58,1,56.2500021457673
489,126,6921,1,0,0:0:0:0:
512,133,7023,1,0,0:0:0:0:
512,233,7127,6,0,L|456:242,1,56.2500021457673,8|0,3:0|0:0,0:0:0:0:
327,265,7332,2,0,L|271:274,1,56.2500021457673,8|0,3:0|0:0,0:0:0:0:
126,153,7538,5,0,0:0:0:0:
109,169,7641,1,0,0:0:0:0:
29,186,7743,1,4,1:0:0:0:
29,186,7846,2,0,P|41:220|71:242,1,75,8|0,1:0|0:0,0:0:0:0:
107,353,8051,2,0,P|141:340|163:310,1,75,8|0,1:0|0:0,0:0:0:0:
272,274,8257,2,0,P|260:240|230:218,1,75,8|0,1:0|0:0,0:0:0:0:
195,109,8462,1,0,0:0:0:0:
195,109,8565,6,0,B|163:125|163:125|218:150|273:126,1,150,4|0,1:0|2:0,2:0:0:0:
459,34,8771,2,0,B|491:18|491:18|436:-7|381:17,1,150,4|0,1:0|2:0,2:0:0:0:
93,160,8976,1,8,3:0:0:0:
77,172,9079,1,0,0:0:0:0:
106,124,9182,5,2,2:0:0:0:
119,140,9284,1,0,0:0:0:0:
133,156,9387,1,0,0:0:0:0:
97,227,9490,2,0,L|61:184,1,56.2500021457673
22,155,9695,2,0,L|93:242,1,112.500004291535
181,215,10004,2,0,L|134:159,1,56.2500021457673
94,108,10209,1,0,0:0:0:0:
82,92,10312,1,0,0:0:0:0:
17,47,10415,6,0,P|34:25|60:15,1,56.2500021457673,8|0,3:0|0:0,0:0:0:0:
174,95,10620,1,0,0:0:0:0:
174,95,10723,1,0,0:0:0:0:
216,30,10825,1,8,1:0:0:0:
216,29,10928,2,0,P|238:47|247:72,1,56.2500021457673,8|0,1:0|0:0,0:0:0:0:
322,78,11134,2,0,P|318:105|300:127,1,56.2500021457673,8|0,1:0|0:0,0:0:0:0:
333,193,11339,2,0,P|307:203|279:199,1,56.2500021457673,8|0,1:0|0:0,0:0:0:0:
174,95,11545,1,0,0:0:0:0:
206,217,11647,2,0,P|215:242|238:260,3,56.2500021457673,8|0|8|0,3:0|0:0|3:0|0:0,0:0:0:0:
194,198,12058,6,0,P|191:253|230:292,1,112.500004291535,2|0,1:0|0:0,0:0:0:0:
512,384,12264,6,0,L|430:377,1,56.2500021457673
388,375,12469,2,0,L|499:383,1,67.4999979400635,2|0,2:0|0:0,0:0:0:0:
512,364,12675,2,0,L|375:353,1,78.7499975967408
344,351,12880,2,0,L|482:361,1,89.9999972534181
511,343,13086,2,0,L|374:332,1,101.250000386238
298,326,13291,2,0,L|436:336,1,112.500004291535
511,320,13497,2,0,L|374:309,1,123.750001180172
225,361,13702,6,0,P|217:324|230:289,1,75
165,215,13908,1,0,0:0:0:0:
105,361,14010,2,0,P|112:324|99:289,1,75
165,201,14216,1,0,0:0:0:0:
272,176,14319,6,0,B|237:165|237:165|206:134,1,75
58,176,14524,2,0,B|93:165|93:165|124:134,1,75
165,201,14730,6,0,L|164:267,1,56.2500021457673
172,205,14935,2,0,L|171:271,1,56.2500021457673
47,79,15141,6,0,B|17:100|17:100|78:105|133:122,1,150,4|0,1:0|0:0,0:0:0:0:
283,79,15346,2,0,B|313:100|313:100|252:105|197:122,1,150,4|0,1:0|0:0,0:0:0:0:
36,256,15552,1,8,3:0:0:0:
20,297,15654,1,0,0:0:0:0:
11,195,15757,5,10,2:0:0:0:
52,210,15860,1,0,0:0:0:0:
93,225,15963,1,0,0:0:0:0:
154,171,16065,2,0,L|227:197,1,75
337,314,16271,2,0,L|194:262,1,150
104,306,16579,2,0,L|177:332,1,75,8|0,2:0|0:0,0:0:0:0:
408,303,16785,1,0,0:0:0:0:
449,319,16887,1,0,0:0:0:0:
347,328,16990,6,0,L|387:256,1,75,8|0,3:0|0:0,0:0:0:0:
430,182,17195,1,0,0:0:0:0:
430,182,17298,1,0,0:0:0:0:
342,155,17401,1,8,2:0:0:0:
386,97,17504,6,0,P|357:121|342:155,1,75,8|0,1:0|0:0,0:0:0:0:
220,75,17709,2,0,P|227:111|248:141,1,75,8|0,1:0|0:0,0:0:0:0:
117,207,17915,2,0,P|152:219|189:215,1,75,8|0,1:0|0:0,0:0:0:0:
283,210,18120,1,0,0:0:0:0:
179,362,18223,2,0,P|207:337|222:303,3,75,8|0|8|0,3:0|0:0|3:0|0:0,0:0:0:0:
167,375,18634,2,0,P|229:363|267:311,1,131.250001251698,2|0,1:0|0:0,0:0:0:0:
386,97,18839,1,8,3:0:0:0:
400,56,18941,1,0,0:0:0:0:
327,128,19044,5,10,2:0:0:0:
368,143,19147,1,0,0:0:0:0:
409,158,19250,1,0,0:0:0:0:
435,252,19353,2,0,L|362:224,1,75
182,337,19558,2,0,L|327:282,1,150
435,369,19867,2,0,L|362:341,1,75,8|0,2:0|0:0,0:0:0:0:
146,263,20072,1,0,0:0:0:0:
106,249,20174,1,0,0:0:0:0:
36,277,20278,6,0,P|30:233|54:195,1,89.9999972534181,8|0,3:0|0:0,0:0:0:0:
258,143,20483,2,0,P|222:169|178:167,1,89.9999972534181,8|0,3:0|0:0,0:0:0:0:
30,17,20688,2,0,P|70:34|90:73,1,89.9999972534181,8|0,2:0|0:0,0:0:0:0:
181,346,20894,2,0,L|145:263,1,89.9999972534181,8|0,3:0|0:0,0:0:0:0:
18,91,21099,6,0,L|10:97,3,7.5,0|0|0|0,1:0|1:0|1:0|1:0,0:0:0:0:
172,62,21613,1,0,0:0:0:0:
172,62,21716,2,0,B|148:26|148:26|189:48|252:52,1,150,4|0,1:0|0:0,0:0:0:0:
446,62,21921,2,0,B|469:26|469:26|428:48|365:52,1,150,4|0,1:0|0:0,0:0:0:0:
308,263,22127,1,0,0:0:0:0:
76,72,22332,5,8,1:0:0:0:
93,137,22435,1,8,1:0:0:0:
111,203,22538,1,8,1:0:0:0:
128,269,22641,1,8,1:0:0:0:
48,324,22743,6,0,L|22:228,1,89.9999972534181,8|0,3:0|0:0,0:0:0:0:
156,17,22949,2,0,L|181:112,1,89.9999972534181,4|0,2:0|0:0,0:0:0:0:
145,335,23154,5,8,1:0:0:0:
211,318,23257,1,8,1:0:0:0:
277,300,23360,1,8,1:0:0:0:
342,283,23462,1,8,1:0:0:0:
390,360,23565,6,0,L|439:274,1,89.9999972534181,8|0,3:0|0:0,0:0:0:0:
284,307,23771,1,8,1:0:0:0:
349,290,23874,1,8,1:0:0:0:
397,367,23976,6,0,L|446:281,1,89.9999972534181,8|0,3:0|0:0,0:0:0:0:
291,314,24182,1,8,1:0:0:0:
356,297,24285,1,8,1:0:0:0:
228,248,24387,5,8,3:0:0:0:
358,212,24490,1,4,3:0:0:0:
237,256,24593,1,8,3:0:0:0:
368,221,24696,1,4,3:0:0:0:
267,139,24798,6,0,L|259:105,3,28.1250010728836
254,87,25004,2,0,L|245:52,2,28.1250010728836
383,0,25209,6,0,L|363:110,1,112.500004291535
424,166,25415,1,0,0:0:0:0:
395,0,25517,2,0,L|375:110,1,112.500004291535
436,166,25723,1,0,0:0:0:0:
407,0,25825,2,0,L|366:228,1,225.000008583069
62,26,26134,1,0,0:0:0:0:
170,7,26236,6,0,B|112:106|112:106|2:107,1,225.000008583069,8|0,3:0|0:0,0:0:0:0:
172,274,26545,2,0,B|112:179|112:179|-1:180,1,225.000008583069,8|0,3:0|0:0,0:0:0:0:
233,42,26853,2,0,B|177:139|177:139|236:237,1,225.000008583069,8|0,3:0|0:0,0:0:0:0:
320,42,27161,6,0,B|261:137|261:137|320:233|320:233|380:137|380:137|410:91|410:91|485:137|485:137|410:184|410:184|380:137|380:137|353:95,1,675.000025749207,8|0,3:0|0:0,0:0:0:0:
202,193,28497,6,0,L|223:228,15,30,8|0|0|0|0|0|0|0|0|0|0|0|0|0|0|0,3:0|0:0|0:0|0:0|0:0|0:0|0:0|0:0|0:0|0:0|0:0|0:0|0:0|0:0|0:0|0:0,0:0:0:0:
139,251,30141,2,0,L|117:286,15,30,8|0|0|0|0|0|0|0|0|0|0|0|0|0|0|0,3:0|0:0|0:0|0:0|0:0|0:0|0:0|0:0|0:0|0:0|0:0|0:0|0:0|0:0|0:0|0:0,0:0:0:0:
202,309,31784,6,0,L|224:344,7,30,8|0|0|0|0|0|0|0,3:0|0:0|0:0|0:0|0:0|0:0|0:0|0:0,0:0:0:0:
139,251,32606,2,0,L|117:286,7,30,8|0|0|0|0|0|0|0,3:0|0:0|0:0|0:0|0:0|0:0|0:0|0:0,0:0:0:0:
202,193,33428,2,0,L|224:228,7,30,8|0|0|0|0|0|0|0,3:0|0:0|0:0|0:0|0:0|0:0|0:0|0:0,0:0:0:0:
139,135,34250,6,0,L|117:170,3,30,8|0|0|0,3:0|0:0|0:0|0:0,0:0:0:0:
208,188,34661,2,0,L|230:223,3,30,8|0|0|0,3:0|0:0|0:0|0:0,0:0:0:0:
59,101,35073,5,8,3:0:0:0:
81,36,35175,1,0,0:0:0:0:
139,1,35278,1,0,0:0:0:0:
209,14,35380,1,0,0:0:0:0:
253,66,35483,1,0,0:0:0:0:
253,135,35586,1,0,0:0:0:0:
208,188,35688,1,0,0:0:0:0:
140,199,35791,1,0,0:0:0:0:
80,164,35894,5,8,3:0:0:0:
141,131,35997,1,0,0:0:0:0:
211,133,36099,1,0,0:0:0:0:
271,170,36202,1,0,0:0:0:0:
305,233,36305,1,0,0:0:0:0:
365,270,36408,1,0,0:0:0:0:
435,272,36510,1,0,0:0:0:0:
496,239,36613,1,0,0:0:0:0:
512,108,36716,5,8,3:0:0:0:
442,102,36819,1,0,0:0:0:0:
390,136,36921,1,0,0:0:0:0:
334,140,37024,1,0,0:0:0:0:
315,87,37127,1,8,3:0:0:0:
270,82,37230,1,0,0:0:0:0:
246,142,37332,1,0,0:0:0:0:
205,144,37435,1,0,0:0:0:0:
167,71,37538,5,8,3:0:0:0:
146,68,37641,1,0,0:0:0:0:
125,163,37743,1,8,3:0:0:0:
105,167,37846,1,0,0:0:0:0:
75,42,37949,1,8,3:0:0:0:
54,39,38052,1,0,0:0:0:0:
32,183,38154,1,8,3:0:0:0:
10,186,38257,1,0,0:0:0:0:
125,163,38360,6,0,P|127:182|122:200,1,37.5,8|0,3:0|0:0,0:0:0:0:
155,176,38462,2,0,P|150:194|138:211,1,41.2500012588501
179,199,38565,2,0,P|166:215|148:225,1,43.1250008225441
192,227,38668,2,0,P|173:239|151:243,1,44.999998626709
193,259,38771,2,0,P|170:263|148:258,1,46.875
181,287,38873,2,0,P|157:283|137:269,1,48.7499977684022
161,308,38976,2,0,P|139:294|126:273,1,50.6250001931191
132,320,39079,2,0,P|116:298|110:272,1,52.4999983978272
103,319,39182,2,0,P|95:293|100:267,1,52.4999983978272
74,305,39284,2,0,P|75:278|91:254,1,56.2500021457673
53,284,39387,2,0,P|66:259|89:243,1,58.1250004434586
43,255,39490,2,0,P|65:236|94:229,1,60
44,226,39593,2,0,P|69:217|96:222,1,56.2500021457673
56,197,39695,2,0,P|86:199|112:216,1,63.7500012159348
79,173,39798,2,0,P|107:187|127:214,1,67.4999979400635
109,164,39901,2,0,P|128:187|137:220,1,67.4999979400635
161,308,40004,5,8,3:0:0:0:
75,366,41236,5,8,3:0:0:0:
72,108,41442,1,8,2:0:0:0:
75,366,41647,6,0,B|63:346|63:314|83:290|83:290|41:282|41:282|124:256|124:144|72:108,1,337.500012874604,12|0,1:0|0:0,0:0:0:0:
156,351,42058,5,8,2:0:0:0:
141,333,42161,1,0,0:0:0:0:
164,269,42264,1,0,0:0:0:0:
186,206,42367,1,0,0:0:0:0:
255,327,42469,5,8,3:0:0:0:
239,297,42572,1,0,0:0:0:0:
255,298,42675,1,0,0:0:0:0:
272,298,42778,1,0,0:0:0:0:
355,350,42880,5,8,2:0:0:0:
368,333,42983,1,0,0:0:0:0:
346,270,43086,1,0,0:0:0:0:
323,206,43188,1,0,0:0:0:0:
446,115,43291,6,0,B|422:115|422:115|397:78|397:78|323:206|323:206|242:207|242:207|259:171,1,337.500012874604,8|0,3:0|0:0,0:0:0:0:
303,98,43702,5,8,2:0:0:0:
316,75,43805,1,0,0:0:0:0:
417,193,43908,1,0,0:0:0:0:
405,215,44010,1,0,0:0:0:0:
324,207,44113,5,8,3:0:0:0:
357,150,44216,1,0,0:0:0:0:
389,95,44319,1,0,0:0:0:0:
420,40,44421,1,0,0:0:0:0:
238,60,44524,6,0,L|302:97,1,75,8|0,2:0|0:0,0:0:0:0:
481,230,44730,2,0,L|416:192,1,75
174,23,44935,6,0,B|155:38|155:87|187:120|187:120|131:123|131:123|198:161|198:242|175:281,1,337.500012874604,8|0,3:0|0:0,0:0:0:0:
27,345,45346,5,8,2:0:0:0:
40,360,45449,1,0,0:0:0:0:
107,352,45552,1,0,0:0:0:0:
173,342,45655,1,0,0:0:0:0:
229,253,45757,5,8,3:0:0:0:
235,330,45860,1,0,0:0:0:0:
253,346,45963,2,0,L|342:331,1,75
118,254,46168,1,8,2:0:0:0:
135,269,46271,2,0,L|224:254,1,75
1,178,46477,1,0,0:0:0:0:
1,178,46579,6,0,B|13:226|0:289|0:289|19:198|88:160|164:160,1,337.500012874604,8|0,3:0|0:0,0:0:0:0:
361,159,46990,5,8,2:0:0:0:
320,260,47093,1,0,0:0:0:0:
307,103,47195,1,0,0:0:0:0:
266,204,47298,1,0,0:0:0:0:
253,47,47401,5,8,3:0:0:0:
193,68,47504,1,0,0:0:0:0:
133,89,47606,1,0,0:0:0:0:
73,111,47709,1,0,0:0:0:0:
29,236,47812,6,0,P|139:237|224:307,1,225,10|0,2:0|0:0,0:0:0:0:
200,379,48017,2,0,P|89:378|4:308,1,225,2|0,2:0|0:0,0:0:0:0:
100,220,48223,6,0,B|125:220|155:231|178:248|178:248|184:200|184:200|236:252|324:252|367:201,1,337.500012874604,12|0,1:0|0:0,0:0:0:0:
356,36,48634,5,12,1:0:0:0:
333,36,48737,1,0,0:0:0:0:
300,94,48839,1,0,0:0:0:0:
266,152,48943,1,0,0:0:0:0:
401,99,49045,5,8,3:0:0:0:
380,127,49148,1,0,0:0:0:0:
396,130,49251,1,0,0:0:0:0:
412,132,49354,1,0,0:0:0:0:
466,55,49456,5,8,2:0:0:0:
487,63,49559,1,0,0:0:0:0:
498,129,49662,1,0,0:0:0:0:
510,195,49765,1,0,0:0:0:0:
391,161,49867,6,0,B|385:192|385:192|325:205|325:205|375:242|375:242|354:364|354:364|402:334,1,337.500012874604,8|0,3:0|0:0,0:0:0:0:
448,272,50278,5,8,2:0:0:0:
452,248,50380,1,0,0:0:0:0:
296,275,50483,1,0,0:0:0:0:
291,298,50586,1,0,0:0:0:0:
391,161,50688,6,0,L|406:72,3,89.9999972534181,8|0|0|0,3:0|0:0|0:0|0:0,0:0:0:0:
270,139,51099,6,0,L|368:156,1,89.9999972534181,8|0,2:0|0:0,0:0:0:0:
511,182,51305,2,0,L|412:164,1,89.9999972534181
205,285,51510,6,0,B|218:252|183:220|183:220|230:203|230:203|190:179|179:120|218:84|218:84|187:114|147:108,1,337.500012874604,12|0,1:0|0:0,0:0:0:0:
26,61,51921,5,8,2:0:0:0:
92,49,52024,1,0,0:0:0:0:
159,37,52127,1,0,0:0:0:0:
270,139,52230,6,0,L|384:118,1,89.9999972534181,4|8,1:0|3:0,0:0:0:0:
73,179,52435,1,0,0:0:0:0:
154,260,52538,2,0,L|268:239,1,89.9999972534181,4|0,1:0|0:0,0:0:0:0:
38,384,52743,1,8,2:0:0:0:
408,318,52949,1,8,3:0:0:0:
256,4,53154,6,0,L|256:64,6,44.999998626709,8|0|0|0|0|0|0,3:0|0:0|0:0|0:0|0:0|0:0|0:0,0:0:0:0:
320,92,53565,5,12,3:0:0:0:
256,232,53668,1,4,3:0:0:0:
192,92,53771,1,4,3:0:0:0:
256,248,53873,1,4,3:0:0:0:
84,202,53976,5,8,3:0:0:0:
84,202,54079,2,0,L|-23:163,1,89.9999972534181,4|0,1:0|0:0,0:0:0:0:
256,264,54284,1,0,0:0:0:0:
264,141,54387,2,0,L|156:102,1,89.9999972534181,4|0,1:0|0:0,0:0:0:0:
444,80,54593,2,0,P|419:117|414:161,1,89.9999972534181,0|0,2:0|0:0,0:0:0:0:
485,384,54798,6,0,L|514:384,1,26.25,8|0,3:0|0:0,0:0:0:0:
353,240,55209,5,8,2:0:0:0:
332,251,55312,1,0,0:0:0:0:
338,318,55414,1,0,0:0:0:0:
345,384,55517,1,0,0:0:0:0:
416,303,55620,5,8,3:0:0:0:
426,337,55723,1,0,0:0:0:0:
438,325,55825,1,0,0:0:0:0:
448,313,55929,1,0,0:0:0:0:
353,240,56031,5,8,2:0:0:0:
364,220,56134,1,0,0:0:0:0:
431,226,56236,1,0,0:0:0:0:
498,233,56339,1,0,0:0:0:0:
426,337,56442,6,0,B|372:337|372:337|338:318|338:318|345:384|345:384|207:384|207:384|202:340,1,337.500012874604,8|0,3:0|0:0,0:0:0:0:
275,245,56853,5,8,2:0:0:0:
273,226,56956,1,0,0:0:0:0:
113,260,57058,1,0,0:0:0:0:
112,240,57161,1,0,0:0:0:0:
184,151,57264,5,8,3:0:0:0:
190,214,57366,1,0,0:0:0:0:
196,278,57469,1,0,0:0:0:0:
202,344,57572,1,0,0:0:0:0:
322,313,57675,5,8,2:0:0:0:
322,313,57778,2,0,P|376:316|416:276,1,89.9999972534181
512,239,57983,2,0,P|453:206|347:247,1,179.999994506836
276,244,58291,2,0,P|291:193|330:165,1,89.9999972534181
512,19,58497,5,8,2:0:0:0:
448,96,58599,1,0,0:0:0:0:
460,108,58702,2,0,L|523:119,2,44.999998626709
325,73,58908,5,8,3:0:0:0:
261,150,59010,1,0,0:0:0:0:
273,162,59113,2,0,L|336:173,2,44.999998626709
100,222,59319,6,0,L|206:240,1,89.9999972534181,8|0,2:0|0:0,0:0:0:0:
379,271,59524,2,0,L|493:291,1,89.9999972534181,8|0,2:0|0:0,0:0:0:0:
92,174,59730,6,0,L|76:262,3,89.9999972534181,8|0|0|0,3:0|0:0|0:0|0:0,0:0:0:0:
100,222,60141,6,0,L|206:240,1,89.9999972534181,8|0,2:0|0:0,0:0:0:0:
379,271,60346,2,0,L|493:291,1,89.9999972534181,8|0,2:0|0:0,0:0:0:0:
92,174,60551,5,0,0:0:0:0:
86,203,60654,1,0,0:0:0:0:
82,231,60757,1,0,0:0:0:0:
76,262,60860,1,0,0:0:0:0:
204,240,60962,5,12,1:0:0:0:
26,318,61168,2,0,P|63:340|107:332,1,89.9999972534181
111,74,61373,6,0,L|106:101,1,26.25,8|0,3:0|0:0,0:0:0:0:
18,33,61784,5,8,2:0:0:0:
0,48,61887,1,0,0:0:0:0:
11,115,61990,1,0,0:0:0:0:
22,181,62093,1,0,0:0:0:0:
111,74,62195,5,8,3:0:0:0:
90,101,62298,1,0,0:0:0:0:
106,103,62401,1,0,0:0:0:0:
123,106,62504,1,0,0:0:0:0:
214,69,62606,5,8,2:0:0:0:
223,88,62709,1,0,0:0:0:0:
191,146,62812,1,0,0:0:0:0:
157,205,62914,1,0,0:0:0:0:
22,181,63017,6,0,B|22:213|22:213|62:229|62:229|-26:277|-26:277|-26:385|-26:385|46:349,1,337.500012874604,8|0,3:0|0:0,0:0:0:0:
232,248,63428,5,8,2:0:0:0:
96,304,63531,1,0,0:0:0:0:
232,360,63634,1,0,0:0:0:0:
76,304,63736,1,0,0:0:0:0:
296,304,63839,6,0,L|333:304,12,22.4999993133545,8|0|0|0|0|0|0|0|0|0|0|0|0,3:0|0:0|0:0|0:0|0:0|0:0|0:0|0:0|0:0|0:0|0:0|0:0|0:0,0:0:0:0:
232,248,64250,5,8,1:0:0:0:
181,197,64353,1,8,3:0:0:0:
232,146,64456,1,8,1:0:0:0:
282,197,64558,1,8,3:0:0:0:
101,202,64661,6,0,P|110:159|143:129,1,89.9999972534181,8|0,3:0|0:0,0:0:0:0:
361,203,64867,2,0,P|352:159|319:129,1,89.9999972534181
0,71,65072,5,8,2:0:0:0:
7,93,65175,1,0,0:0:0:0:
74,105,65278,1,0,0:0:0:0:
140,117,65381,1,0,0:0:0:0:
196,8,65483,6,0,L|222:108,1,89.9999972534181,12|0,1:0|0:0,0:0:0:0:
425,63,65688,1,0,0:0:0:0:
357,130,65791,2,0,L|277:209,1,89.9999972534181,4|0,1:0|2:0,0:0:0:0:
423,355,65997,1,0,0:0:0:0:
331,330,66099,2,0,L|222:301,1,89.9999972534181,4|0,1:0|2:0,0:0:0:0:
70,204,66305,6,0,B|12:197|-24:137|-24:137|44:253|30:351,1,337.500012874604,8|0,3:0|0:0,0:0:0:0:
183,328,66716,5,8,2:0:0:0:
82,287,66819,1,0,0:0:0:0:
239,274,66921,1,0,0:0:0:0:
138,233,67024,1,0,0:0:0:0:
295,220,67127,6,0,B|299:228|299:228|304:215|304:215|305:230|305:230|311:218|311:218|310:233|310:233|316:221|316:221|317:235|317:235|322:223|322:223|328:240|328:240|333:229|333:229|339:246|339:246|345:234|345:234|352:251|352:251|357:239|357:239|366:251|366:251|448:286,1,300,8|0,3:0|3:0,0:0:0:0:
6,0,67538,5,8,3:0:0:0:
11,264,67743,1,8,2:0:0:0:
6,0,67949,6,0,B|18:20|18:52|-2:76|-2:76|40:84|40:84|-32:112|-44:224|24:276,1,337.500012874604,12|0,1:0|0:0,0:0:0:0:
96,184,68360,5,8,2:0:0:0:
99,266,68462,1,0,0:0:0:0:
170,279,68565,1,0,0:0:0:0:
241,291,68668,1,0,0:0:0:0:
308,221,68771,5,8,3:0:0:0:
312,304,68873,1,0,0:0:0:0:
348,310,68976,1,0,0:0:0:0:
383,316,69079,1,0,0:0:0:0:
450,246,69182,6,0,L|203:202,1,250,10|0,2:0|0:0,0:0:0:0:
0,155,69387,2,0,L|221:194,1,225.000008583069,2|0,2:0|0:0,0:0:0:0:
378,96,69593,5,8,3:0:0:0:
61,198,69798,2,0,P|67:241|98:273,1,89.9999972534181,6|0,3:0|0:0,0:0:0:0:
0,243,70004,2,0,P|33:272|77:276,1,89.9999972534181,2|0,3:0|0:0,0:0:0:0:
394,93,70209,1,0,0:0:0:0:
414,90,70312,1,0,0:0:0:0:
363,203,70415,6,0,P|270:117|327:4,1,269.999991760254,8|0,3:0|0:0,0:0:0:0:
171,135,70825,6,0,L|273:116,1,89.9999972534181,8|0,2:0|0:0,0:0:0:0:
502,74,71031,2,0,L|399:92,1,89.9999972534181
106,98,71236,6,0,B|87:113|87:162|119:195|119:195|63:198|63:198|130:236|130:317|107:356,1,337.500012874604,8|0,3:0|0:0,0:0:0:0:
317,366,71647,5,8,2:0:0:0:
235,379,71750,1,0,0:0:0:0:
248,307,71853,1,0,0:0:0:0:
261,237,71956,1,0,0:0:0:0:
190,200,72058,5,8,3:0:0:0:
261,164,72161,1,0,0:0:0:0:
255,128,72264,1,0,0:0:0:0:
249,93,72367,1,0,0:0:0:0:
314,18,72469,6,0,L|357:265,1,250,10|0,2:0|0:0,0:0:0:0:
376,372,72674,2,0,L|415:151,1,225.000008583069,2|0,2:0|0:0,0:0:0:0:
440,0,72880,5,8,3:0:0:0:
62,317,73086,2,0,P|106:318|142:292,1,89.9999972534181,2|0,3:0|0:0,0:0:0:0:
95,384,73292,2,0,P|129:356|141:313,1,89.9999972534181,2|0,3:0|0:0,0:0:0:0:
74,115,73497,1,0,0:0:0:0:
70,93,73600,1,0,0:0:0:0:
107,21,73702,6,0,P|86:190|7:40,1,450,8|0,3:0|0:0,0:0:0:0:
96,219,74113,2,0,L|101:250,12,18.75
72,306,74524,6,0,B|101:318|132:310|154:290|154:290|160:338|160:338|212:286|300:286|343:337,1,337.500012874604,12|0,1:0|0:0,0:0:0:0:
436,323,74936,5,8,2:0:0:0:
353,320,75038,1,0,0:0:0:0:
340,249,75140,1,0,0:0:0:0:
328,178,75243,1,0,0:0:0:0:
398,110,75346,5,8,3:0:0:0:
315,107,75448,1,0,0:0:0:0:
309,71,75551,1,0,0:0:0:0:
303,36,75654,1,0,0:0:0:0:
186,2,75757,6,0,L|230:249,1,250,10|0,2:0|0:0,0:0:0:0:
286,384,75962,2,0,L|247:163,1,225.000008583069,2|0,2:0|0:0,0:0:0:0:
69,34,76168,5,8,3:0:0:0:
426,112,76373,2,0,P|419:68|387:37,1,89.9999972534181,2|0,3:0|0:0,0:0:0:0:
485,67,76579,2,0,P|451:38|407:34,1,89.9999972534181,2|0,3:0|0:0,0:0:0:0:
112,187,76784,1,0,0:0:0:0:
92,190,76887,1,0,0:0:0:0:
143,77,76990,6,0,P|236:163|179:276,1,269.999991760254,8|0,3:0|0:0,0:0:0:0:
335,145,77401,6,0,L|233:164,1,89.9999972534181,8|0,2:0|0:0,0:0:0:0:
4,206,77607,2,0,L|107:188,1,89.9999972534181
403,103,77812,6,0,B|421:127|421:167|398:194|398:194|429:191|429:191|355:231|359:363|442:389,1,337.500012874604
297,254,78223,5,8,2:0:0:0:
312,370,78325,1,0,0:0:0:0:
239,356,78428,1,0,0:0:0:0:
170,344,78531,1,0,0:0:0:0:
155,228,78634,6,0,B|124:197|124:197|184:201|239:186,1,150,4|0,1:0|0:0,0:0:0:0:
439,228,78839,2,0,B|470:197|470:197|410:201|355:185,1,150,4|0,1:0|0:0,0:0:0:0:
297,0,79045,6,0,L|297:105,1,89.9999972534181,8|0,2:0|0:0,0:0:0:0:
297,275,79250,1,0,3:0:0:0:
50,28,79456,5,4,1:0:0:0:
35,56,79558,1,0,2:0:0:0:
40,89,79661,1,0,2:0:0:0:
53,119,79764,1,0,2:0:0:0:
152,144,79867,5,8,3:0:0:0:
152,164,79969,1,0,2:0:0:0:
51,205,80072,5,4,1:0:0:0:
65,228,80175,1,0,2:0:0:0:
79,251,80278,1,0,0:0:0:0:
183,276,80380,5,4,1:0:0:0:
169,299,80483,1,0,2:0:0:0:
155,322,80586,1,0,2:0:0:0:
211,230,80688,5,4,1:0:0:0:
480,364,80894,2,0,P|427:381|375:363,1,112.500004291535,2|0,1:0|0:0,0:0:0:0:
428,32,81099,6,0,L|428:60,1,26.25,8|0,3:0|0:0,0:0:0:0:
348,120,81510,5,8,2:0:0:0:
317,43,81613,1,0,0:0:0:0:
245,56,81715,1,0,0:0:0:0:
175,69,81818,1,0,0:0:0:0:
136,157,81921,5,8,3:0:0:0:
103,81,82023,1,0,0:0:0:0:
68,87,82126,1,0,0:0:0:0:
33,93,82230,1,0,0:0:0:0:
5,208,82332,6,0,L|252:164,1,250,10|0,2:0|0:0,0:0:0:0:
455,116,82537,2,0,L|234:156,1,225.000008583069,2|0,2:0|0:0,0:0:0:0:
101,68,82743,5,8,3:0:0:0:
288,337,82949,2,0,P|294:293|273:254,1,89.9999972534181,2|0,3:0|0:0,0:0:0:0:
16,384,83154,2,0,P|-5:345|1:301,1,89.9999972534181,2|0,3:0|0:0,0:0:0:0:
108,109,83360,1,0,0:0:0:0:
104,88,83463,1,0,0:0:0:0:
215,139,83565,6,0,P|128:230|16:173,1,269.999991760254,8|0,3:0|0:0,0:0:0:0:
101,68,83976,5,8,2:0:0:0:
101,68,84079,2,0,P|154:70|194:30,1,89.9999972534181
423,96,84284,2,0,P|349:47|264:69,1,179.999994506836
160,204,84593,2,0,P|177:163|214:138,1,89.9999972534181
461,315,84798,5,8,2:0:0:0:
474,233,84901,1,0,0:0:0:0:
402,246,85004,1,0,0:0:0:0:
332,259,85107,1,0,0:0:0:0:
295,188,85209,5,8,3:0:0:0:
259,259,85312,1,0,0:0:0:0:
223,252,85415,1,0,0:0:0:0:
188,246,85518,1,0,0:0:0:0:
61,274,85620,6,0,L|296:188,1,250,10|0,2:0|0:0,0:0:0:0:
474,233,85825,2,0,L|263:156,1,225.000008583069,2|0,2:0|0:0,0:0:0:0:
122,111,86031,5,8,3:0:0:0:
448,82,86237,2,0,P|413:54|369:53,1,89.9999972534181,2|0,3:0|0:0,0:0:0:0:
352,341,86442,2,0,P|307:339|273:312,1,89.9999972534181,2|0,3:0|0:0,0:0:0:0:
99,105,86647,1,0,0:0:0:0:
75,95,86750,1,0,0:0:0:0:
148,39,86853,5,0,0:0:0:0:
122,111,86956,1,0,0:0:0:0:
96,182,87058,1,0,0:0:0:0:
70,254,87161,1,0,0:0:0:0:
161,354,87264,6,0,B|166:338|166:338|181:331|181:331|170:293|170:293|200:210,1,150,8|0,2:0|0:0,0:0:0:0:
228,20,87469,2,0,P|212:61|224:103,1,89.9999972534181,2|0,1:0|0:0,0:0:0:0:
380,276,87675,1,8,3:0:0:0:
360,12,87880,2,0,P|318:26|293:63,1,89.9999972534181,2|0,1:0|0:0,0:0:0:0:
261,292,88086,5,8,3:0:0:0:
0,197,88291,2,0,L|73:209,1,75,2|0,2:0|0:0,0:0:0:0:
358,259,88497,1,8,3:0:0:0:
31,60,88702,2,0,L|69:124,1,75,2|0,2:0|0:0,0:0:0:0:
213,374,88908,1,8,3:0:0:0:
153,0,89113,2,0,L|128:70,1,75,2|0,2:0|0:0,0:0:0:0:
29,341,89319,5,0,0:0:0:0:
378,246,89524,2,0,L|399:238,4,18.75
470,321,89730,1,0,0:0:0:0:
121,226,89935,2,0,L|99:218,4,18.75
68,132,90141,6,0,B|48:155|23:167|23:167|102:126|164:156|164:156|216:124|240:68|164:8|88:68|112:124|164:156|164:156|190:170|244:169|280:156,1,562.5,8|0,3:0|0:0,0:0:0:0:
472,154,90552,5,8,2:0:0:0:
493,162,90654,1,0,0:0:0:0:
372,172,90757,1,8,2:0:0:0:
353,186,90859,1,0,0:0:0:0:
398,31,90962,6,0,L|411:104,1,75,8|0,3:0|0:0,0:0:0:0:
449,319,91168,2,0,L|435:245,1,75,8|0,3:0|0:0,0:0:0:0:
478,1,91373,5,8,2:0:0:0:
395,13,91476,1,0,0:0:0:0:
312,28,91579,1,0,0:0:0:0:
230,43,91682,1,0,0:0:0:0:
118,0,91784,6,0,L|166:79,1,75,4|0,1:0|0:0,0:0:0:0:
0,190,91990,1,0,0:0:0:0:
91,183,92093,2,0,L|183:180,1,75,4|0,1:0|2:0,0:0:0:0:
205,374,92298,1,0,0:0:0:0:
244,289,92401,2,0,L|287:207,1,75,4|0,1:0|0:0,0:0:0:0:
395,13,92606,2,0,L|396:65,1,45,8|0,3:0|0:0,0:0:0:0:
371,125,93017,5,8,1:0:0:0:
381,135,93120,1,8,1:0:0:0:
391,145,93223,1,8,1:0:0:0:
401,155,93325,1,8,1:0:0:0:
493,150,93428,5,8,1:0:0:0:
411,166,93531,1,8,1:0:0:0:
329,182,93634,1,8,1:0:0:0:
248,198,93736,1,8,1:0:0:0:
192,318,93839,5,4,3:0:0:0:
270,293,93942,1,4,3:0:0:0:
201,329,94045,1,4,3:0:0:0:
280,305,94148,1,4,3:0:0:0:
128,384,94250,6,0,L|94:260,1,112.500004291535,12|0,1:0|0:0,0:0:0:0:
68,56,94456,1,2,2:0:0:0:
0,156,94558,2,0,L|119:123,1,112.500004291535,0|8,0:0|2:0,0:0:0:0:
292,0,94764,1,0,1:0:0:0:
182,51,94867,2,0,L|302:83,1,112.500004291535,2|0,2:0|0:0,0:0:0:0:
444,237,95072,5,8,3:0:0:0:
400,111,95175,1,2,2:0:0:0:
512,198,95278,1,2,2:0:0:0:
332,150,95380,2,0,L|297:281,1,112.500004291535,2|8,2:0|2:0,0:0:0:0:
0,324,95586,1,0,0:0:0:0:
75,304,95689,1,2,2:0:0:0:
150,284,95791,1,0,0:0:0:0:
202,384,95894,6,0,L|233:268,1,112.500004291535,8|0,3:0|0:0,0:0:0:0:
304,43,96099,1,2,2:0:0:0:
332,151,96202,1,0,0:0:0:0:
374,0,96305,5,8,2:0:0:0:
298,20,96408,1,0,0:0:0:0:
221,41,96511,2,0,L|251:153,1,112.500004291535,2|0,2:0|0:0,0:0:0:0:
401,319,96716,5,10,3:0:0:0:
303,258,96819,1,0,0:0:0:0:
379,237,96921,1,2,2:0:0:0:
454,217,97024,2,0,L|423:104,1,112.500004291535,2|8,3:0|2:0,0:0:0:0:
142,178,97230,1,0,0:0:0:0:
250,149,97332,2,0,L|221:40,1,112.500004291535,2|0,3:0|0:0,0:0:0:0:
29,0,97538,6,0,L|0:108,1,112.500004291535,8|0,3:0|0:0,0:0:0:0:
108,309,97743,1,2,2:0:0:0:
136,201,97846,1,0,0:0:0:0:
178,351,97949,5,8,2:0:0:0:
102,332,98052,1,0,0:0:0:0:
25,311,98155,2,0,L|55:198,1,112.500004291535,2|0,2:0|0:0,0:0:0:0:
305,74,98360,5,8,3:0:0:0:
205,160,98463,1,2,2:0:0:0:
345,141,98566,1,2,2:0:0:0:
165,92,98668,2,0,L|129:222,1,112.500004291535,2|8,2:0|2:0,0:0:0:0:
407,311,98874,1,0,0:0:0:0:
331,331,98977,1,2,2:0:0:0:
256,351,99079,1,0,0:0:0:0:
264,240,99182,6,0,B|235:298|351:362|465:214,1,225,8|0,3:0|0:0,0:0:0:0:
512,227,99387,2,0,B|539:167|424:104|310:252,1,225,8|0,3:0|0:0,0:0:0:0:
52,148,99593,5,8,2:0:0:0:
112,244,99695,1,8,2:0:0:0:
125,227,99798,1,2,2:0:0:0:
138,210,99901,1,0,0:0:0:0:
151,193,100004,6,0,B|118:241|118:241|150:289|150:289|151:374,1,200,10|0,3:0|0:0,0:0:0:0:
214,191,100209,2,0,B|245:239|245:239|214:287|214:287|214:372,1,200,10|0,3:0|0:0,0:0:0:0:
181,111,100415,5,8,2:0:0:0:
181,111,100825,6,0,L|309:145,1,112.500004291535,8|0,3:0|0:0,0:0:0:0:
459,301,101031,1,2,2:0:0:0:
512,201,101134,2,0,L|383:235,1,112.500004291535,0|8,0:0|2:0,0:0:0:0:
285,124,101339,1,0,0:0:0:0:
338,24,101442,2,0,L|209:58,1,112.500004291535,2|0,2:0|0:0,0:0:0:0:
65,273,101647,5,8,3:0:0:0:
109,147,101750,1,2,2:0:0:0:
0,234,101853,1,2,2:0:0:0:
171,186,101955,2,0,L|206:317,1,112.500004291535,2|8,2:0|2:0,0:0:0:0:
512,314,102161,1,0,0:0:0:0:
440,272,102264,1,2,2:0:0:0:
373,233,102366,1,0,0:0:0:0:
316,332,102469,6,0,L|281:201,1,112.500004291535,8|0,3:0|0:0,0:0:0:0:
215,68,102675,1,2,2:0:0:0:
185,175,102778,1,0,0:0:0:0:
297,65,102881,5,8,2:0:0:0:
221,45,102984,1,0,0:0:0:0:
144,24,103087,2,0,L|113:135,1,112.500004291535,2|0,2:0|0:0,0:0:0:0:
76,356,103291,5,10,3:0:0:0:
21,254,103394,1,0,0:0:0:0:
97,273,103496,1,2,2:0:0:0:
172,294,103599,2,0,L|201:180,1,112.500004291535,2|8,3:0|2:0,0:0:0:0:
413,216,103805,1,0,0:0:0:0:
304,186,103908,2,0,L|332:77,1,112.500004291535,2|0,3:0|0:0,0:0:0:0:
512,0,104113,6,0,L|403:30,1,112.500004291535,8|0,3:0|0:0,0:0:0:0:
166,58,104319,1,2,2:0:0:0:
194,166,104422,1,0,0:0:0:0:
236,16,104525,5,8,2:0:0:0:
160,35,104628,1,0,0:0:0:0:
83,56,104731,2,0,L|113:169,1,112.500004291535,2|0,2:0|0:0,0:0:0:0:
0,304,104935,5,8,3:0:0:0:
101,277,105038,1,8,3:0:0:0:
75,383,105141,2,0,L|34:232,1,150,2|0,2:0|0:0,0:0:0:0:
249,104,105346,5,8,2:0:0:0:
155,206,105449,1,0,0:0:0:0:
287,248,105551,1,8,3:0:0:0:
134,211,105654,1,0,0:0:0:0:
363,150,105757,6,0,L|248:180,1,112.500004291535,8|0,1:0|0:0,0:0:0:0:
58,232,105962,1,2,1:0:0:0:
439,125,106168,2,0,L|441:132,3,7.5,4|4|4|4,3:0|3:0|3:0|3:0,0:0:0:0:
488,64,106579,2,0,P|519:108|512:163,1,112.500004291535,8|0,3:0|0:0,0:0:0:0:
254,179,106784,1,2,2:0:0:0:
233,185,106887,1,2,2:0:0:0:
97,263,106990,5,8,1:0:0:0:
174,242,107093,1,8,1:0:0:0:
154,165,107195,1,8,1:0:0:0:
76,185,107298,1,8,1:0:0:0:
204,76,107401,6,0,L|234:188,1,112.500004291535,12|0,1:0|0:0,0:0:0:0:
445,328,107606,1,2,2:0:0:0:
512,227,107708,2,0,L|392:260,1,112.500004291535,0|8,0:0|2:0,0:0:0:0:
220,384,107914,1,0,1:0:0:0:
330,332,108017,2,0,L|210:300,1,112.500004291535,2|0,2:0|0:0,0:0:0:0:
0,250,108223,5,8,3:0:0:0:
126,206,108326,1,2,2:0:0:0:
39,318,108429,1,2,2:0:0:0:
87,138,108531,2,0,L|218:173,1,112.500004291535,2|8,2:0|2:0,0:0:0:0:
486,79,108736,1,0,0:0:0:0:
413,120,108839,1,2,2:0:0:0:
346,158,108941,1,0,0:0:0:0:
403,257,109044,6,0,L|272:221,1,112.500004291535,8|0,3:0|0:0,0:0:0:0:
44,101,109250,1,2,2:0:0:0:
151,71,109353,1,0,0:0:0:0:
41,183,109456,5,8,2:0:0:0:
21,108,109559,1,0,0:0:0:0:
0,30,109662,2,0,L|111:-1,1,112.500004291535,2|0,2:0|0:0,0:0:0:0:
385,53,109867,5,10,3:0:0:0:
324,151,109970,1,0,0:0:0:0:
303,75,110072,1,2,2:0:0:0:
283,0,110175,2,0,L|170:31,1,112.500004291535,2|8,3:0|2:0,0:0:0:0:
178,262,110380,1,0,0:0:0:0:
149,154,110482,2,0,L|40:182,1,112.500004291535,2|0,3:0|0:0,0:0:0:0:
0,355,110689,6,0,L|113:386,1,112.500004291535,8|0,3:0|0:0,0:0:0:0:
364,302,110894,1,2,2:0:0:0:
257,272,110997,1,0,0:0:0:0:
367,384,111100,5,8,2:0:0:0:
387,309,111203,1,0,0:0:0:0:
408,231,111306,2,0,L|297:200,1,112.500004291535,2|0,2:0|0:0,0:0:0:0:
40,182,111510,5,8,3:0:0:0:
139,94,111613,1,2,2:0:0:0:
0,113,111716,1,2,2:0:0:0:
179,162,111819,2,0,L|309:197,1,112.500004291535,2|8,2:0|2:0,0:0:0:0:
472,105,112024,1,0,0:0:0:0:
492,181,112127,1,2,2:0:0:0:
512,256,112229,1,0,0:0:0:0:
401,248,112332,6,0,B|459:277|523:161|375:47,1,225,8|0,3:0|0:0,0:0:0:0:
388,0,112537,2,0,B|328:-27|265:88|413:202,1,225,8|0,3:0|0:0,0:0:0:0:
323,324,112743,5,8,2:0:0:0:
295,223,112846,1,8,3:0:0:0:
401,248,112949,2,0,L|249:287,1,150,2|0,2:0|0:0,0:0:0:0:
48,118,113154,5,8,3:0:0:0:
191,139,113257,1,0,0:0:0:0:
46,195,113360,1,2,2:0:0:0:
192,58,113462,1,0,0:0:0:0:
0,0,113565,5,8,2:0:0:0:
0,0,113976,6,0,L|112:30,1,112.500004291535,8|0,3:0|0:0,0:0:0:0:
291,207,114182,1,2,2:0:0:0:
191,139,114284,2,0,L|224:258,1,112.500004291535,0|8,0:0|2:0,0:0:0:0:
466,324,114490,1,0,0:0:0:0:
366,256,114592,2,0,L|399:375,1,112.500004291535,2|0,2:0|0:0,0:0:0:0:
11,316,114798,5,8,3:0:0:0:
137,272,114901,1,2,2:0:0:0:
50,384,115004,1,2,2:0:0:0:
98,204,115106,2,0,L|229:239,1,112.500004291535,2|8,2:0|2:0,0:0:0:0:
321,384,115312,1,0,0:0:0:0:
301,309,115415,1,2,2:0:0:0:
281,234,115517,1,0,0:0:0:0:
381,182,115620,6,0,L|265:151,1,112.500004291535,8|0,3:0|0:0,0:0:0:0:
42,70,115825,1,2,2:0:0:0:
150,42,115928,1,0,0:0:0:0:
0,0,116031,5,8,2:0:0:0:
19,76,116134,1,0,0:0:0:0:
40,153,116237,2,0,L|153:123,1,112.500004291535,2|0,2:0|0:0,0:0:0:0:
442,84,116442,5,10,3:0:0:0:
381,182,116545,1,0,0:0:0:0:
359,107,116647,1,2,2:0:0:0:
340,31,116750,2,0,L|226:62,1,112.500004291535,2|8,3:0|2:0,0:0:0:0:
301,309,116956,1,0,0:0:0:0:
272,201,117058,2,0,L|163:229,1,112.500004291535,2|0,3:0|0:0,0:0:0:0:
0,355,117264,6,0,L|112:385,1,112.500004291535,8|0,3:0|0:0,0:0:0:0:
409,280,117469,1,2,2:0:0:0:
301,309,117572,1,0,0:0:0:0:
410,198,117675,5,8,2:0:0:0:
431,273,117778,1,0,0:0:0:0:
452,350,117881,2,0,L|339:380,1,112.500004291535,2|0,2:0|0:0,0:0:0:0:
68,186,118086,6,0,P|107:224|162:229,1,112.500004291535,8|0,2:0|0:0,0:0:0:0:
336,126,118291,1,2,2:0:0:0:
318,259,118394,2,0,P|332:204|309:154,1,112.500004291535,8|0,2:0|0:0,0:0:0:0:
133,56,118599,1,2,2:0:0:0:
257,5,118702,2,0,P|202:19|170:64,1,112.500004291535,8|0,2:0|0:0,0:0:0:0:
310,285,118908,5,8,3:0:0:0:
407,60,119113,2,0,L|415:38,4,18.75,8|0|0|0|0,2:0|0:0|0:0|0:0|0:0,0:0:0:0:
331,8,119319,1,8,3:0:0:0:
414,311,119524,2,0,L|422:333,4,18.75,8|0|0|0|0,2:0|0:0|0:0|0:0|0:0,0:0:0:0:
127,173,119730,6,0,P|71:290|189:236,1,337.500012874604,8|0,3:0|0:0,0:0:0:0:
167,100,120141,5,8,3:0:0:0:
267,192,120243,1,0,0:0:0:0:
308,60,120346,1,8,3:0:0:0:
272,213,120449,1,0,0:0:0:0:
221,22,120552,6,0,L|249:128,1,100,4|0,1:0|0:0,0:0:0:0:
306,339,120825,1,0,0:0:0:0:
452,284,120962,5,8,2:0:0:0:
374,304,121099,1,0,0:0:0:0:
297,325,121236,1,0,0:0:0:0:
160,188,121373,5,8,3:0:0:0:
257,228,121510,1,0,0:0:0:0:
193,311,121647,1,0,0:0:0:0:
344,216,121784,2,0,L|235:244,1,100,8|0,2:0|0:0,0:0:0:0:
63,148,122058,1,0,0:0:0:0:
160,20,122195,6,0,P|154:51|182:113,1,100,8|0,3:0|0:0,0:0:0:0:
405,20,122469,1,0,0:0:0:0:
308,148,122606,2,0,P|313:116|285:54,1,100,8|0,2:0|0:0,0:0:0:0:
76,113,122880,1,0,0:0:0:0:
181,111,123017,6,0,P|205:153|202:202,1,100,8|0,3:0|0:0,0:0:0:0:
355,214,123291,1,0,0:0:0:0:
263,265,123428,2,0,P|262:314|290:354,1,100,8|0,2:0|0:0,0:0:0:0:
476,260,123702,1,0,0:0:0:0:
400,384,123839,6,0,L|372:279,1,100,8|0,3:0|0:0,0:0:0:0:
314,64,124113,1,0,0:0:0:0:
444,92,124250,5,8,2:0:0:0:
416,99,124387,1,0,0:0:0:0:
389,106,124524,1,0,0:0:0:0:
384,208,124661,5,8,3:0:0:0:
309,161,124798,1,0,0:0:0:0:
268,239,124935,1,0,0:0:0:0:
213,153,125072,5,8,2:0:0:0:
186,161,125209,1,0,0:0:0:0:
159,169,125346,1,0,0:0:0:0:
72,225,125483,5,8,3:0:0:0:
56,199,125620,1,0,0:0:0:0:
57,169,125757,1,0,0:0:0:0:
114,320,125894,5,8,2:0:0:0:
152,256,126031,1,0,0:0:0:0:
150,183,126168,1,0,0:0:0:0:
28,59,126305,5,8,3:0:0:0:
26,118,126442,1,0,0:0:0:0:
57,169,126579,1,0,0:0:0:0:
148,32,126716,5,8,2:0:0:0:
148,62,126853,1,0,0:0:0:0:
132,87,126990,1,0,0:0:0:0:
236,32,127127,6,0,L|208:136,1,100,8|0,3:0|0:0,0:0:0:0:
151,348,127400,1,0,0:0:0:0:
8,296,127538,5,8,2:0:0:0:
86,316,127675,1,0,0:0:0:0:
163,337,127812,1,0,0:0:0:0:
224,248,127949,5,8,3:0:0:0:
263,344,128086,1,0,0:0:0:0:
347,280,128223,1,0,0:0:0:0:
180,328,128360,6,0,L|288:358,1,100,8|0,2:0|0:0,0:0:0:0:
510,261,128634,1,0,0:0:0:0:
415,212,128771,6,0,P|441:170|439:121,1,100,8|0,3:0|0:0,0:0:0:0:
216,0,129045,1,0,0:0:0:0:
311,49,129182,2,0,P|284:90|286:139,1,100,8|0,2:0|0:0,0:0:0:0:
348,384,129455,1,0,0:0:0:0:
347,280,129593,6,0,P|305:253|256:255,1,100,8|0,3:0|0:0,0:0:0:0:
143,154,129867,1,0,0:0:0:0:
90,243,130004,2,0,P|40:245|0:218,1,100,8|0,2:0|0:0,0:0:0:0:
84,24,130277,1,0,0:0:0:0:
0,116,130415,6,0,L|108:144,1,100,8|0,3:0|0:0,0:0:0:0:
320,192,130688,1,0,0:0:0:0:
228,100,130825,6,0,L|264:136,6,37.5,8|0|0|0|0|0|0,2:0|0:0|0:0|0:0|0:0|0:0|0:0,0:0:0:0:
368,44,131236,2,0,L|354:94,6,37.5,8|0|0|0|0|0|0,3:0|0:0|0:0|0:0|0:0|0:0|0:0,0:0:0:0:
445,158,131647,2,0,L|394:171,6,37.5,8|0|0|0|0|0|0,2:0|0:0|0:0|0:0|0:0|0:0|0:0,0:0:0:0:
320,192,132058,5,8,3:0:0:0:
192,49,132195,1,8,3:0:0:0:
3,9,132332,1,8,3:0:0:0:
56,285,132469,5,8,3:0:0:0:
56,285,132880,5,8,3:0:0:0:
184,142,133017,1,8,3:0:0:0:
373,102,133154,1,8,3:0:0:0:
93,78,133291,5,8,3:0:0:0:
280,117,133428,1,8,3:0:0:0:
409,261,133565,1,8,3:0:0:0:
145,354,133702,5,8,3:0:0:0:
