osu file format v14

[General]
AudioFilename: audio.mp3
AudioLeadIn: 0
PreviewTime: 137941
Countdown: 0
SampleSet: Soft
StackLeniency: 0.2
Mode: 0
LetterboxInBreaks: 0
WidescreenStoryboard: 0

[Editor]
Bookmarks: 1013,2411,4529,10882,13705,24999,30647,33470,36294,41941,58882,80058,81470,92764,102647,104058,115352,126647,130882,136529,137941,143588,149235,153470,160529,171823,183117,184529,194411,195382,195647,198470,204117,204647,205705,209764,211176,216999,227235,233941,236764,238705,239588
DistanceSpacing: 1
BeatDivisor: 4
GridSize: 32
TimelineZoom: 2.979999

[Metadata]
Title:Under Mebius feat. Aitsuki Nakuru (YUKIYANAGI Remix)
TitleUnicode:Under Mebius feat. 藍月なくる (YUKIYANAGI Remix)
Artist:lapix
ArtistUnicode:lapix
Creator:huggu
Version:Easy
Source:
Tags:Rizing Destruction C98 electronic
BeatmapID:2458161
BeatmapSetID:1178703

[Difficulty]
HPDrainRate:5
CircleSize:3.5
OverallDifficulty:9
ApproachRate:9.5
SliderMultiplier:3.3
SliderTickRate:1

[Events]
//Background and Video events
0,0,"bgbg.jpg",0,0
//Break Periods
//Storyboard Layer 0 (Background)
//Storyboard Layer 1 (Fail)
//Storyboard Layer 2 (Pass)
//Storyboard Layer 3 (Foreground)
//Storyboard Layer 4 (Overlay)
//Storyboard Sound Samples

[TimingPoints]
1000,352.941176470588,4,1,0,100,1,0
2058,-333.333333333333,4,2,0,70,0,0
2323,-333.333333333333,4,2,0,5,0,0
2411,-166.666666666667,4,2,0,70,0,0
2764,-200,4,2,0,70,0,0
2941,-250,4,2,0,70,0,0
3205,-250,4,2,0,5,0,0
3294,-250,4,2,0,70,0,0
3558,-250,4,2,0,5,0,0
3647,-250,4,2,0,70,0,0
3823,-166.666666666667,4,2,0,70,0,0
4529,-250.000000000001,4,2,0,70,0,0
4794,-250.000000000001,4,2,0,5,0,0
4882,-166.666666666667,4,2,0,70,0,0
5235,-250,4,2,0,70,0,0
5499,-250,4,2,0,5,0,0
5588,-166.666666666667,4,2,0,70,0,0
5941,-200,4,2,0,70,0,0
6647,-166.666666666667,4,2,0,70,0,0
7176,-250.000000000001,4,2,0,70,0,0
7529,-250.000000000001,4,2,0,5,0,0
7705,-250.000000000001,4,2,0,70,0,0
7970,-250.000000000001,4,2,0,5,0,0
8058,-166.666666666667,4,2,0,70,0,0
8323,-166.666666666667,4,2,0,5,0,0
8411,-142.857142857143,4,2,0,70,0,0
8852,-142.857142857143,4,2,0,5,0,0
8941,-166.666666666667,4,2,0,70,0,0
9205,-166.666666666667,4,2,0,5,0,0
9294,-166.666666666667,4,2,0,70,0,0
10176,-250.000000000001,4,2,0,70,0,0
10441,-250.000000000001,4,2,0,5,0,0
10529,-166.666666666667,4,2,0,70,0,0
11235,-250.000000000001,4,2,0,70,0,0
11588,-333.333333333336,4,2,0,70,0,0
11941,-166.666666666667,4,2,0,70,0,0
12294,-142.857142857143,4,2,0,70,0,0
12823,-166.666666666667,4,2,0,70,0,0
12999,-333.333333333334,4,2,0,70,0,0
13352,-76.9230769230769,4,2,0,70,0,0
13970,-76.9230769230769,4,2,0,5,0,0
14058,-100,4,2,0,70,0,0
14235,-66.6666666666667,4,2,0,70,0,0
14764,-100,4,2,0,70,0,0
14852,-100,4,2,0,5,0,0
14941,-125,4,2,0,70,0,0
15117,-100,4,2,0,70,0,0
15205,-100,4,2,0,5,0,0
15294,-285.714285714286,4,2,0,70,0,0
15382,-95.2380952380952,4,2,0,5,0,0
15470,-90.9090909090909,4,2,0,70,0,0
15558,-90.9090909090909,4,2,0,5,0,0
15647,-285.714285714286,4,2,0,70,0,0
15735,-86.9565217391304,4,2,0,5,0,0
15823,-71.4285714285714,4,2,0,70,0,0
16176,-100,4,2,0,70,0,0
16264,-100,4,2,0,5,0,0
16352,-142.857142857143,4,2,0,70,0,0
16441,-142.857142857143,4,2,0,5,0,0
16529,-71.4285714285714,4,2,0,70,0,0
16882,-83.3333333333333,4,2,0,70,0,0
17147,-83.3333333333333,4,2,0,5,0,0
17235,-100,4,2,0,70,0,0
17941,-125,4,2,0,70,0,0
18999,-76.9230769230769,4,2,0,70,0,0
19352,-100,4,2,0,70,0,0
19882,-76.9230769230769,4,2,0,70,0,0
20147,-76.9230769230769,4,2,0,5,0,0
20235,-100,4,2,0,70,0,0
20764,-95.2380952380952,4,2,0,70,0,0
20852,-95.2380952380952,4,2,0,5,0,0
20941,-90.9090909090909,4,2,0,70,0,0
21029,-90.9090909090909,4,2,0,5,0,0
21117,-86.9565217391304,4,2,0,70,0,0
21205,-86.9565217391304,4,2,0,5,0,0
21294,-83.3333333333333,4,2,0,70,0,0
21382,-83.3333333333333,4,2,0,5,0,0
21470,-100,4,2,0,70,0,0
21735,-100,4,2,0,5,0,0
21823,-100,4,2,0,70,0,0
22176,-125,4,2,0,70,0,0
22441,-125,4,2,0,5,0,0
22529,-100,4,2,0,70,0,0
22882,-83.3333333333333,4,2,0,70,0,0
23588,-100,4,2,0,70,0,0
24294,-250.000000000001,4,2,0,70,0,0
24823,-100,4,2,0,70,0,0
24999,-125,4,2,0,70,0,0
25264,-125,4,2,0,5,0,0
25352,-125,4,2,0,70,0,0
26147,-125,4,2,0,5,0,0
26235,-200,4,2,0,70,0,0
26323,-200,4,2,0,5,0,0
26411,-125,4,2,0,70,0,0
26588,-250,4,2,0,70,0,0
26764,-125,4,2,0,70,0,0
27382,-142.857142857143,4,2,0,70,0,0
27647,-100,4,2,0,70,0,0
27823,-125,4,2,0,70,0,0
28088,-125,4,2,0,5,0,0
28176,-100,4,2,0,70,0,0
28264,-100,4,2,0,5,0,0
28352,-125,4,2,0,70,0,0
28617,-125,4,2,0,5,0,0
28705,-100,4,2,0,70,0,0
33470,-111.111111111111,4,2,0,70,0,0
34176,-125,4,2,0,70,0,0
34529,-142.857142857143,4,2,0,70,0,0
34882,-125,4,2,0,70,0,0
35058,-125,4,2,0,5,0,0
35147,-142.857142857143,4,2,0,70,0,0
35411,-166.666666666667,4,2,0,70,0,0
35588,-125,4,2,0,70,0,0
35941,-71.4285714285714,4,2,0,70,0,0
36117,-100,4,2,0,70,0,0
36294,-71.4285714285714,4,2,0,70,0,0
36558,-83.3333333333333,4,2,0,5,0,0
36647,-83.3333333333333,4,2,0,70,0,0
36823,-100,4,2,0,70,0,0
36867,-100,4,2,0,5,0,0
36911,-100,4,2,0,70,0,0
36955,-100,4,2,0,5,0,0
36999,-83.3333333333334,4,2,0,70,0,0
37088,-142.857142857143,4,2,0,5,0,0
37176,-83.3333333333333,4,2,0,70,0,0
37441,-83.3333333333333,4,2,0,5,0,0
37529,-71.4285714285714,4,2,0,70,0,0
37970,-100,4,2,0,5,0,0
38058,-83.3333333333333,4,2,0,70,0,0
38411,-62.5,4,2,0,70,0,0
38588,-100,4,2,0,70,0,0
38676,-83.3333333333333,4,2,0,70,0,0
38852,-83.3333333333333,4,2,0,5,0,0
38941,-100,4,2,0,70,0,0
39029,-100,4,2,0,5,0,0
39117,-66.6666666666667,4,2,0,70,0,0
39382,-83.3333333333333,4,2,0,5,0,0
39470,-83.3333333333333,4,2,0,70,0,0
39735,-100,4,2,0,70,0,0
39823,-83.3333333333333,4,2,0,70,0,0
39911,-125,4,2,0,5,0,0
39999,-71.4285714285714,4,2,0,70,0,0
40264,-83.3333333333333,4,2,0,5,0,0
40352,-100,4,2,0,70,0,0
40441,-100,4,2,0,5,0,0
40529,-83.3333333333333,4,2,0,70,0,0
40794,-100,4,2,0,70,0,0
40882,-83.3333333333333,4,2,0,70,0,0
41235,-71.4285714285714,4,2,0,70,0,0
41588,-166.666666666667,4,2,0,70,0,0
41941,-100,4,2,0,70,0,0
42647,-83.3333333333333,4,2,0,70,0,0
42823,-71.4285714285714,4,2,0,70,0,0
43088,-83.3333333333333,4,2,0,5,0,0
43176,-100,4,2,0,70,0,0
43705,-100,4,2,0,70,0,0
43970,-125,4,2,0,5,0,0
44058,-100,4,2,0,70,0,0
44323,-83.3333333333333,4,2,0,70,0,0
44499,-83.3333333333333,4,2,0,5,0,0
44588,-125,4,2,0,70,0,0
44676,-125,4,2,0,5,0,0
44764,-71.4285714285714,4,2,0,70,0,0
45029,-83.3333333333333,4,2,0,5,0,0
45117,-66.6666666666667,4,2,0,70,0,0
45382,-71.4285714285714,4,2,0,5,0,0
45470,-83.3333333333333,4,2,0,70,0,0
45558,-83.3333333333333,4,2,0,5,0,0
45647,-71.4285714285714,4,2,0,70,0,0
45911,-83.3333333333333,4,2,0,5,0,0
45999,-100,4,2,0,70,0,0
46176,-71.4285714285714,4,2,0,70,0,0
46441,-83.3333333333333,4,2,0,5,0,0
46529,-83.3333333333333,4,2,0,70,0,0
46794,-100,4,2,0,70,0,0
46882,-71.4285714285714,4,2,0,70,0,0
47235,-200,4,2,0,70,0,0
47411,-200,4,2,0,5,0,0
47588,-100,4,2,0,70,0,0
47852,-100,4,2,0,5,0,0
47941,-125,4,2,0,70,0,0
48117,-166.666666666667,4,2,0,70,0,0
48470,-111.111111111111,4,2,0,70,0,0
48823,-100,4,2,0,70,0,0
49352,-71.4285714285714,4,2,0,70,0,0
49705,-83.3333333333333,4,2,0,70,0,0
49882,-100,4,2,0,70,0,0
49970,-125,4,2,0,70,0,0
50147,-125,4,2,0,5,0,0
50235,-100,4,2,0,70,0,0
50323,-100,4,2,0,5,0,0
50411,-66.6666666666667,4,2,0,70,0,0
50676,-76.9230769230769,4,2,0,5,0,0
50764,-76.9230769230769,4,2,0,70,0,0
51029,-83.3333333333333,4,2,0,5,0,0
51117,-83.3333333333333,4,2,0,70,0,0
51205,-100,4,2,0,5,0,0
51294,-71.4285714285714,4,2,0,70,0,0
51558,-83.3333333333333,4,2,0,5,0,0
51647,-100,4,2,0,70,0,0
51735,-100,4,2,0,5,0,0
51823,-125,4,2,0,70,0,0
51911,-125,4,2,0,5,0,0
51999,-125,4,2,0,70,0,0
52529,-66.6666666666667,4,2,0,70,0,0
52705,-66.6666666666667,4,2,0,5,0,0
52794,-76.9230769230769,4,2,0,70,0,0
52970,-83.3333333333333,4,2,0,5,0,0
53058,-125,4,2,0,70,0,0
53235,-100,4,2,0,70,0,0
53676,-83.3333333333333,4,2,0,70,0,0
53764,-50,4,2,0,70,0,0
53852,-50,4,2,0,5,0,0
53941,-100,4,2,0,70,0,0
54117,-66.6666666666667,4,2,0,70,0,0
54382,-76.9230769230769,4,2,0,70,0,0
54470,-76.9230769230769,4,2,0,70,0,0
54911,-100,4,2,0,70,0,0
54999,-125,4,2,0,70,0,0
55352,-71.4285714285714,4,2,0,70,0,0
55529,-100,4,2,0,5,0,0
55617,-76.9230769230769,4,2,0,70,0,0
55794,-76.9230769230769,4,2,0,5,0,0
55882,-100,4,2,0,70,0,0
56058,-76.9230769230769,4,2,0,70,0,0
56323,-76.9230769230769,4,2,0,5,0,0
56411,-66.6666666666667,4,2,0,70,0,0
56676,-83.3333333333333,4,2,0,5,0,0
56764,-83.3333333333333,4,2,0,70,0,0
56852,-100,4,2,0,5,0,0
56941,-71.4285714285714,4,2,0,70,0,0
57205,-83.3333333333333,4,2,0,5,0,0
57294,-100,4,2,0,70,0,0
57647,-166.666666666667,4,2,0,70,0,0
58176,-333.333333333334,4,2,0,70,0,0
58529,-83.3333333333333,4,2,0,70,0,0
58882,-100,4,2,0,70,0,0
60294,-125,4,2,0,70,0,0
60823,-100,4,2,0,70,0,0
61705,-125,4,2,0,70,0,0
62411,-100,4,2,0,70,0,0
62588,-166.666666666667,4,2,0,70,0,0
63117,-125,4,2,0,70,0,0
63647,-100,4,2,0,70,0,0
63911,-100,4,2,0,5,0,0
63999,-83.3333333333333,4,2,0,70,0,0
64529,-125,4,2,0,70,0,0
65941,-100,4,2,0,70,0,0
66735,-100,4,2,0,5,0,0
66823,-125,4,2,0,70,0,0
67352,-100,4,2,0,70,0,0
67617,-100,4,2,0,5,0,0
67705,-142.857142857143,4,2,0,70,0,0
67970,-142.857142857143,4,2,0,5,0,0
68058,-100,4,2,0,70,0,0
68235,-125,4,2,0,70,0,0
69470,-83.3333333333333,4,2,0,70,0,0
69647,-142.857142857143,4,2,0,70,0,0
69999,-83.3333333333334,4,2,0,70,0,0
70176,-125,4,2,0,70,0,0
71411,-83.3333333333333,4,2,0,70,0,0
71941,-100,4,2,0,70,0,0
73352,-125,4,2,0,70,0,0
73705,-100,4,2,0,70,0,0
75470,-83.3333333333333,4,2,0,70,0,0
75823,-83.3333333333333,4,2,0,70,0,0
76882,-100,4,2,0,70,0,0
77058,-83.3333333333333,4,2,0,70,0,0
77588,-142.857142857143,4,2,0,70,0,0
78647,-100,4,2,0,70,0,0
80058,-142.857142857143,4,2,0,70,0,0
81382,-142.857142857143,4,2,0,5,0,0
81470,-200,4,2,0,45,0,0
82705,-200,4,2,0,5,0,0
82882,-200,4,2,0,45,0,0
84117,-200,4,2,0,5,0,0
84294,-200,4,2,0,45,0,0
86235,-200,4,2,0,5,0,0
86411,-200,4,2,0,45,0,0
86676,-200,4,2,0,5,0,0
86764,-200,4,2,0,45,0,0
87029,-200,4,2,0,5,0,0
87117,-200,4,2,0,45,0,0
88352,-200,4,2,0,5,0,0
88529,-200,4,2,0,45,0,0
89764,-200,4,2,0,5,0,0
89941,-200,4,2,0,45,0,0
91882,-200,4,2,0,5,0,0
92058,-200,4,2,0,45,0,0
92323,-200,4,2,0,5,0,0
92411,-200,4,2,0,45,0,0
92676,-200,4,2,0,5,0,0
92764,-200,4,2,0,45,0,0
93999,-200,4,2,0,5,0,0
94176,-200,4,2,0,45,0,0
95411,-200,4,2,0,5,0,0
95588,-200,4,2,0,45,0,0
97529,-200,4,2,0,5,0,0
97705,-200,4,2,0,45,0,0
97970,-200,4,2,0,5,0,0
98058,-200,4,2,0,45,0,0
98323,-200,4,2,0,5,0,0
98411,-200,4,2,0,45,0,0
99647,-200,4,2,0,5,0,0
99823,-200,4,2,0,45,0,0
101058,-200,4,2,0,5,0,0
101235,-200,4,2,0,45,0,0
102470,-200,4,2,0,5,0,0
102647,-100,4,2,0,45,0,0
103882,-100,4,2,0,60,0,0
104058,-125,4,2,0,60,0,0
104323,-125,4,2,0,5,0,0
104411,-125,4,2,0,60,0,0
104588,-166.666666666667,4,2,0,60,0,0
105470,-125,4,2,0,60,0,0
106176,-166.666666666667,4,2,0,60,0,0
106441,-166.666666666667,4,2,0,5,0,0
106529,-125,4,2,0,60,0,0
107588,-200,4,2,0,60,0,0
107941,-200,4,2,0,5,0,0
108117,-200,4,2,0,60,0,0
108294,-125,4,2,0,60,0,0
108999,-166.666666666667,4,2,0,60,0,0
109352,-166.666666666667,4,2,0,60,0,0
109529,-166.666666666667,4,2,0,5,0,0
109705,-125,4,2,0,60,0,0
109970,-125,4,2,0,5,0,0
110058,-125,4,2,0,60,0,0
110235,-200,4,2,0,60,0,0
111117,-125,4,2,0,60,0,0
111823,-166.666666666667,4,2,0,60,0,0
112088,-166.666666666667,4,2,0,5,0,0
112176,-166.666666666667,4,2,0,60,0,0
112529,-125,4,2,0,60,0,0
112882,-166.666666666667,4,2,0,60,0,0
114117,-166.666666666667,4,2,0,5,0,0
114205,-166.666666666667,4,2,0,60,0,0
114382,-166.666666666667,4,2,0,5,0,0
114470,-166.666666666667,4,2,0,60,0,0
114558,-166.666666666667,4,2,0,5,0,0
114647,-166.666666666667,4,2,0,60,0,0
114999,-83.3333333333333,4,2,0,60,0,0
115176,-66.6666666666667,4,2,0,60,0,0
115352,-83.3333333333333,4,2,0,70,0,0
115617,-100,4,2,0,5,0,0
115705,-100,4,2,0,70,0,0
115882,-166.666666666667,4,2,0,70,0,0
116764,-125,4,2,0,70,0,0
117470,-100,4,2,0,70,0,0
118882,-83.3333333333333,4,2,0,70,0,0
119147,-83.3333333333333,4,2,0,5,0,0
119235,-100,4,2,0,70,0,0
119588,-125,4,2,0,70,0,0
120647,-166.666666666667,4,2,0,70,0,0
120999,-100,4,2,0,70,0,0
121264,-100,4,2,0,5,0,0
121352,-100,4,2,0,70,0,0
121529,-166.666666666667,4,2,0,70,0,0
122058,-100,4,2,0,70,0,0
122411,-125,4,2,0,70,0,0
123117,-100,4,2,0,70,0,0
123382,-100,4,2,0,5,0,0
123470,-125,4,2,0,70,0,0
123823,-100,4,2,0,70,0,0
124088,-100,4,2,0,5,0,0
124176,-200,4,2,0,70,0,0
125235,-125,4,2,0,70,0,0
125499,-83.3333333333333,4,2,0,70,0,0
125764,-142.857142857143,4,2,0,70,0,0
125941,-250,4,2,0,70,0,0
126294,-125,4,2,0,70,0,0
126647,-142.857142857143,4,2,0,45,0,0
130882,-125,4,2,0,45,0,0
137941,-100,4,2,0,60,0,0
138205,-100,4,2,0,5,0,0
138294,-100,4,2,0,60,0,0
139352,-125,4,2,0,60,0,0
140058,-100,4,2,0,60,0,0
140323,-100,4,2,0,5,0,0
140411,-100,4,2,0,60,0,0
141117,-125,4,2,0,60,0,0
141470,-83.3333333333333,4,2,0,60,0,0
141735,-83.3333333333333,4,2,0,5,0,0
141823,-83.3333333333333,4,2,0,60,0,0
142176,-125,4,2,0,60,0,0
142882,-250.000000000001,4,2,0,60,0,0
143147,-166.666666666667,4,2,0,5,0,0
143235,-76.9230769230769,4,2,0,60,0,0
143499,-83.3333333333334,4,2,0,5,0,0
143588,-100,4,2,0,70,0,0
144999,-83.3333333333333,4,2,0,70,0,0
146411,-66.6666666666667,4,2,0,70,0,0
147823,-166.666666666667,4,2,0,70,0,0
148529,-125,4,2,0,70,0,0
148882,-83.3333333333333,4,2,0,70,0,0
149147,-83.3333333333333,4,2,0,5,0,0
149235,-71.4285714285714,4,2,0,75,0,1
149588,-83.3333333333333,4,2,0,75,0,1
150029,-125,4,2,0,75,0,1
150294,-100,4,2,0,75,0,1
150735,-125,4,2,0,75,0,1
150999,-83.3333333333333,4,2,0,75,0,1
151441,-125,4,2,0,75,0,1
151705,-83.3333333333333,4,2,0,75,0,1
151794,-100,4,2,0,75,0,1
151970,-166.666666666667,4,2,0,75,0,1
152147,-100,4,2,0,75,0,1
152411,-125,4,2,0,75,0,1
153117,-100,4,2,0,75,0,1
153470,-125,4,2,0,75,0,1
153823,-100,4,2,0,75,0,1
154176,-76.9230769230769,4,2,0,75,0,1
154705,-166.666666666667,4,2,0,75,0,1
154882,-76.9230769230769,4,2,0,75,0,1
155235,-83.3333333333333,4,2,0,75,0,1
155676,-125,4,2,0,75,0,1
155941,-83.3333333333333,4,2,0,75,0,1
156382,-125,4,2,0,75,0,1
156647,-83.3333333333333,4,2,0,75,0,1
157088,-125,4,2,0,75,0,1
157352,-83.3333333333333,4,2,0,75,0,1
157441,-100,4,2,0,75,0,1
157617,-166.666666666667,4,2,0,75,0,1
157794,-100,4,2,0,75,0,1
158499,-125,4,2,0,75,0,1
158764,-83.3333333333333,4,2,0,75,0,1
159117,-125,4,2,0,75,0,1
159470,-100,4,2,0,75,0,1
159823,-76.9230769230769,4,2,0,75,0,1
160176,-125,4,2,0,75,0,1
160352,-100,4,2,0,75,0,1
160529,-76.9230769230769,4,2,0,75,0,1
160794,-76.9230769230769,4,2,0,5,0,1
160882,-166.666666666667,4,2,0,75,0,1
161058,-83.3333333333333,4,2,0,75,0,1
161235,-76.923076923077,4,2,0,75,0,1
161499,-76.923076923077,4,2,0,5,0,1
161588,-100,4,2,0,75,0,1
161632,-100,4,2,0,5,0,1
161676,-100,4,2,0,75,0,1
161720,-100,4,2,0,5,0,1
161764,-100,4,2,0,75,0,1
161808,-100,4,2,0,5,0,1
161852,-100,4,2,0,75,0,1
161897,-100,4,2,0,5,0,1
161941,-100,4,2,0,75,0,1
162294,-83.3333333333333,4,2,0,75,0,1
162647,-71.4285714285714,4,2,0,75,0,1
162999,-100,4,2,0,75,0,1
163441,-83.3333333333333,4,2,0,75,0,1
163705,-125,4,2,0,75,0,1
163882,-100,4,2,0,75,0,1
164058,-76.9230769230769,4,2,0,75,0,1
164411,-100,4,2,0,75,0,1
164764,-83.3333333333333,4,2,0,75,0,1
165117,-76.9230769230769,4,2,0,75,0,1
165294,-125,4,2,0,75,0,1
165470,-76.9230769230769,4,2,0,75,0,1
165823,-100,4,2,0,75,0,1
166176,-66.6666666666667,4,2,0,75,0,1
166617,-76.9230769230769,4,2,0,5,0,1
166705,-100,4,2,0,75,0,1
166794,-100,4,2,0,5,0,1
166882,-76.923076923077,4,2,0,75,0,1
167147,-166.666666666667,4,2,0,5,0,1
167235,-100,4,2,0,75,0,1
167941,-166.666666666667,4,2,0,75,0,1
168294,-71.4285714285714,4,2,0,75,0,1
168558,-83.3333333333334,4,2,0,5,0,1
168647,-100,4,2,0,75,0,1
169705,-83.3333333333333,4,2,0,75,0,1
170411,-142.857142857143,4,2,0,75,0,1
170676,-200,4,2,0,75,0,1
170941,-125,4,2,0,75,0,1
171117,-100,4,2,0,75,0,1
171470,-100,4,2,0,60,0,1
171823,-76.9230769230769,4,2,0,75,0,1
172088,-76.9230769230769,4,2,0,5,0,1
172176,-100,4,2,0,75,0,1
172264,-100,4,2,0,5,0,1
172352,-100,4,2,0,75,0,1
172529,-83.3333333333333,4,2,0,75,0,1
172882,-83.3333333333333,4,2,0,75,0,1
173235,-80,4,2,0,75,0,1
173323,-80,4,2,0,5,0,1
173411,-250,4,2,0,75,0,1
173499,-76.9230769230769,4,2,0,5,0,1
173588,-74.0740740740741,4,2,0,75,0,1
173676,-74.0740740740741,4,2,0,5,0,1
173764,-250,4,2,0,75,0,1
173852,-71.4285714285714,4,2,0,5,0,1
173941,-76.9230769230769,4,2,0,75,0,1
174205,-76.9230769230769,4,2,0,5,0,1
174294,-100,4,2,0,75,0,1
174647,-83.3333333333333,4,2,0,75,0,1
174911,-83.3333333333333,4,2,0,5,0,1
174999,-200,4,2,0,75,0,1
175264,-200,4,2,0,5,0,1
175352,-76.9230769230769,4,2,0,75,0,1
175882,-100,4,2,0,75,0,1
175970,-100,4,2,0,5,0,1
176058,-83.3333333333333,4,2,0,75,0,1
176147,-83.3333333333333,4,2,0,5,0,1
176235,-80,4,2,0,75,0,1
176323,-80,4,2,0,5,0,1
176411,-76.9230769230769,4,2,0,75,0,1
176499,-76.9230769230769,4,2,0,5,0,1
176588,-74.0740740740741,4,2,0,75,0,1
176676,-74.0740740740741,4,2,0,5,0,1
176764,-142.857142857143,4,2,0,75,0,1
177029,-83.3333333333333,4,2,0,5,0,1
177117,-83.3333333333334,4,2,0,75,0,1
177294,-166.666666666667,4,2,0,5,0,1
177470,-66.6666666666667,4,2,0,75,0,1
177735,-76.923076923077,4,2,0,5,0,1
177823,-100,4,2,0,75,0,1
177911,-100,4,2,0,5,0,1
177999,-83.3333333333333,4,2,0,75,0,1
178176,-100,4,2,0,5,0,1
178352,-71.4285714285714,4,2,0,75,0,1
178529,-83.3333333333333,4,2,0,75,0,1
178882,-80,4,2,0,75,0,1
178970,-80,4,2,0,5,0,1
179058,-76.9230769230769,4,2,0,75,0,1
179147,-76.9230769230769,4,2,0,5,0,1
179235,-74.0740740740741,4,2,0,75,0,1
179323,-74.0740740740741,4,2,0,5,0,1
179411,-71.4285714285714,4,2,0,75,0,1
179499,-71.4285714285714,4,2,0,5,0,1
179588,-71.4285714285714,4,2,0,75,0,1
179852,-76.9230769230769,4,2,0,5,0,1
179941,-83.3333333333333,4,2,0,75,0,1
180294,-71.4285714285714,4,2,0,75,0,1
180647,-200,4,2,0,75,0,1
180911,-200,4,2,0,5,0,1
180999,-76.9230769230769,4,2,0,75,0,1
181529,-100,4,2,0,75,0,1
181705,-83.3333333333333,4,2,0,75,0,1
181882,-83.3333333333333,4,2,0,5,0,1
181970,-71.4285714285714,4,2,0,75,0,1
182147,-71.4285714285714,4,2,0,5,0,1
182235,-100,4,2,0,75,0,1
182323,-100,4,2,0,5,0,1
182411,-100,4,2,0,75,0,1
183117,-200,4,2,0,75,0,0
184176,-100,4,2,0,75,0,0
184352,-83.3333333333333,4,2,0,75,0,0
184529,-80,4,2,0,75,0,1
184617,-80,4,2,0,5,0,1
184705,-142.857142857143,4,2,0,75,0,1
184794,-76.9230769230769,4,2,0,5,0,1
184882,-74.0740740740741,4,2,0,75,0,1
184970,-74.0740740740741,4,2,0,5,0,1
185058,-142.857142857143,4,2,0,75,0,1
185147,-71.4285714285714,4,2,0,5,0,1
185235,-66.6666666666667,4,2,0,75,0,1
185499,-76.9230769230769,4,2,0,5,0,1
185588,-90.9090909090909,4,2,0,75,0,1
185941,-66.6666666666667,4,2,0,75,0,1
186205,-76.9230769230769,4,2,0,5,0,1
186294,-200,4,2,0,75,0,1
186558,-200,4,2,0,5,0,1
186647,-76.9230769230769,4,2,0,75,0,1
187176,-100,4,2,0,75,0,1
187264,-100,4,2,0,5,0,1
187352,-83.3333333333333,4,2,0,75,0,1
187441,-83.3333333333333,4,2,0,5,0,1
187529,-153.846153846154,4,2,0,75,0,1
187617,-80,4,2,0,5,0,1
187705,-76.9230769230769,4,2,0,75,0,1
187794,-76.9230769230769,4,2,0,5,0,1
187882,-153.846153846154,4,2,0,75,0,1
187970,-74.0740740740741,4,2,0,5,0,1
188058,-66.6666666666667,4,2,0,75,0,1
188323,-76.9230769230769,4,2,0,5,0,1
188411,-166.666666666667,4,2,0,75,0,1
188676,-83.3333333333333,4,2,0,5,0,1
188764,-66.6666666666667,4,2,0,75,0,1
189029,-76.9230769230769,4,2,0,5,0,1
189117,-90.9090909090909,4,2,0,75,0,1
189205,-90.9090909090909,4,2,0,5,0,1
189294,-83.3333333333333,4,2,0,75,0,1
189647,-76.9230769230769,4,2,0,75,0,1
190176,-80,4,2,0,75,0,1
190264,-80,4,2,0,5,0,1
190352,-166.666666666667,4,2,0,75,0,1
190441,-76.9230769230769,4,2,0,5,0,1
190529,-74.0740740740741,4,2,0,75,0,1
190617,-74.0740740740741,4,2,0,5,0,1
190705,-166.666666666667,4,2,0,75,0,1
190794,-71.4285714285714,4,2,0,5,0,1
190882,-66.6666666666667,4,2,0,75,0,1
191147,-76.9230769230769,4,2,0,5,0,1
191235,-76.9230769230769,4,2,0,75,0,1
191588,-71.4285714285714,4,2,0,75,0,1
191852,-76.9230769230769,4,2,0,5,0,1
191941,-200,4,2,0,75,0,1
192205,-200,4,2,0,5,0,1
192294,-76.9230769230769,4,2,0,75,0,1
192823,-83.3333333333333,4,2,0,75,0,1
192867,-83.3333333333333,4,2,0,5,0,1
192911,-83.3333333333333,4,2,0,75,0,1
192955,-83.3333333333333,4,2,0,5,0,1
192999,-100,4,2,0,75,0,1
193529,-83.3333333333333,4,2,0,75,0,1
194058,-250,4,2,0,75,0,1
194323,-250,4,2,0,5,0,1
194411,-100,4,2,0,75,0,1
194499,-100,4,2,0,5,0,1
194588,-100,4,2,0,75,0,1
194676,-100,4,2,0,5,0,1
194764,-100,4,2,0,75,0,1
194852,-100,4,2,0,5,0,1
194941,-100,4,2,0,75,0,1
195029,-100,4,2,0,5,0,1
195117,-100,4,2,0,75,0,1
195205,-100,4,2,0,5,0,1
195294,-100,4,2,0,75,0,1
195558,-125,4,2,0,5,0,1
195647,-125,4,2,0,75,0,1
195911,-100,4,2,0,5,0,1
195999,-100,4,2,0,75,0,1
196088,-100,4,2,0,5,0,1
196176,-100,4,2,0,75,0,1
196264,-100,4,2,0,5,0,1
196352,-100,4,2,0,75,0,1
196441,-100,4,2,0,5,0,1
196529,-100,4,2,0,75,0,1
196617,-100,4,2,0,5,0,1
196705,-100,4,2,0,75,0,1
196794,-100,4,2,0,5,0,1
196882,-100,4,2,0,75,0,1
196970,-100,4,2,0,5,0,1
197058,-100,4,2,0,75,0,1
197147,-100,4,2,0,5,0,1
197235,-100,4,2,0,75,0,1
197499,-100,4,2,0,5,0,1
197588,-100,4,2,0,75,0,1
197676,-100,4,2,0,5,0,1
197764,-100,4,2,0,75,0,1
197852,-100,4,2,0,5,0,1
197941,-100,4,2,0,75,0,1
198029,-100,4,2,0,5,0,1
198117,-100,4,2,0,75,0,1
198382,-100,4,2,0,5,0,1
198470,-125,4,2,0,75,0,1
198911,-125,4,2,0,5,0,1
198999,-100,4,2,0,75,0,1
199088,-100,4,2,0,5,0,1
199176,-100,4,2,0,75,0,1
199264,-100,4,2,0,5,0,1
199352,-100,4,2,0,75,0,1
199441,-100,4,2,0,5,0,1
199529,-100,4,2,0,75,0,1
199617,-100,4,2,0,5,0,1
199705,-100,4,2,0,75,0,1
199794,-100,4,2,0,5,0,1
199882,-100,4,2,0,75,0,1
199970,-100,4,2,0,5,0,1
200058,-125,4,2,0,75,0,1
200323,-125,4,2,0,5,0,1
200411,-100,4,2,0,75,0,1
200499,-100,4,2,0,5,0,1
200588,-100,4,2,0,75,0,1
200676,-100,4,2,0,5,0,1
200764,-100,4,2,0,75,0,1
200852,-100,4,2,0,5,0,1
200941,-125,4,2,0,75,0,1
201205,-125,4,2,0,5,0,1
201294,-125,4,2,0,75,0,1
201558,-125,4,2,0,5,0,1
201647,-100,4,2,0,75,0,1
201735,-100,4,2,0,5,0,1
201823,-100,4,2,0,75,0,1
201911,-100,4,2,0,5,0,1
201999,-100,4,2,0,75,0,1
202088,-100,4,2,0,5,0,1
202176,-100,4,2,0,75,0,1
202264,-100,4,2,0,5,0,1
202352,-100,4,2,0,75,0,1
202441,-100,4,2,0,5,0,1
202529,-100,4,2,0,75,0,1
202617,-100,4,2,0,5,0,1
202705,-100,4,2,0,75,0,1
202794,-100,4,2,0,5,0,1
202882,-100,4,2,0,75,0,1
203147,-100,4,2,0,5,0,1
203235,-100,4,2,0,75,0,1
203323,-100,4,2,0,5,0,1
203411,-100,4,2,0,75,0,1
203499,-100,4,2,0,5,0,1
203588,-100,4,2,0,75,0,1
203676,-100,4,2,0,5,0,1
203764,-125,4,2,0,75,0,1
204029,-125,4,2,0,5,0,1
204117,-166.666666666667,4,2,0,75,0,1
204558,-166.666666666667,4,2,0,5,0,1
204647,-166.666666666667,4,2,0,75,0,1
205705,-200,4,2,0,75,0,1
205794,-125,4,2,0,5,0,1
205882,-100,4,2,0,75,0,1
205970,-100,4,2,0,5,0,1
206058,-100,4,2,0,75,0,1
206147,-100,4,2,0,5,0,1
206235,-100,4,2,0,75,0,1
206323,-100,4,2,0,5,0,1
206411,-100,4,2,0,75,0,1
206499,-100,4,2,0,5,0,1
206588,-100,4,2,0,75,0,1
206852,-100,4,2,0,5,0,1
206941,-125,4,2,0,75,0,1
207205,-125,4,2,0,5,0,1
207294,-100,4,2,0,75,0,1
207382,-100,4,2,0,5,0,1
207470,-100,4,2,0,75,0,1
207558,-100,4,2,0,5,0,1
207647,-100,4,2,0,75,0,1
207735,-100,4,2,0,5,0,1
207823,-100,4,2,0,75,0,1
207911,-100,4,2,0,5,0,1
207999,-100,4,2,0,75,0,1
208088,-100,4,2,0,5,0,1
208176,-100,4,2,0,75,0,1
208264,-100,4,2,0,5,0,1
208352,-100,4,2,0,75,0,1
208441,-100,4,2,0,5,0,1
208529,-100,4,2,0,75,0,1
208794,-100,4,2,0,5,0,1
208882,-100,4,2,0,75,0,1
208970,-100,4,2,0,5,0,1
209058,-100,4,2,0,75,0,1
209147,-100,4,2,0,5,0,1
209235,-100,4,2,0,75,0,1
209323,-100,4,2,0,5,0,1
209411,-100,4,2,0,75,0,1
209676,-100,4,2,0,5,0,1
209764,-125,4,2,0,75,0,1
210205,-125,4,2,0,5,0,1
210294,-100,4,2,0,75,0,1
210382,-100,4,2,0,5,0,1
210470,-100,4,2,0,75,0,1
210558,-100,4,2,0,5,0,1
210647,-100,4,2,0,75,0,1
210735,-100,4,2,0,5,0,1
210823,-100,4,2,0,75,0,1
210911,-100,4,2,0,5,0,1
210999,-100,4,2,0,75,0,1
211088,-100,4,2,0,5,0,1
211176,-100,4,2,0,75,0,1
211264,-100,4,2,0,5,0,1
211352,-125,4,2,0,75,0,1
211617,-125,4,2,0,5,0,1
211705,-100,4,2,0,75,0,1
211794,-100,4,2,0,5,0,1
211882,-100,4,2,0,75,0,1
211970,-100,4,2,0,5,0,1
212058,-100,4,2,0,75,0,1
212147,-100,4,2,0,5,0,1
212235,-125,4,2,0,75,0,1
212499,-125,4,2,0,5,0,1
212588,-125,4,2,0,75,0,1
212852,-125,4,2,0,5,0,1
212941,-100,4,2,0,75,0,1
213029,-100,4,2,0,5,0,1
213117,-100,4,2,0,75,0,1
213205,-100,4,2,0,5,0,1
213294,-100,4,2,0,75,0,1
213382,-100,4,2,0,5,0,1
213470,-100,4,2,0,75,0,1
213558,-100,4,2,0,5,0,1
213647,-100,4,2,0,75,0,1
213735,-100,4,2,0,5,0,1
213823,-100,4,2,0,75,0,1
213911,-100,4,2,0,5,0,1
213999,-100,4,2,0,75,0,1
214088,-100,4,2,0,5,0,1
214176,-100,4,2,0,75,0,1
214352,-100,4,2,0,75,0,1
214441,-100,4,2,0,5,0,1
214529,-100,4,2,0,75,0,1
214617,-100,4,2,0,5,0,1
214705,-100,4,2,0,75,0,1
214794,-100,4,2,0,5,0,1
214882,-100,4,2,0,75,0,1
214970,-100,4,2,0,5,0,1
215058,-125,4,2,0,75,0,1
215323,-125,4,2,0,5,0,1
215411,-100,4,2,0,75,0,1
215499,-100,4,2,0,5,0,1
215588,-125,4,2,0,75,0,1
216294,-100,4,2,0,75,0,1
216647,-83.3333333333333,4,2,0,75,0,1
216823,-125,4,2,0,75,0,1
216911,-125,4,2,0,5,0,1
216999,-83.3333333333333,4,2,0,75,0,0
217352,-100,4,2,0,75,0,0
218235,-166.666666666667,4,2,0,75,0,0
218411,-76.9230769230769,4,2,0,75,0,0
218588,-142.857142857143,4,2,0,75,0,0
219117,-83.3333333333333,4,2,0,75,0,0
219647,-166.666666666667,4,2,0,75,0,0
219823,-83.3333333333334,4,2,0,75,0,0
220176,-100,4,2,0,75,0,0
220441,-83.3333333333333,4,2,0,75,0,0
220882,-66.6666666666667,4,2,0,75,0,0
221058,-166.666666666667,4,2,0,75,0,0
221235,-83.3333333333333,4,2,0,75,0,0
221764,-100,4,2,0,75,0,0
222470,-166.666666666667,4,2,0,75,0,0
222647,-83.3333333333334,4,2,0,75,0,0
223088,-125,4,2,0,75,0,0
223352,-83.3333333333333,4,2,0,75,0,0
224058,-100,4,2,0,75,0,0
225117,-125,4,2,0,75,0,0
225294,-166.666666666667,4,2,0,75,0,0
225470,-83.3333333333334,4,2,0,75,0,0
225735,-100,4,2,0,75,0,0
227941,-200,4,2,0,75,0,0
228029,-200,4,2,0,5,0,0
228117,-200,4,2,0,75,0,0
228205,-200,4,2,0,5,0,0
228294,-76.9230769230769,4,2,0,75,0,0
228647,-100,4,2,0,75,0,0
229705,-125,4,2,0,75,0,0
230411,-83.3333333333333,4,2,0,75,0,0
230941,-166.666666666667,4,2,0,75,0,0
231117,-83.3333333333334,4,2,0,75,0,0
231382,-100,4,2,0,75,0,0
233764,-166.666666666667,4,2,0,75,0,0
233941,-83.3333333333333,4,2,0,75,0,0
236764,-142.857142857143,4,2,0,75,0,0
237117,-125,4,2,0,75,0,0
237470,-111.111111111111,4,2,0,75,0,0
237823,-100,4,2,0,75,0,0
238176,-100,4,2,0,65,0,0
238352,-125,4,2,0,65,0,0
238882,-100,4,2,0,65,0,0
239235,-83.3333333333333,4,2,0,65,0,0
239588,-83.3333333333333,4,2,0,65,0,0
239941,-83.3333333333333,4,2,0,5,0,0

[Colours]
Combo1 : 255,102,159
Combo2 : 86,206,240
Combo3 : 247,140,143
Combo4 : 117,173,223

[HitObjects]
25,70,2058,6,0,P|81:62|101:58,1,74.2499977340699
205,23,2411,2,0,L|197:229,1,197.99999395752
21,160,2941,2,0,B|52:205|52:205|106:209,1,99
165,257,3294,2,0,B|196:212|196:212|250:208,1,99
384,273,3647,1,0,0:0:0:0:
454,89,3823,6,0,L|334:117,1,98.9999969787599
76,90,4176,2,0,L|196:62,1,98.9999969787599
286,22,4529,2,0,L|279:123,1,99
204,205,4882,2,0,P|210:266|223:316,1,98.9999969787599
11,253,5235,6,0,P|6:183|-3:132,1,99
47,44,5588,2,0,P|99:76|161:80,1,98.9999969787599
267,42,5941,2,0,P|340:39|388:42,2,82.5
135,82,6470,1,0,0:0:0:0:
298,202,6647,2,0,P|307:138|333:89,1,98.9999969787599
96,229,6999,1,0,0:0:0:0:
96,229,7176,2,0,P|113:302|112:363,1,132
234,206,7705,6,0,P|226:254|230:304,1,99
327,382,8058,2,0,P|325:302|315:210,1,148.49999546814
426,83,8411,1,0,0:0:0:0:
246,95,8588,2,0,B|204:83|160:79|160:79|216:68|244:46,1,173.24999471283
336,14,8941,2,0,P|352:85|324:177,1,148.49999546814
272,324,9294,1,0,0:0:0:0:
100,343,9470,6,0,L|160:227,1,98.9999969787599
58,100,9823,2,0,L|61:231,1,98.9999969787599
242,4,10176,6,0,P|246:57|255:108,1,99
345,174,10529,2,0,P|282:206|215:187,1,98.9999969787599
98,30,10882,5,0,0:0:0:0:
36,219,11058,1,0,0:0:0:0:
283,225,11235,2,0,P|233:195|197:186,1,66
122,272,11588,2,0,P|156:309|205:333,1,98.9999969787599
294,349,12029,1,0,0:0:0:0:
275,355,12117,1,0,0:0:0:0:
254,364,12205,1,0,0:0:0:0:
233,371,12294,6,0,B|215:321|220:284,1,76.9999976501466
291,77,12529,2,0,P|294:140|291:167,1,76.9999976501466
219,295,12823,1,0,0:0:0:0:
47,172,12999,2,0,P|97:177|98:177,1,49.4999984893799
174,18,13352,5,0,0:0:0:0:
174,101,13441,1,0,0:0:0:0:
231,159,13529,1,0,0:0:0:0:
231,241,13617,1,0,0:0:0:0:
150,329,13705,6,0,P|81:224|249:219,1,321.749985271455
365,248,14058,2,0,P|434:247|463:237,1,82.5
351,98,14235,2,0,P|214:127|79:93,2,247.500009441376
475,22,14764,2,0,L|468:121,1,82.5
412,305,14941,2,0,P|391:238|388:215,1,66
302,48,15117,6,0,P|306:111|316:145,1,82.5
401,220,15294,2,0,L|394:186,1,28.874999118805
195,310,15470,2,0,P|177:258|169:210,1,90.7500027694703
248,149,15647,2,0,L|258:197,1,28.874999118805
26,145,15823,6,0,B|158:83|157:201|286:134,1,230.99999295044
465,85,16176,2,0,P|380:88|341:88,1,82.5
273,92,16352,2,0,P|273:42|258:12,1,57.7499982376099
185,231,16529,6,0,B|307:246|378:184|378:184|349:133|268:89,1,346.499989425659
81,34,16882,2,0,P|166:96|25:156,1,296.99999093628
272,91,17235,2,0,P|377:91|466:73,2,165
171,46,17764,5,0,0:0:0:0:
364,248,17941,2,0,P|260:249|193:262,1,132
18,183,18294,2,0,P|122:182|189:169,1,132
308,303,18647,1,0,0:0:0:0:
376,102,18823,1,0,0:0:0:0:
91,169,18999,6,0,P|206:124|60:69,1,321.749985271455
12,103,19352,2,0,P|12:213|81:316,1,165
88,328,19617,1,0,0:0:0:0:
103,338,19705,1,0,0:0:0:0:
391,175,19882,2,0,B|215:81|252:261|87:167,1,321.749985271455
176,72,20235,2,0,P|257:62|310:72,1,82.5
491,139,20411,5,0,0:0:0:0:
405,255,20588,2,0,P|392:154|401:111,1,82.5
293,142,20764,6,0,P|286:77|308:33,1,86.6249973564149
385,8,20941,2,0,P|391:43|357:103,1,90.7500027694703
156,227,21117,2,0,P|147:304|131:337,1,94.8750018095971
37,375,21294,2,0,P|35:309|58:270,1,98.9999969787599
341,364,21470,6,0,P|354:279|221:311,1,247.5
137,382,21823,2,0,P|121:319|116:180,1,165
223,35,22176,6,0,P|187:118|58:108,1,198
310,355,22529,2,0,P|309:242|320:162,1,165
140,174,22882,2,0,B|69:162|36:143|36:143|19:104|20:22,2,197.99999395752
328,104,23411,1,0,0:0:0:0:
196,334,23588,6,0,L|188:232,1,82.5
295,273,23764,1,0,0:0:0:0:
285,180,23852,2,0,L|287:40,1,82.5
379,325,24029,1,0,0:0:0:0:
369,232,24117,2,0,L|371:92,1,82.5
301,73,24294,2,0,P|286:26|278:-4,2,66
171,251,24823,2,0,L|179:299,3,41.25
121,338,24999,6,0,P|94:221|101:123,1,198
63,110,25352,2,0,P|61:208|86:304,1,198
121,338,25705,5,0,0:0:0:0:
292,308,25882,1,0,0:0:0:0:
309,303,25970,1,0,0:0:0:0:
325,295,26058,2,0,P|317:245|261:202,1,66
224,132,26235,2,0,L|232:177,1,41.25
137,28,26411,1,0,0:0:0:0:
134,48,26499,1,0,0:0:0:0:
130,71,26588,2,0,L|133:127,1,33
57,274,26764,6,0,B|57:207|57:207|28:153|28:153|26:83,1,198
172,311,27117,6,0,B|175:273|175:273|190:244|171:217|171:217|169:180|173:163,1,132
254,72,27382,2,0,L|243:4,2,57.7499982376099
347,189,27647,2,0,P|342:237|324:290,1,82.5
470,343,27823,6,0,P|458:205|459:131,1,198
332,269,28176,2,0,P|350:306|359:373,1,82.5
316,65,28352,2,0,P|227:83|266:179,1,198
94,314,28705,2,0,P|85:216|76:128,1,165
186,35,29058,2,0,B|306:37|341:77|341:77|232:116,1,247.5
192,112,29411,1,0,0:0:0:0:
65,97,29588,1,0,0:0:0:0:
151,217,29764,2,0,B|233:197|283:158|283:158|223:114|144:102,1,247.5
122,147,30117,1,0,0:0:0:0:
311,226,30294,1,0,0:0:0:0:
348,182,30382,1,0,0:0:0:0:
359,126,30470,2,0,L|379:188,1,41.25
343,71,30558,2,0,L|321:138,1,41.25
348,6,30647,5,0,0:0:0:0:
269,299,30823,1,0,0:0:0:0:
79,146,30999,5,0,0:0:0:0:
379,162,31176,1,0,0:0:0:0:
125,63,31352,5,0,0:0:0:0:
169,328,31529,1,0,0:0:0:0:
369,225,31705,5,0,0:0:0:0:
60,245,31882,2,0,P|18:203|-20:142,1,82.5
269,51,32058,5,0,0:0:0:0:
272,306,32235,1,0,0:0:0:0:
53,142,32411,5,0,0:0:0:0:
291,141,32588,1,0,0:0:0:0:
101,317,32764,5,0,0:0:0:0:
151,48,32941,1,0,0:0:0:0:
326,249,33117,5,0,0:0:0:0:
75,239,33294,1,0,0:0:0:0:
58,241,33382,1,0,0:0:0:0:
37,241,33470,6,0,P|31:175|37:140,1,74.2499977340699
191,36,33647,2,0,L|246:27,1,37.1249988670349
188,56,33735,2,0,L|234:47,1,37.1249988670349
184,75,33823,2,0,L|171:158,1,74.2499977340699
264,315,33999,2,0,L|212:309,1,37.1249988670349
274,285,34088,2,0,L|219:279,1,37.1249988670349
285,253,34176,5,0,0:0:0:0:
288,187,34264,1,0,0:0:0:0:
324,133,34352,1,0,0:0:0:0:
384,106,34440,1,0,0:0:0:0:
455,57,34529,1,0,0:0:0:0:
452,114,34617,1,0,0:0:0:0:
460,171,34705,1,0,0:0:0:0:
477,226,34793,1,0,0:0:0:0:
485,276,34882,6,0,P|389:275|334:305,1,132
208,368,35147,2,0,P|182:283|187:206,1,115.49999647522
60,203,35411,2,0,L|61:292,1,49.4999984893799
76,43,35588,1,0,0:0:0:0:
76,43,35676,1,0,0:0:0:0:
76,43,35764,2,0,P|81:73|101:117,1,66
192,201,35941,6,0,P|200:133|168:74,1,115.49999647522
150,297,36117,2,0,L|134:359,3,41.25
69,363,36294,6,0,P|20:257|198:207,1,346.499989425659
241,287,36647,2,0,P|236:347|210:378,1,98.9999969787599
158,72,36823,2,0,L|163:23,1,41.25
117,68,36911,2,0,L|106:-5,1,41.25
79,92,36999,2,0,P|71:153|93:211,1,98.9999969787599
87,291,37176,2,0,B|180:279|198:150|370:207,1,296.99999093628
478,213,37529,2,0,P|489:307|410:223,2,230.99999295044
451,92,37970,2,0,L|393:96,1,41.25
445,70,38058,6,0,B|319:65|227:109|227:109|262:152|253:211,1,296.99999093628
102,220,38411,2,0,P|93:158|56:65,1,132
215,341,38588,2,0,L|211:278,1,41.25
189,361,38676,2,0,P|187:287|197:146,1,197.99999395752
304,44,38941,2,0,L|295:147,1,82.5
416,279,39117,6,0,P|477:169|289:137,1,371.250014162064
418,319,39470,2,0,P|500:241|493:152,1,197.99999395752
150,52,39735,2,0,L|146:95,1,41.25
171,59,39823,2,0,L|173:162,1,98.9999969787599
185,291,39999,2,0,B|122:314|105:365|105:365|81:133,1,346.499989425659
0,28,40352,2,0,L|3:128,1,82.5
249,380,40529,6,0,B|251:340|251:340|289:289|251:240|251:240|253:174,1,197.99999395752
164,40,40794,2,0,L|231:32,1,41.25
140,59,40882,2,0,B|242:96|220:16|345:62,1,197.99999395752
421,316,41235,6,0,P|309:272|346:159,1,230.99999295044
413,121,41499,1,0,0:0:0:0:
426,84,41588,2,0,P|347:86|292:72,1,98.9999969787599
138,46,41941,5,0,0:0:0:0:
119,132,42029,1,0,0:0:0:0:
198,171,42117,1,0,0:0:0:0:
256,103,42205,1,0,0:0:0:0:
218,25,42294,6,0,P|196:133|193:168,1,82.5
336,196,42470,2,0,P|337:122|347:75,1,82.5
148,363,42647,2,0,P|220:358|264:351,1,98.9999969787599
463,310,42823,6,0,B|277:348|323:176|133:285,1,346.499989425659
108,164,43176,2,0,P|45:90|59:12,2,165
441,92,43617,2,0,L|385:94,1,41.25
457,127,43705,2,0,B|374:141|329:114|329:114|303:163|227:167,1,247.5
99,65,44058,2,0,B|141:84|161:127|161:127|196:89|229:69,1,165
387,242,44323,2,0,B|333:229|282:238|282:238|267:155|170:154,1,197.99999395752
27,127,44588,2,0,P|77:151|99:181,1,66
182,314,44764,6,0,B|285:286|361:236|361:236|281:162|186:160,1,346.499989425659
448,191,45117,2,0,B|348:114|243:55|243:55|154:73|119:117,1,371.250014162064
44,287,45470,2,0,P|48:239|58:186,1,98.9999969787599
51,43,45647,6,0,B|235:44|163:175|370:156,1,346.499989425659
499,318,45999,2,0,P|408:334|369:347,1,82.5
154,333,46176,2,0,B|309:346|252:196|479:248,1,346.499989425659
503,95,46529,2,0,B|405:84|300:113|300:113|264:68|219:50,1,296.99999093628
88,178,46882,2,0,B|149:209|149:209|242:199,1,115.49999647522
406,139,47058,1,0,0:0:0:0:
420,167,47147,1,0,0:0:0:0:
432,197,47235,2,0,P|371:198|317:200,1,82.5
193,316,47588,6,0,B|214:245|177:215|135:165|201:46|274:79,1,247.5
337,155,47941,2,0,P|397:155|426:150,1,66
498,74,48117,2,0,P|395:68|376:68,1,98.9999969787599
140,47,48470,5,0,0:0:0:0:
150,67,48529,1,0,0:0:0:0:
156,88,48588,1,0,0:0:0:0:
159,110,48647,2,0,P|148:176|143:205,1,74.2499977340699
72,274,48823,6,0,L|21:270,1,41.25
56,312,48911,2,0,L|-2:311,1,41.25
78,343,48999,5,0,0:0:0:0:
151,306,49088,1,0,0:0:0:0:
211,357,49176,1,0,0:0:0:0:
275,314,49264,1,0,0:0:0:0:
349,348,49352,6,0,P|443:278|299:304,1,346.499989425659
95,192,49705,2,0,P|190:197|260:183,1,98.9999969787599
368,40,49882,2,0,L|293:24,1,41.25
380,76,49970,2,0,P|299:70|194:76,1,132
33,131,50235,2,0,P|114:106|123:96,1,82.5
395,183,50411,6,0,B|215:91|235:269|45:217,1,371.250014162064
90,32,50764,2,0,P|191:108|38:147,1,321.749985271455
46,340,51117,2,0,P|149:335|186:349,1,98.9999969787599
490,336,51294,2,0,B|397:252|295:327|295:327|309:239|305:197,1,346.499989425659
146,88,51647,2,0,L|132:-4,1,82.5
236,124,51823,2,0,P|236:50|233:30,1,66
53,174,51999,5,0,0:0:0:0:
38,205,52057,1,0,0:0:0:0:
34,240,52116,1,0,0:0:0:0:
49,272,52176,2,0,P|134:258|212:273,1,132
449,298,52529,6,0,P|376:198|248:234,1,247.500009441376
147,355,52794,2,0,P|138:237|146:124,1,214.49999018097
341,10,53058,2,0,P|326:66|323:108,1,66
500,136,53235,6,0,P|490:187|473:227,2,82.5
402,79,53499,2,0,P|412:28|429:-12,1,82.5
243,135,53676,2,0,L|154:141,1,49.4999984893799
244,120,53764,6,0,B|147:70|107:168|43:89,1,165
92,297,53941,2,0,P|80:242|43:193,1,82.5
356,326,54117,2,0,B|249:274|180:321|180:321|192:229|121:137,1,371.250014162064
233,49,54470,2,0,P|357:53|475:42,2,214.49999018097
7,143,54911,2,0,L|65:141,1,41.25
21,182,54999,2,0,P|104:168|186:112,1,132
470,234,55352,6,0,B|404:221|336:249|336:249|258:183|231:188,1,230.99999295044
43,323,55617,2,0,B|90:335|131:290|131:290|195:264|267:300,1,214.49999018097
435,340,55882,2,0,L|430:225,1,82.5
341,31,56058,2,0,P|266:73|400:156,1,321.749985271455
296,15,56411,2,0,P|216:158|399:186,1,371.250014162064
499,292,56764,2,0,P|414:288|342:261,1,98.9999969787599
231,277,56941,6,0,B|169:218|106:216|106:216|324:164,1,346.499989425659
378,276,57294,2,0,P|485:272|507:199,2,165
113,202,57823,2,0,P|168:199|246:212,1,98.9999969787599
295,9,58176,5,0,0:0:0:0:
302,44,58264,1,0,0:0:0:0:
383,24,58352,1,0,0:0:0:0:
379,48,58441,1,0,0:0:0:0:
437,84,58529,2,0,B|323:56|319:167|228:161|228:161|187:124|170:31,1,296.99999093628
134,182,58882,5,0,0:0:0:0:
126,210,58970,1,0,0:0:0:0:
190,247,59058,1,0,0:0:0:0:
198,275,59146,1,0,0:0:0:0:
133,327,59235,2,0,B|42:319|42:319|-9:247,2,165
381,194,59764,1,0,0:0:0:0:
226,347,59941,2,0,P|216:272|247:163,1,165
77,152,60294,6,0,P|24:85|11:20,2,132
232,76,60823,1,0,0:0:0:0:
247,59,60911,1,0,0:0:0:0:
258,40,60999,2,0,P|307:37|341:39,1,82.5
481,112,61176,1,0,0:0:0:0:
469,254,61352,2,0,P|344:247|301:236,1,165
52,189,61705,6,0,P|94:184|135:189,1,66
257,306,61882,1,0,0:0:0:0:
257,306,61970,1,0,0:0:0:0:
257,306,62058,1,0,0:0:0:0:
401,61,62235,1,0,0:0:0:0:
403,88,62323,1,0,0:0:0:0:
401,113,62411,2,0,P|346:108|309:95,1,82.5
175,69,62588,2,0,P|111:58|55:66,2,98.9999969787599
260,306,63117,6,0,P|259:210|249:132,1,132
175,69,63470,1,0,0:0:0:0:
27,184,63647,2,0,B|123:175|168:228|168:228|114:276|59:256,1,247.5
41,347,63999,2,0,P|131:348|194:341,1,98.9999969787599
344,294,64176,5,0,0:0:0:0:
386,283,64264,1,0,0:0:0:0:
429,296,64352,1,0,0:0:0:0:
470,303,64441,1,0,0:0:0:0:
505,270,64529,5,0,0:0:0:0:
499,224,64617,1,0,0:0:0:0:
422,137,64705,1,0,0:0:0:0:
425,182,64794,1,0,0:0:0:0:
440,45,64882,1,0,0:0:0:0:
263,115,65058,2,0,B|184:88|190:143|92:98,2,132
441,221,65588,2,0,P|371:237|306:225,1,132
53,339,65941,6,0,P|145:342|231:356,1,165
397,316,66294,2,0,P|465:316|506:309,1,82.5
316,181,66470,2,0,B|221:132|132:201|132:201|94:117,1,247.5
228,33,66823,2,0,P|314:37|379:47,2,132
11,142,67352,6,0,B|146:209|131:61|292:152,1,247.5
483,201,67705,2,0,P|381:205|301:172,1,173.24999471283
480,234,68058,2,0,P|423:237|378:233,1,82.5
217,309,68235,2,0,P|126:294|53:306,2,132
397,351,68764,5,0,0:0:0:0:
313,138,68941,1,0,0:0:0:0:
336,128,69029,1,0,0:0:0:0:
359,113,69117,2,0,P|369:174|359:222,1,66
255,352,69294,1,0,0:0:0:0:
76,369,69470,6,0,P|73:273|81:247,1,98.9999969787599
157,14,69647,1,0,0:0:0:0:
234,247,69823,1,0,0:0:0:0:
24,211,69999,2,0,L|124:195,1,98.9999969787599
376,201,70176,6,0,P|300:138|327:56,1,132
411,44,70441,1,0,0:0:0:0:
452,68,70529,2,0,P|460:140|456:213,1,132
333,323,70882,5,0,0:0:0:0:
302,306,70970,1,0,0:0:0:0:
239,345,71058,1,0,0:0:0:0:
208,362,71146,1,0,0:0:0:0:
148,312,71235,2,0,L|54:319,1,66
60,181,71411,6,0,P|44:68|-5:-5,2,197.99999395752
232,276,71852,1,0,0:0:0:0:
267,273,71941,2,0,P|263:220|245:177,1,82.5
154,37,72117,1,0,0:0:0:0:
154,37,72205,1,0,0:0:0:0:
154,37,72294,2,0,P|205:50|267:39,1,82.5
380,13,72470,1,0,0:0:0:0:
32,126,72647,2,0,L|133:117,1,82.5
377,152,72823,1,0,0:0:0:0:
376,187,72911,1,0,0:0:0:0:
372,215,72999,6,0,P|298:212|251:198,1,82.5
33,290,73176,2,0,L|150:313,1,82.5
233,382,73352,2,0,P|238:298|218:216,1,132
186,84,73617,1,0,0:0:0:0:
206,103,73705,2,0,P|279:114|387:110,2,165
63,26,74235,5,0,0:0:0:0:
97,160,74411,1,0,0:0:0:0:
110,190,74499,1,0,0:0:0:0:
169,223,74588,1,0,0:0:0:0:
172,254,74676,1,0,0:0:0:0:
127,304,74764,2,0,L|150:397,1,82.5
435,351,74941,1,0,0:0:0:0:
467,342,75029,1,0,0:0:0:0:
500,326,75117,2,0,B|477:219|436:161|436:161|399:206|402:257,1,247.5
295,298,75470,2,0,B|241:317|219:351|219:351|243:86,1,296.99999093628
101,17,75823,6,0,B|89:103|107:150|107:150|130:172|162:190,1,197.99999395752
243,182,76088,1,0,0:0:0:0:
279,163,76176,1,0,0:0:0:0:
440,299,76352,1,0,0:0:0:0:
405,108,76529,1,0,0:0:0:0:
360,98,76617,1,0,0:0:0:0:
307,53,76705,1,0,0:0:0:0:
266,59,76794,1,0,0:0:0:0:
210,87,76882,2,0,P|133:68|107:54,1,82.5
17,195,77058,1,0,0:0:0:0:
17,195,77147,1,0,0:0:0:0:
17,195,77235,6,0,P|15:249|13:295,1,98.9999969787599
190,367,77411,1,0,0:0:0:0:
217,369,77499,1,0,0:0:0:0:
241,358,77588,2,0,P|238:311|227:269,1,57.7499982376099
154,168,77764,2,0,L|149:67,1,57.7499982376099
327,13,77941,5,0,0:0:0:0:
336,49,78029,1,0,0:0:0:0:
282,104,78117,1,0,0:0:0:0:
270,141,78205,1,0,0:0:0:0:
338,186,78294,2,0,L|338:271,1,57.7499982376099
59,364,78470,2,0,L|47:274,1,57.7499982376099
27,77,78647,6,0,P|108:93|235:46,1,165
418,171,78911,1,0,0:0:0:0:
425,208,78999,2,0,P|354:210|315:201,1,82.5
112,167,79176,1,0,0:0:0:0:
107,200,79264,1,0,0:0:0:0:
100,227,79352,2,0,P|190:248|237:327,1,165
42,347,79705,5,0,0:0:0:0:
34,307,79794,1,0,0:0:0:0:
92,267,79882,1,0,0:0:0:0:
100,227,79971,1,0,0:0:0:0:
48,171,80058,6,0,P|48:133|49:100,1,57.7499982376099
176,13,80235,1,0,0:0:0:0:
201,35,80323,2,0,P|201:94|194:108,1,57.7499982376099
242,235,80499,1,0,0:0:0:0:
264,265,80588,2,0,P|264:219|273:181,1,57.7499982376099
339,85,80764,1,0,0:0:0:0:
346,59,80852,1,0,0:0:0:0:
346,32,80941,1,0,0:0:0:0:
453,185,81117,1,0,0:0:0:0:
461,218,81205,1,0,0:0:0:0:
464,253,81294,2,0,P|452:298|446:325,1,57.7499982376099
331,348,81470,6,0,B|241:357|194:327|194:327|179:319|179:319|36:281|97:138|238:159|272:277|136:354|65:360,1,577.5
3,196,82882,6,0,B|70:81|180:153|218:32|218:32|259:161|377:103|442:208,1,577.5
441,292,84294,2,0,B|341:359|256:287|256:287|205:196|246:134|318:141|352:193|337:254|237:254|237:254|192:213|101:187|15:211|0:263|7:310|26:341|69:356|123:353|140:303|131:264,1,907.5
176,134,86411,2,0,P|151:65|87:43,1,123.75
55,134,86764,2,0,P|131:145|198:121,1,123.75
307,90,87117,6,0,B|363:75|414:116|429:195|429:195|492:147|492:147|485:105|444:36|394:6|325:-7|236:35,1,577.5
197,145,88529,2,0,B|123:137|56:150|56:150|68:86|68:56|68:56|146:38|146:38|136:112|151:254|151:254|226:242,1,577.5
316,199,89941,6,0,B|403:188|481:238|481:238|476:321|476:321|387:264|328:271|291:283|291:283|215:324|145:268|145:268|96:220|14:250|-28:302|50:369|155:327,1,907.5
196,179,92058,2,0,P|273:201|347:190,1,123.75
306,133,92411,2,0,P|220:157|187:190,1,123.75
145,303,92764,6,0,B|77:284|45:207|124:62|124:62|33:77|4:176|4:176|89:188|154:180,1,577.5
239,162,94176,6,0,B|308:148|422:196|422:196|403:251|366:321|366:321|449:319|449:319|504:231|503:145,1,577.5
398,80,95588,6,0,B|292:92|181:48|181:48|146:83|148:135|148:135|243:174|319:190|319:190|215:274|215:274|193:117|285:0,1,907.5
439,192,97705,2,0,P|353:200|296:182,1,123.75
390,295,98058,2,0,P|439:235|427:167,1,123.75
273,221,98411,6,0,B|226:177|245:97|323:89|323:89|264:24|264:24|206:49|159:117|156:174|170:247|243:295,1,577.5
363,332,99823,6,0,B|435:323|454:225|398:173|398:173|356:138|301:146|301:146|311:57|311:57|412:75|484:145,1,577.5
494,264,101235,6,0,B|373:244|278:323|278:323|275:221|201:76|70:63,1,577.5
79,305,102647,5,0,0:0:0:0:
138,320,103352,5,0,0:0:0:0:
171,331,103441,1,0,0:0:0:0:
215,320,103529,1,0,0:0:0:0:
254,309,103617,1,0,0:0:0:0:
300,321,103705,2,0,P|302:258|275:214,1,82.5
208,52,103882,2,0,L|160:56,1,41.25
200,82,103970,2,0,L|166:83,3,20.625
197,106,104058,6,0,P|197:173|339:236,1,198
467,202,104411,2,0,P|411:191|358:201,1,66
247,116,104588,2,0,B|148:74|154:175|53:116,2,197.99999395752
458,108,105470,6,0,P|389:88|311:107,1,132
196,266,105823,2,0,P|280:263|342:216,1,132
369,146,106176,2,0,P|372:87|356:-3,1,148.49999546814
275,81,106529,2,0,P|215:105|153:88,1,132
457,26,106882,5,0,0:0:0:0:
403,256,107235,2,0,P|366:178|369:112,1,132
246,23,107588,2,0,P|246:111|243:199,1,165
198,323,108117,1,0,0:0:0:0:
24,162,108294,6,0,P|106:162|177:125,1,132
281,201,108647,2,0,P|173:232|126:265,1,132
68,337,108999,1,0,0:0:0:0:
68,337,109352,2,0,P|71:260|96:201,1,98.9999969787599
366,209,109705,6,0,P|253:222|210:328,1,198
229,370,110058,1,0,0:0:0:0:
137,284,110235,2,0,P|78:228|-9:229,2,165
362,255,111117,6,0,P|289:244|221:178,1,132
81,81,111470,2,0,P|181:63|245:13,1,132
379,154,111823,2,0,P|288:148|200:163,1,148.49999546814
129,220,112176,2,0,P|53:183|36:133,1,98.9999969787599
97,50,112529,6,0,B|146:64|173:105|173:105|187:72|224:13,1,198
325,71,112882,2,0,P|310:162|314:284,2,197.99999395752
76,42,113676,1,0,0:0:0:0:
61,79,113764,1,0,0:0:0:0:
58,112,113852,1,0,0:0:0:0:
59,142,113941,2,0,P|113:148|170:126,1,98.9999969787599
329,219,114205,2,0,P|266:241|240:280,1,98.9999969787599
115,359,114470,2,0,P|105:307|108:273,1,49.4999984893799
91,69,114647,5,0,0:0:0:0:
318,165,114823,1,0,0:0:0:0:
36,228,114999,6,0,P|42:257|61:212,1,98.9999969787599
191,121,115176,2,0,P|243:108|195:130,1,123.750004720688
310,243,115352,6,0,B|253:267|226:291|226:291|176:215|61:160,1,296.99999093628
137,46,115705,2,0,P|193:55|243:48,1,82.5
442,130,115882,1,0,0:0:0:0:
437,170,115970,1,0,0:0:0:0:
420,200,116058,2,0,P|391:232|311:215,1,98.9999969787599
232,117,116323,1,0,0:0:0:0:
221,84,116411,5,0,0:0:0:0:
40,216,116588,1,0,0:0:0:0:
42,247,116676,1,0,0:0:0:0:
43,275,116764,6,0,P|45:316|61:354,1,66
142,159,116941,2,0,P|144:200|160:238,1,66
59,265,117117,2,0,P|61:306|77:344,1,66
158,149,117294,2,0,P|160:190|176:228,1,66
379,335,117470,6,0,P|296:283|289:197,1,165
340,134,117735,1,0,0:0:0:0:
370,166,117823,2,0,P|419:124|394:33,1,165
83,82,118176,6,0,P|169:89|171:88,1,82.5
236,256,118352,1,0,0:0:0:0:
222,290,118441,1,0,0:0:0:0:
198,319,118529,2,0,P|164:247|180:130,1,165
62,369,118882,2,0,P|64:261|49:45,1,296.99999093628
195,17,119235,6,0,P|205:86|201:129,1,82.5
189,264,119411,1,0,0:0:0:0:
197,307,119499,1,0,0:0:0:0:
195,341,119588,2,0,P|148:347|115:356,1,66
391,221,119764,2,0,P|358:228|326:232,1,66
219,302,119941,2,0,P|172:308|139:317,1,66
415,182,120117,2,0,P|382:189|350:193,1,66
183,140,120294,5,0,0:0:0:0:
130,107,120382,1,0,0:0:0:0:
143,46,120470,1,0,0:0:0:0:
205,39,120558,1,0,0:0:0:0:
232,94,120647,2,0,P|238:171|231:211,1,98.9999969787599
54,335,120999,6,0,P|87:229|177:311,1,247.5
301,370,121352,2,0,P|297:304|286:258,1,82.5
184,84,121529,1,0,0:0:0:0:
188,64,121617,1,0,0:0:0:0:
179,48,121705,2,0,P|172:10|174:-26,1,49.4999984893799
285,84,121882,1,0,0:0:0:0:
63,203,122058,2,0,P|113:198|164:186,1,82.5
348,146,122235,1,0,0:0:0:0:
380,141,122323,1,0,0:0:0:0:
400,120,122411,6,0,P|442:124|477:117,1,66
232,218,122588,2,0,P|274:222|309:215,1,66
387,149,122764,2,0,P|429:153|464:146,1,66
219,247,122941,2,0,P|261:251|296:244,1,66
486,281,123117,6,0,P|380:279|415:388,1,247.5
257,348,123470,2,0,P|178:338|83:355,1,132
11,205,123823,6,0,B|159:131|129:280|278:226,1,247.5
331,172,124176,2,0,P|421:158|514:174,2,165
100,79,125058,1,0,0:0:0:0:
106,115,125146,1,0,0:0:0:0:
106,152,125235,2,0,P|193:167|276:136,1,132
425,76,125499,2,0,B|311:127|322:12|186:87,1,197.99999395752
14,137,125764,2,0,P|46:140|84:139,1,57.7499982376099
326,182,125941,2,0,P|279:178|261:181,1,66
172,325,126294,1,0,0:0:0:0:
208,337,126382,1,0,0:0:0:0:
238,326,126470,2,0,L|289:333,3,33
56,253,126647,6,0,P|43:191|59:116,1,115.49999647522
200,298,126999,2,0,P|170:223|181:160,1,115.49999647522
305,47,127352,2,0,P|316:135|304:191,1,115.49999647522
427,120,127705,2,0,P|438:208|426:264,1,115.49999647522
279,353,128058,6,0,P|269:267|272:194,1,115.49999647522
148,255,128411,2,0,P|138:169|141:96,1,115.49999647522
257,31,128764,2,0,P|254:115|243:170,1,115.49999647522
374,136,129117,2,0,P|371:220|360:275,1,115.49999647522
204,314,129470,6,0,P|115:304|68:310,1,115.49999647522
259,128,129823,2,0,P|348:138|395:132,1,115.49999647522
84,41,130176,1,0,0:0:0:0:
190,246,130352,1,0,0:0:0:0:
253,29,130529,1,0,0:0:0:0:
50,189,130705,1,0,0:0:0:0:
50,189,130794,1,0,0:0:0:0:
50,189,130882,6,0,P|146:167|209:173,1,132
387,248,131235,1,0,0:0:0:0:
326,44,131411,1,0,0:0:0:0:
252,271,131588,2,0,P|151:291|84:321,1,132
27,119,131941,2,0,P|105:125|176:111,1,132
276,47,132294,5,0,0:0:0:0:
320,339,132470,1,0,0:0:0:0:
320,339,132558,1,0,0:0:0:0:
320,339,132647,1,0,0:0:0:0:
330,73,132823,1,0,0:0:0:0:
330,73,132911,1,0,0:0:0:0:
330,73,132999,1,0,0:0:0:0:
151,252,133176,1,0,0:0:0:0:
151,252,133264,1,0,0:0:0:0:
151,252,133352,1,0,0:0:0:0:
397,225,133529,1,0,0:0:0:0:
397,225,133617,1,0,0:0:0:0:
397,225,133705,5,0,0:0:0:0:
193,80,133882,1,0,0:0:0:0:
193,80,133970,1,0,0:0:0:0:
193,80,134058,1,0,0:0:0:0:
253,272,134235,1,0,0:0:0:0:
253,272,134323,1,0,0:0:0:0:
253,272,134411,1,0,0:0:0:0:
338,98,134588,1,0,0:0:0:0:
338,98,134676,1,0,0:0:0:0:
338,98,134764,1,0,0:0:0:0:
137,171,134941,1,0,0:0:0:0:
137,171,135029,1,0,0:0:0:0:
137,171,135117,6,0,P|121:78|112:26,1,132
269,136,135470,2,0,L|301:300,1,132
114,40,135823,2,0,P|125:105|137:171,1,132
294,265,136176,2,0,L|269:136,1,132
182,369,136529,5,0,0:0:0:0:
123,92,136705,1,0,0:0:0:0:
21,257,136882,1,0,0:0:0:0:
244,198,137058,1,0,0:0:0:0:
93,358,137235,6,0,P|99:267|88:185,1,132
31,91,137588,1,0,0:0:0:0:
177,10,137764,1,0,0:0:0:0:
186,27,137852,1,0,0:0:0:0:
195,39,137941,6,0,B|264:60|329:39|329:39|320:110|407:185,1,247.5
453,325,138294,2,0,P|450:248|457:192,1,82.5
355,41,138470,1,0,0:0:0:0:
325,71,138558,1,0,0:0:0:0:
294,85,138647,2,0,P|194:98|110:77,2,165
379,244,139176,1,0,0:0:0:0:
373,291,139264,1,0,0:0:0:0:
369,335,139352,6,0,P|315:337|275:351,1,66
217,271,139529,2,0,P|163:273|123:287,1,66
387,306,139705,2,0,P|333:308|293:322,1,66
235,242,139882,2,0,P|181:244|141:258,1,66
59,293,140058,6,0,P|43:203|180:164,1,247.5
334,120,140411,2,0,P|239:108|210:17,1,165
473,276,140764,6,0,P|475:179|443:68,1,165
370,239,141117,2,0,P|282:245|221:228,1,132
30,151,141470,2,0,B|161:219|154:69|338:143,1,296.99999093628
424,189,141823,1,0,0:0:0:0:
359,50,141999,1,0,0:0:0:0:
352,85,142088,1,0,0:0:0:0:
335,120,142176,6,0,P|322:88|321:42,1,66
253,228,142352,2,0,P|240:196|239:150,1,66
320,144,142529,2,0,P|307:112|306:66,1,66
238,252,142705,2,0,P|225:220|224:174,1,66
183,21,142882,2,0,P|197:103|196:144,1,99
69,225,143235,6,0,P|41:111|200:128,1,321.749985271455
331,187,143588,6,0,P|401:189|435:182,1,82.5
169,288,143764,2,0,P|239:290|273:283,1,82.5
314,212,143941,2,0,P|384:214|418:207,1,82.5
152,313,144117,2,0,P|222:315|256:308,1,82.5
295,232,144294,2,0,P|365:234|399:227,1,82.5
133,333,144470,2,0,P|203:335|237:328,1,82.5
366,290,144647,5,0,0:0:0:0:
427,237,144735,1,0,0:0:0:0:
433,157,144823,1,0,0:0:0:0:
382,95,144911,1,0,0:0:0:0:
302,87,144999,6,0,P|273:45|257:-13,1,98.9999969787599
260,297,145176,2,0,P|288:338|304:397,1,98.9999969787599
270,69,145352,2,0,P|228:39|193:-10,1,98.9999969787599
296,312,145529,2,0,P|337:341|372:391,1,98.9999969787599
232,71,145705,2,0,P|183:57|133:22,1,98.9999969787599
337,309,145882,2,0,P|385:322|435:357,1,98.9999969787599
134,345,146058,5,0,0:0:0:0:
77,295,146146,1,0,0:0:0:0:
100,224,146235,2,0,L|40:215,1,49.4999984893799
175,216,146323,2,0,L|126:174,1,49.4999984893799
212,281,146411,6,0,P|277:304|331:306,1,123.750004720688
495,73,146588,2,0,P|385:106|338:146,1,123.750004720688
263,353,146764,6,0,P|331:346|381:325,1,123.750004720688
419,25,146941,2,0,P|333:101|307:157,1,123.750004720688
378,375,147117,6,0,P|440:345|479:308,1,123.750004720688
314,19,147294,2,0,P|259:120|254:181,1,123.750004720688
495,361,147470,6,0,P|487:258|451:191,1,123.750004720688
274,169,147647,1,0,0:0:0:0:
313,201,147735,1,0,0:0:0:0:
356,212,147823,2,0,B|430:184|429:235|527:210,2,148.49999546814
100,73,148529,6,0,P|160:73|191:68,1,66
26,209,148705,1,0,0:0:0:0:
34,244,148794,1,0,0:0:0:0:
44,275,148882,2,0,B|118:249|153:312|153:312|254:327|328:229,1,296.99999093628
350,331,149235,6,0,P|391:219|218:233,1,346.499989425659
115,291,149588,5,0,0:0:0:0:
124,328,149676,1,0,0:0:0:0:
133,361,149764,2,0,P|187:361|241:327,1,98.9999969787599
418,251,149941,1,0,0:0:0:0:
417,287,150029,2,0,P|339:279|284:297,1,132
96,163,150294,5,0,0:0:0:0:
96,191,150382,1,0,0:0:0:0:
98,225,150470,2,0,P|146:220|190:199,1,82.5
405,120,150647,1,0,0:0:0:0:
402,84,150735,2,0,P|334:83|264:116,1,132
66,42,150999,5,0,0:0:0:0:
61,82,151088,1,0,0:0:0:0:
68,115,151176,2,0,P|113:118|179:104,1,98.9999969787599
421,241,151352,1,0,0:0:0:0:
424,276,151441,2,0,P|346:271|255:276,1,132
102,303,151705,5,0,0:0:0:0:
74,274,151794,2,0,P|63:201|61:176,1,82.5
174,87,151970,2,0,P|169:112|165:142,1,49.4999984893799
74,32,152147,6,0,P|-2:37|-10:35,2,82.5
276,88,152411,5,0,0:0:0:0:
326,87,152499,1,0,0:0:0:0:
355,128,152587,1,0,0:0:0:0:
338,176,152675,1,0,0:0:0:0:
288,188,152763,1,0,0:0:0:0:
251,154,152852,2,0,P|191:153|102:177,1,132
67,263,153117,1,0,0:0:0:0:
58,305,153205,1,0,0:0:0:0:
48,341,153294,2,0,P|108:351|174:343,1,82.5
429,285,153470,6,0,P|359:273|279:291,1,132
143,162,153735,1,0,0:0:0:0:
157,190,153823,2,0,P|255:202|358:137,1,165
364,55,154176,6,0,P|474:109|434:221,1,214.49999018097
364,309,154441,1,0,0:0:0:0:
371,276,154529,2,0,P|371:230|384:169,1,107.249995090485
226,43,154705,2,0,L|230:108,1,49.4999984893799
184,263,154882,6,0,B|295:290|381:170|381:170|308:166|265:187,1,321.749985271455
93,173,155235,1,0,0:0:0:0:
88,143,155323,1,0,0:0:0:0:
83,111,155411,2,0,P|75:54|71:4,1,98.9999969787599
231,205,155588,1,0,0:0:0:0:
235,167,155676,2,0,P|245:95|249:27,1,132
453,291,155941,5,0,0:0:0:0:
455,255,156029,1,0,0:0:0:0:
453,225,156117,2,0,P|448:167|435:103,1,98.9999969787599
285,328,156294,1,0,0:0:0:0:
276,293,156382,2,0,P|270:207|274:140,1,132
41,343,156647,5,0,0:0:0:0:
45,310,156735,1,0,0:0:0:0:
43,281,156823,2,0,P|34:198|44:143,1,98.9999969787599
214,378,156999,1,0,0:0:0:0:
221,343,157088,2,0,P|233:238|220:165,1,132
145,81,157352,5,0,0:0:0:0:
123,113,157441,2,0,P|56:108|26:97,1,82.5
143,231,157617,2,0,P|99:230|59:214,1,49.4999984893799
293,119,157794,2,0,P|342:111|408:120,2,82.5
226,252,158058,5,0,0:0:0:0:
257,306,158146,1,0,0:0:0:0:
320,306,158234,1,0,0:0:0:0:
352,252,158322,1,0,0:0:0:0:
322,197,158410,1,0,0:0:0:0:
259,195,158499,2,0,P|198:196|101:178,1,132
55,357,158764,1,0,0:0:0:0:
50,319,158852,1,0,0:0:0:0:
32,283,158941,2,0,P|107:260|165:262,1,98.9999969787599
2,122,159117,6,0,P|97:114|144:121,1,132
362,119,159382,1,0,0:0:0:0:
385,93,159470,2,0,P|273:96|233:149,1,165
155,258,159823,2,0,B|81:211|75:142|75:142|137:106|187:151,1,214.49999018097
329,180,160088,1,0,0:0:0:0:
315,207,160176,2,0,P|310:278|323:317,1,66
431,369,160352,2,0,L|423:227,1,82.5
433,113,160529,6,0,B|327:96|243:45|243:45|234:185,1,321.749985271455
330,351,160882,2,0,P|357:265|352:213,1,98.9999969787599
130,229,161235,2,0,B|80:218|11:251|11:251|43:134|172:124,1,321.749985271455
245,304,161588,6,0,L|197:296,1,41.25
291,335,161676,2,0,L|226:355,1,41.25
313,296,161764,2,0,L|265:288,1,41.25
351,330,161852,2,0,L|286:350,1,41.25
394,308,161941,5,0,0:0:0:0:
395,270,162029,1,0,0:0:0:0:
465,188,162117,1,0,0:0:0:0:
470,228,162205,1,0,0:0:0:0:
488,114,162294,2,0,P|424:106|376:105,1,98.9999969787599
85,137,162470,1,0,0:0:0:0:
85,170,162558,1,0,0:0:0:0:
84,212,162647,2,0,B|293:162|221:353|468:287,1,346.499989425659
363,64,162999,2,0,P|283:74|249:85,1,82.5
189,173,163176,1,0,0:0:0:0:
212,206,163264,2,0,P|260:215|302:209,1,82.5
401,336,163441,2,0,P|468:339|512:331,2,98.9999969787599
178,259,163705,6,0,P|130:255|82:258,1,66
408,262,163882,2,0,P|469:259|510:260,1,82.5
275,119,164058,2,0,B|322:73|378:70|378:70|151:31,1,321.749985271455
65,187,164411,2,0,P|49:126|51:79,1,82.5
148,259,164588,1,0,0:0:0:0:
144,293,164676,1,0,0:0:0:0:
63,342,164764,6,0,B|157:370|265:350,1,197.99999395752
358,264,165029,1,0,0:0:0:0:
396,253,165117,2,0,P|467:277|497:356,1,107.249995090485
472,158,165294,2,0,P|463:104|465:71,1,66
327,12,165470,2,0,B|336:93|380:136|380:136|315:179,1,214.49999018097
79,113,165735,1,0,0:0:0:0:
105,138,165823,2,0,P|148:140|206:136,1,82.5
100,256,165999,2,0,P|32:281|-16:311,1,82.5
248,348,166176,6,0,B|251:266|355:216|355:216|305:173|250:182|250:182|314:106|296:17|173:4|124:76|171:169|224:112,1,618.75002360344
395,93,166705,2,0,P|456:99|501:87,1,82.5
502,228,166882,2,0,B|426:214|377:223|377:223|334:132|217:117,1,321.749985271455
15,321,167235,1,0,0:0:0:0:
77,341,167323,1,0,0:0:0:0:
142,336,167411,1,0,0:0:0:0:
201,307,167499,1,0,0:0:0:0:
265,292,167587,1,0,0:0:0:0:
331,301,167676,2,0,P|396:311|446:311,2,82.5
216,196,167941,2,0,P|135:192|67:220,1,148.49999546814
61,88,168294,6,0,B|183:209|46:233|142:363|142:363|219:370|251:326,1,346.499989425659
265,203,168647,5,0,0:0:0:0:
216,196,168735,1,0,0:0:0:0:
173,218,168823,2,0,P|121:171|120:103,1,82.5
321,267,168999,1,0,0:0:0:0:
306,304,169088,2,0,P|295:365|306:404,2,82.5
431,82,169352,5,0,0:0:0:0:
432,50,169441,1,0,0:0:0:0:
415,8,169529,2,0,P|390:45|387:101,1,82.5
439,211,169705,2,0,B|418:288|296:349|296:349|248:336|220:265,1,296.99999093628
203,95,170058,5,0,0:0:0:0:
210,33,170146,1,0,0:0:0:0:
271,18,170234,1,0,0:0:0:0:
306,69,170322,1,0,0:0:0:0:
272,120,170411,2,0,P|202:137|146:116,1,115.49999647522
54,38,170676,2,0,P|55:95|63:138,1,82.5
151,248,170941,2,0,P|146:179|145:145,1,66
0,302,171117,6,0,B|111:251|87:380|240:295,1,247.5
364,226,171470,5,0,0:0:0:0:
388,225,171558,1,0,0:0:0:0:
413,224,171646,1,0,0:0:0:0:
438,223,171734,1,0,0:0:0:0:
478,290,171823,6,0,B|452:193|519:123|527:70|473:43|438:41|411:68|414:113|457:111,1,321.749985271455
333,134,172176,2,0,P|262:129|203:141,1,82.5
15,39,172352,2,0,B|96:22|92:87|200:48,1,165
333,134,172705,1,0,0:0:0:0:
230,316,172882,1,0,0:0:0:0:
56,241,173058,1,0,0:0:0:0:
59,201,173147,1,0,0:0:0:0:
79,169,173235,6,0,P|93:118|84:41,1,103.125
183,24,173411,2,0,P|180:69|180:83,1,33
277,216,173588,2,0,P|261:276|253:364,1,111.375000424862
167,369,173764,2,0,P|166:325|166:323,1,33
501,287,173941,6,0,B|483:169|388:137|388:137|300:140|200:187,1,321.749985271455
42,38,174294,2,0,P|139:47|236:30,1,165
472,142,174647,2,0,P|371:147|331:316,1,296.99999093628
186,254,174999,2,0,P|166:166|164:109,1,123.75
248,157,175352,2,0,P|115:63|193:217,1,428.999980361939
490,269,175882,2,0,P|405:271|354:279,1,82.5
294,136,176058,6,0,P|370:136|445:106,1,98.9999969787599
479,48,176235,2,0,P|436:42|346:63,1,103.125
183,172,176411,2,0,P|90:183|41:175,1,107.249995090485
6,91,176588,2,0,P|76:71|135:97,1,111.375000424862
235,342,176764,6,0,P|322:333|442:357,1,173.24999471283
498,279,177117,2,0,P|404:244|286:259,1,197.99999395752
80,115,177470,6,0,B|206:147|320:75|320:75|273:32|211:32,1,371.250014162064
28,239,177823,2,0,P|70:237|118:241,1,82.5
375,296,177999,2,0,B|256:264|280:340|169:303,1,197.99999395752
123,57,178352,2,0,P|45:97|140:156,2,230.99999295044
392,47,178882,6,0,P|396:117|374:180,1,103.125
484,261,179058,2,0,P|471:195|485:128,1,107.249995090485
274,350,179235,2,0,P|263:279|287:218,1,111.375000424862
187,161,179411,2,0,P|188:208|166:294,1,115.49999647522
361,129,179588,6,0,B|239:44|96:101|96:101|55:173,1,346.499989425659
126,354,179941,2,0,P|160:277|158:163,1,197.99999395752
42,69,180294,2,0,P|170:33|294:224,1,346.499989425659
416,346,180647,2,0,P|396:254|396:191,1,123.75
466,172,180999,2,0,P|329:165|473:262,1,428.999980361939
340,379,181529,2,0,P|285:374|244:352,1,82.5
170,253,181705,6,0,P|76:248|0:324,1,197.99999395752
109,364,181970,2,0,B|95:286|113:236|113:236|93:185|105:108,1,230.99999295044
18,12,182235,2,0,P|21:69|11:115,1,82.5
303,117,182411,6,0,P|310:48|321:6,1,82.5
209,267,182588,2,0,P|202:336|191:378,1,82.5
272,90,182764,2,0,P|279:21|290:-21,1,82.5
178,240,182941,2,0,P|171:309|160:351,1,82.5
17,278,183117,6,0,P|15:196|28:104,1,165
169,24,183647,2,0,P|172:140|156:221,1,165
269,267,184176,2,0,L|269:313,3,41.25
346,358,184352,2,0,P|348:277|333:215,1,98.9999969787599
272,20,184529,6,0,P|275:87|293:147,1,103.125
365,201,184705,2,0,P|382:162|388:124,1,57.7499982376099
139,368,184882,2,0,P|133:274|141:231,1,111.375000424862
218,175,185058,2,0,P|233:210|234:272,1,57.7499982376099
211,91,185235,2,0,B|135:21|45:23|45:23|40:87|49:147|49:147|28:184|5:207,1,371.250014162064
94,286,185588,2,0,B|195:226|255:356|361:266,1,272.250008308411
512,209,185941,2,0,P|401:305|384:145,1,371.250014162064
304,32,186294,2,0,P|221:37|156:58,1,123.75
85,129,186647,2,0,P|249:190|139:54,1,428.999980361939
481,199,187176,2,0,P|433:199|369:231,1,82.5
333,39,187352,6,0,P|331:127|338:186,1,98.9999969787599
387,226,187529,2,0,P|395:177|378:125,1,53.6249975452424
283,372,187705,2,0,P|286:299|314:232,1,107.249995090485
239,145,187882,2,0,P|236:182|224:228,1,53.6249975452424
217,19,188058,6,0,P|241:136|141:367,1,371.250014162064
430,331,188411,2,0,P|415:261|418:152,1,148.49999546814
135,92,188764,6,0,B|231:131|325:48|325:48|366:147|428:196,1,371.250014162064
306,351,189117,2,0,P|286:261|296:202,1,90.7500027694703
189,42,189294,2,0,P|188:138|203:258,1,197.99999395752
35,202,189647,2,0,P|18:129|106:171,2,214.49999018097
224,331,190176,6,0,P|210:242|216:191,1,103.125
218,98,190352,2,0,P|234:142|222:172,1,49.4999984893799
381,13,190529,2,0,P|395:101|390:190,1,111.375000424862
355,245,190705,2,0,P|345:204|348:181,1,49.4999984893799
388,351,190882,2,0,P|356:249|497:323,1,371.250014162064
504,115,191235,2,0,B|375:90|398:167|281:127,1,214.49999018097
36,168,191588,6,0,B|125:143|205:42|205:42|314:43|376:52,1,346.499989425659
473,170,191941,2,0,P|374:163|312:176,1,123.75
391,236,192294,2,0,P|276:201|426:194,1,428.999980361939
226,78,192823,2,0,L|218:20,1,49.4999984893799
204,111,192911,2,0,L|196:38,1,49.4999984893799
208,149,192999,6,0,P|209:243|170:323,1,165
21,362,193264,2,0,P|24:261|33:188,1,165
121,58,193529,2,0,P|249:73|266:168,2,197.99999395752
182,334,194058,2,0,P|98:336|63:358,1,99
380,230,194411,6,0,P|360:160|358:116,1,82.5
264,31,194588,2,0,P|266:94|270:128,1,82.5
175,221,194764,2,0,P|172:144|162:87,1,82.5
77,27,194941,2,0,P|67:102|74:127,1,82.5
103,205,195117,2,0,P|98:271|91:314,1,82.5
205,358,195294,2,0,P|263:256|190:122,1,247.5
121,271,195647,2,0,P|204:252|283:329,1,198
398,364,195999,6,0,P|392:284|383:228,1,82.5
368,122,196176,2,0,L|362:37,1,82.5
271,222,196352,2,0,L|276:307,1,82.5
192,121,196529,2,0,P|190:67|197:16,1,82.5
110,276,196705,2,0,P|108:222|115:171,1,82.5
169,133,196882,2,0,P|167:79|174:28,1,82.5
87,288,197058,2,0,P|85:234|92:183,1,82.5
103,82,197235,5,0,0:0:0:0:
235,156,197411,2,0,P|305:159|369:153,1,82.5
489,224,197588,2,0,P|422:225|363:228,1,82.5
247,298,197764,2,0,P|335:301|379:290,1,82.5
499,363,197941,2,0,P|438:367|380:373,1,82.5
269,362,198117,2,0,B|170:339|146:268|146:268|86:304|56:291,1,247.5
91,201,198470,2,0,B|177:95|113:54|113:54|96:93|196:176|246:170,1,330
406,97,198999,6,0,P|353:93|286:106,1,82.5
496,204,199176,2,0,P|441:196|377:207,1,82.5
238,186,199352,2,0,P|308:182|363:171,1,82.5
135,268,199529,2,0,P|71:267|29:280,1,82.5
217,211,199705,2,0,P|287:207|342:196,1,82.5
114,293,199882,2,0,P|50:292|8:305,1,82.5
263,361,200058,2,0,B|364:290|358:409|489:359,1,198
439,156,200411,6,0,P|449:196|465:235,1,82.5
344,158,200588,2,0,P|330:120|323:79,1,82.5
267,222,200764,2,0,P|268:263|282:302,1,82.5
239,103,200941,2,0,P|141:88|43:100,1,198
102,279,201294,2,0,P|140:201|57:179,1,198
20,71,201647,6,0,P|80:70|132:60,1,82.5
270,21,201823,2,0,P|229:19|188:22,1,82.5
329,116,201999,2,0,P|415:117|461:98,1,82.5
247,234,202176,2,0,P|225:160|220:108,1,82.5
176,356,202352,2,0,P|154:282|149:230,1,82.5
231,262,202529,2,0,P|209:188|204:136,1,82.5
160,384,202705,2,0,P|138:310|133:258,1,82.5
136,164,202882,1,0,0:0:0:0:
372,89,203058,6,0,P|300:65|251:58,1,82.5
417,178,203235,2,0,P|357:130|313:107,1,82.5,0|0,0:3|0:3,0:3:0:0:
422,269,203411,2,0,P|382:204|349:167,1,82.5,0|0,0:3|0:3,0:3:0:0:
384,348,203588,2,0,P|368:273|350:227,1,82.5,0|0,0:3|0:3,0:3:0:0:
290,148,203764,6,0,P|188:151|124:62,1,198
229,41,204117,2,0,B|292:69|398:57|398:57|378:126|397:173,1,247.4999924469
375,309,204647,5,0,0:0:0:0:
325,307,204735,1,0,0:0:0:0:
277,317,204823,1,0,0:0:0:0:
232,338,204911,1,0,0:0:0:0:
286,174,204999,5,0,0:0:0:0:
334,181,205087,1,0,0:0:0:0:
378,160,205175,1,0,0:0:0:0:
403,118,205263,1,0,0:0:0:0:
491,14,205352,6,0,P|500:111|496:158,1,98.9999969787599
300,207,205705,2,0,P|300:262|297:276,1,41.25
171,341,205882,6,0,P|158:282|164:221,1,82.5
35,144,206058,2,0,P|32:197|46:261,1,82.5
131,97,206235,2,0,P|123:27|119:-1,1,82.5
242,27,206411,2,0,P|250:106|263:165,1,82.5
282,221,206588,2,0,P|272:299|104:302,1,247.5
85,202,206941,2,0,P|172:205|227:301,1,198
354,363,207294,6,0,P|353:304|346:248,1,82.5
425,143,207470,2,0,P|447:177|456:218,1,82.5
348,40,207647,2,0,P|287:37|252:47,1,82.5
178,158,207823,2,0,P|163:95|159:42,1,82.5
104,277,207999,2,0,P|89:214|85:161,1,82.5
166,184,208176,2,0,P|151:121|147:68,1,82.5
92,303,208352,2,0,P|77:240|73:187,1,82.5
70,61,208529,1,0,0:0:0:0:
249,105,208705,6,0,P|256:32|246:-5,1,82.5
169,163,208882,2,0,P|168:204|161:245,1,82.5
60,342,209058,2,0,P|69:273|63:220,1,82.5
102,45,209235,2,0,P|100:132|85:170,1,82.5
196,325,209411,2,0,P|223:209|335:259,1,247.5
382,342,209764,2,0,B|456:311|455:223|382:194|382:194|417:132|384:80|384:80|380:43,1,330
134,28,210294,6,0,P|78:36|13:30,1,82.5
210,132,210470,2,0,P|274:123|319:101,1,82.5
49,193,210647,2,0,P|36:99|51:40,1,82.5
174,268,210823,2,0,P|183:315|179:363,1,82.5
73,207,210999,2,0,P|60:113|75:54,1,82.5
198,282,211175,2,0,P|207:329|203:377,1,82.5
30,170,211352,2,0,P|18:93|102:132,1,198
261,92,211705,6,0,P|256:36|234:-13,1,82.5
175,129,211882,2,0,P|170:169|179:210,1,82.5
226,370,212058,2,0,P|222:295|201:241,1,82.5
291,212,212235,2,0,P|369:161|480:181,1,198
403,367,212588,2,0,P|357:291|472:296,1,198
481,100,212941,6,0,P|407:92|377:98,1,82.5
256,25,213117,2,0,P|330:29|366:21,1,82.5
195,102,213294,2,0,P|121:94|91:100,1,82.5
339,170,213470,2,0,P|407:172|476:149,1,82.5
240,251,213647,2,0,P|172:249|103:272,1,82.5
318,189,213823,2,0,P|386:191|455:168,1,82.5
219,270,214000,2,0,P|151:268|82:291,1,82.5
58,328,214176,1,0,0:0:0:0:
161,153,214352,6,0,P|87:159|52:177,1,82.5
246,91,214529,2,0,P|174:71|135:76,1,82.5
350,69,214705,2,0,P|289:26|251:17,1,82.5
451,76,214882,2,0,P|408:14|375:-6,1,82.5
313,149,215058,2,0,P|312:226|384:319,1,198
481,213,215411,2,0,P|423:214|374:226,1,82.5
153,344,215588,6,0,P|145:248|167:161,1,132
268,52,215852,1,0,0:0:0:0:
285,78,215941,2,0,P|283:119|272:150,1,66
210,261,216117,2,0,L|217:311,3,33
256,310,216294,2,0,L|250:204,1,82.5
184,74,216470,1,0,0:0:0:0:
177,104,216558,1,0,0:0:0:0:
169,145,216647,2,0,P|102:123|67:93,1,98.9999969787599
294,12,216823,2,0,L|292:108,1,66
321,301,216999,6,0,P|326:193|424:97,1,197.99999395752
456,232,217264,1,0,0:0:0:0:
453,259,217352,2,0,P|362:249|318:315,1,165
141,340,217705,5,0,0:0:0:0:
130,306,217794,1,0,0:0:0:0:
191,271,217882,1,0,0:0:0:0:
202,237,217971,1,0,0:0:0:0:
152,179,218058,2,0,P|148:116|155:72,1,82.5
63,19,218235,2,0,P|56:66|42:103,1,49.4999984893799
505,147,218411,6,0,P|428:142|349:155,1,107.249995090485
112,51,218588,2,0,P|198:59|259:59,1,115.49999647522
222,335,218941,1,0,0:0:0:0:
239,319,219029,1,0,0:0:0:0:
253,296,219117,2,0,P|264:228|237:172,1,98.9999969787599
321,40,219294,2,0,P|324:98|349:161,1,98.9999969787599
428,250,219470,2,0,P|423:214|431:142,1,98.9999969787599
495,308,219647,2,0,P|494:347|496:375,1,49.4999984893799
131,307,219823,6,0,P|113:212|175:64,1,197.99999395752
317,57,220088,1,0,0:0:0:0:
331,84,220176,2,0,P|393:82|436:66,1,82.5
499,182,220352,1,0,0:0:0:0:
494,222,220441,1,0,0:0:0:0:
490,260,220529,2,0,P|413:245|356:222,1,98.9999969787599
205,289,220705,2,0,P|272:287|339:318,1,98.9999969787599
82,376,220882,2,0,B|70:272|121:197|121:197|150:172,1,123.750004720688
6,81,221058,2,0,P|6:148|10:174,1,49.4999984893799
285,165,221235,5,0,0:0:0:0:
284,135,221323,1,0,0:0:0:0:
283,105,221411,1,0,0:0:0:0:
282,75,221499,1,0,0:0:0:0:
366,2,221588,2,0,L|365:126,1,98.9999969787599
444,213,221764,2,0,P|445:145|436:96,1,82.5
290,305,221941,5,0,0:0:0:0:
276,259,222029,1,0,0:0:0:0:
308,224,222117,1,0,0:0:0:0:
355,234,222205,1,0,0:0:0:0:
371,278,222294,2,0,P|363:313|372:370,1,82.5
482,289,222470,2,0,P|470:224|481:202,1,49.4999984893799
103,370,222647,6,0,P|93:257|108:129,1,197.99999395752
173,83,222911,1,0,0:0:0:0:
213,61,222999,1,0,0:0:0:0:
264,75,223088,2,0,P|321:71|371:61,2,66
105,55,223352,6,0,P|83:48|-3:48,1,98.9999969787599
190,171,223529,2,0,P|254:170|320:156,1,98.9999969787599
442,89,223705,2,0,P|442:161|432:204,1,98.9999969787599
336,326,223882,1,0,0:0:0:0:
330,349,223970,1,0,0:0:0:0:
321,377,224058,2,0,P|313:323|314:262,1,82.5
210,60,224235,1,0,0:0:0:0:
385,195,224411,1,0,0:0:0:0:
106,344,224588,6,0,P|97:261|101:227,1,82.5
156,82,224764,1,0,0:0:0:0:
164,106,224852,1,0,0:0:0:0:
130,137,224941,1,0,0:0:0:0:
122,161,225029,1,0,0:0:0:0:
165,192,225117,2,0,P|171:252|168:292,1,66
37,361,225294,2,0,L|32:277,1,49.4999984893799
261,106,225470,6,0,B|344:87|382:97|382:97|361:36|307:0,1,197.99999395752
44,157,225735,1,0,0:0:0:0:
39,114,225823,2,0,P|81:108|130:112,1,82.5
277,184,225999,2,0,P|223:189|159:200,1,82.5
245,36,226176,5,0,0:0:0:0:
284,27,226264,1,0,0:0:0:0:
339,80,226352,1,0,0:0:0:0:
378,89,226440,1,0,0:0:0:0:
430,29,226529,2,0,P|475:32|550:33,1,82.5
496,254,226705,2,0,P|482:186|481:127,1,82.5
341,211,226882,2,0,P|350:270|376:328,1,82.5
272,357,227058,2,0,L|267:331,6,20.625
259,362,227235,6,0,P|240:301|239:254,1,82.5
130,95,227411,2,0,P|135:161|128:222,1,82.5
50,275,227588,2,0,P|52:200|65:138,1,82.5
157,302,227764,2,0,P|155:377|142:439,1,82.5
299,265,227941,6,0,L|296:189,1,41.25
149,190,228117,2,0,L|156:254,1,41.25
58,90,228294,6,0,B|206:47|130:168|333:98,1,214.49999018097
442,47,228558,1,0,0:0:0:0:
454,82,228647,2,0,P|392:81|335:55,1,82.5
144,31,228823,2,0,P|211:34|278:40,1,82.5
364,153,228999,5,0,0:0:0:0:
329,142,229088,1,0,0:0:0:0:
295,185,229176,1,0,0:0:0:0:
260,196,229265,1,0,0:0:0:0:
212,155,229352,2,0,P|124:155|100:159,1,82.5
37,308,229529,2,0,P|43:243|21:166,1,82.5
123,129,229705,2,0,P|123:42|101:-25,2,132
203,260,230235,5,0,0:0:0:0:
216,294,230323,1,0,0:0:0:0:
243,330,230411,2,0,P|261:280|258:224,1,98.9999969787599
321,29,230588,2,0,P|322:79|335:147,1,98.9999969787599
416,275,230764,2,0,P|438:200|432:122,1,98.9999969787599
497,317,230941,2,0,P|503:346|517:386,1,49.4999984893799
267,87,231117,6,0,B|146:36|172:125|27:78,1,197.99999395752
34,255,231382,1,0,0:0:0:0:
53,294,231470,2,0,P|119:287|182:265,1,82.5
304,231,231647,1,0,0:0:0:0:
339,246,231735,1,0,0:0:0:0:
378,241,231823,2,0,P|443:241|522:253,1,82.5
306,364,231999,2,0,P|253:358|191:333,1,82.5
120,288,232176,2,0,P|120:212|129:173,1,82.5
44,52,232352,2,0,P|31:124|14:170,1,82.5
194,134,232529,5,0,0:0:0:0:
244,157,232617,1,0,0:0:0:0:
292,128,232705,1,0,0:0:0:0:
295,73,232793,1,0,0:0:0:0:
252,38,232882,2,0,P|240:109|265:189,1,82.5
316,273,233058,6,0,P|322:205|309:142,1,82.5
60,320,233235,1,0,0:0:0:0:
95,311,233323,1,0,0:0:0:0:
153,348,233411,1,0,0:0:0:0:
188,357,233499,1,0,0:0:0:0:
247,322,233588,2,0,P|317:316|351:319,1,82.5
495,290,233764,2,0,P|499:331|511:356,1,49.4999984893799
166,98,233941,6,0,P|157:33|161:-20,1,98.9999969787599
286,210,234117,2,0,P|277:145|281:92,1,98.9999969787599
188,126,234294,2,0,P|179:61|183:8,1,98.9999969787599
308,238,234470,2,0,P|299:173|303:120,1,98.9999969787599
125,208,234647,6,0,P|129:300|120:359,1,98.9999969787599
19,33,234824,2,0,P|23:125|14:184,1,98.9999969787599
106,185,234999,2,0,P|110:277|101:336,1,98.9999969787599
0,10,235176,2,0,P|4:102|-5:161,1,98.9999969787599
343,66,235352,6,0,P|408:66|471:81,1,98.9999969787599
121,165,235529,2,0,P|56:165|-7:150,1,98.9999969787599
358,25,235705,2,0,P|423:25|486:40,1,98.9999969787599
136,124,235882,2,0,P|71:124|8:109,1,98.9999969787599
396,380,236058,6,0,P|446:378|495:385,1,98.9999969787599
98,195,236235,2,0,P|48:196|0:189,1,98.9999969787599
414,95,236411,2,0,P|479:95|542:110,1,98.9999969787599
99,319,236588,2,0,P|34:319|-29:304,1,98.9999969787599
293,166,236764,5,0,0:0:0:0:
253,158,236852,1,0,0:0:0:0:
217,137,236940,1,0,0:0:0:0:
195,105,237028,1,0,0:0:0:0:
138,21,237117,5,0,0:0:0:0:
125,69,237205,1,0,0:0:0:0:
101,33,237294,1,0,0:0:0:0:
95,84,237382,1,0,0:0:0:0:
131,164,237470,5,0,0:0:0:0:
138,204,237558,1,0,0:0:0:0:
141,244,237646,1,0,0:0:0:0:
138,285,237734,1,0,0:0:0:0:
208,343,237823,5,0,0:0:0:0:
219,303,237911,1,0,0:0:0:0:
243,339,237999,1,0,0:0:0:0:
256,291,238088,1,0,0:0:0:0:
324,365,238176,6,0,P|328:264|325:245,1,82.5
233,78,238352,1,0,0:0:0:0:
245,127,238441,1,0,0:0:0:0:
213,160,238529,1,0,0:0:0:0:
219,209,238617,1,0,0:0:0:0:
208,253,238705,2,0,P|199:325|183:357,1,66
107,262,238882,6,0,P|184:163|292:239,1,247.5
351,260,239235,1,0,0:0:0:0:
433,246,239323,1,0,0:0:0:0:
449,165,239411,1,0,0:0:0:0:
379,120,239499,1,0,0:0:0:0:
320,179,239588,6,0,B|209:163|106:163|106:163|191:111|198:0,1,395.999987915039
