osu file format v14

[General]
AudioFilename: audio.mp3
AudioLeadIn: 0
PreviewTime: 124488
Countdown: 0
SampleSet: Normal
StackLeniency: 0.7
Mode: 0
LetterboxInBreaks: 0
WidescreenStoryboard: 0

[Editor]
Bookmarks: 2775,16489,30202,56881,57632,59345,61060,64274,64488,66202,67917,71131,85060,98775,126203,153632,166488,181060,194775,208489,222203,235917,249632,277060,304489
DistanceSpacing: 2.6
BeatDivisor: 4
GridSize: 32
TimelineZoom: 1

[Metadata]
Title:Midnight Splash feat. Nachi
TitleUnicode:Midnight Splash feat. Nachi
Artist:Lapis moss
ArtistUnicode:Lapis moss
Creator:Zunv
Version:idkAname
Source:
Tags:Touhou
BeatmapID:1175158
BeatmapSetID:555211

[Difficulty]
HPDrainRate:6
CircleSize:5
OverallDifficulty:8.3
ApproachRate:9
SliderMultiplier:1.4
SliderTickRate:1

[Events]
//Background and Video events
0,0,"Bg.jpg",0,0
//Break Periods
//Storyboard Layer 0 (Background)
//Storyboard Layer 1 (Fail)
//Storyboard Layer 2 (Pass)
//Storyboard Layer 3 (Foreground)
//Storyboard Sound Samples

[TimingPoints]
1060,428.571428571429,4,1,0,100,1,0
6202,-200,4,1,0,100,0,0
7917,-133.333333333333,4,1,0,100,0,0
9631,-100,4,1,0,100,0,0
13060,-200,4,1,0,100,0,0
14774,-100,4,1,0,100,0,0
26774,-200,4,1,0,100,0,0
28702,-100,4,1,0,100,0,0
30202,-50,4,1,0,100,0,0
55917,-100,4,1,0,100,0,0
57631,-133.333333333333,4,1,0,100,0,0
71345,-100,4,1,0,100,0,0
98131,-200,4,1,0,100,0,0
98560,-66.6666666666667,4,1,0,100,0,0
126202,-50,4,1,0,100,0,0
153631,-100,4,1,0,100,0,0

[HitObjects]
341,176,2345,6,0,P|308:201|292:235,1,70
273,343,2775,1,0,0:0:0:0:
379,258,2988,1,0,0:0:0:0:
136,120,3202,2,0,L|90:93,2,35
222,125,3632,2,0,P|210:165|118:209,1,140
3,146,4274,1,0,0:0:0:0:
277,210,4489,5,0,0:0:0:0:
136,120,4702,1,0,0:0:0:0:
409,186,4917,2,0,L|439:203,2,35
269,117,5345,2,0,P|229:129|185:221,1,140
198,238,5881,1,0,0:0:0:0:
367,131,6095,1,0,0:0:0:0:
367,101,6202,6,0,P|355:61|263:17,1,140
273,16,8131,5,0,0:0:0:0:
209,49,8345,1,0,0:0:0:0:
213,135,8560,1,0,0:0:0:0:
156,220,8774,2,0,L|123:268,1,52.5000020027161
131,93,9202,1,0,0:0:0:0:
213,135,9417,1,0,0:0:0:0:
341,28,9631,6,0,L|267:14,1,70
168,27,10060,1,0,0:0:0:0:
168,27,10167,1,0,0:0:0:0:
168,27,10274,1,0,0:0:0:0:
291,111,10488,2,0,P|321:139|318:241,1,140
281,354,11131,1,0,0:0:0:0:
236,191,11345,5,0,0:0:0:0:
426,274,11560,1,0,0:0:0:0:
173,296,11774,2,0,L|130:306,2,35
324,232,12202,2,0,P|332:165|291:111,1,140
263,99,12738,1,0,0:0:0:0:
73,237,12952,1,0,0:0:0:0:
54,261,13060,6,0,P|45:328|87:382,1,140
87,382,14988,5,0,0:0:0:0:
153,339,15202,1,0,0:0:0:0:
138,243,15417,1,0,0:0:0:0:
259,138,15631,2,0,L|332:97,1,70
235,244,16060,1,0,0:0:0:0:
420,146,16274,1,0,0:0:0:0:
164,180,16488,6,0,P|145:208|140:254,1,70
394,209,16917,5,0,0:0:0:0:
413,180,17024,1,0,0:0:0:0:
419,145,17131,1,0,0:0:0:0:
205,93,17345,6,0,P|171:84|137:89,1,70
137,90,17774,1,0,0:0:0:0:
48,235,17988,1,0,0:0:0:0:
284,28,18202,1,0,0:0:0:0:
164,180,18417,1,0,0:0:0:0:
317,138,18631,5,0,0:0:0:0:
346,118,18738,1,0,0:0:0:0:
381,113,18845,1,0,0:0:0:0:
229,251,19060,6,0,P|199:269|165:275,1,70
48,235,19488,1,0,0:0:0:0:
53,235,19595,1,0,0:0:0:0:
164,180,19810,1,0,0:0:0:0:
164,180,19917,1,0,0:0:0:0:
256,192,20024,12,0,21202,0:0:0:0:
333,183,21845,5,0,0:0:0:0:
261,121,22059,1,0,0:0:0:0:
164,180,22274,1,0,0:0:0:0:
52,79,22488,2,0,L|-6:19,1,70
162,70,22917,1,0,0:0:0:0:
266,246,23131,1,0,0:0:0:0:
161,69,23345,6,0,P|188:91|205:122,1,70
177,284,23774,5,0,0:0:0:0:
193,314,23881,1,0,0:0:0:0:
220,336,23988,1,0,0:0:0:0:
266,246,24202,6,0,P|249:215|222:193,1,70
55,121,24631,1,0,0:0:0:0:
177,284,24845,1,0,0:0:0:0:
100,30,25060,1,0,0:0:0:0:
57,246,25274,1,0,0:0:0:0:
218,72,25488,2,0,L|252:34,2,35
177,284,25917,6,0,P|193:314|220:336,1,70
353,381,26345,1,0,0:0:0:0:
353,381,26452,1,0,0:0:0:0:
266,246,26667,1,0,0:0:0:0:
266,246,26774,1,0,0:0:0:0:
256,192,26881,12,0,28488,0:0:0:0:
135,41,28702,5,0,0:0:0:0:
270,95,28917,1,0,0:0:0:0:
148,256,29131,1,0,0:0:0:0:
389,355,29345,1,0,0:0:0:0:
259,228,29560,2,0,L|238:210,2,23.3333333333333
297,240,29774,2,0,L|350:220,1,35
270,95,30095,1,0,0:0:0:0:
389,355,30202,6,0,L|326:219,1,140
270,95,30631,2,0,L|302:165,1,70
186,60,30845,1,0,0:0:0:0:
182,290,31060,1,0,0:0:0:0:
79,94,31274,2,0,L|43:22,1,70
130,192,31488,1,0,0:0:0:0:
233,8,31702,1,0,0:0:0:0:
179,105,31917,2,0,P|220:155|217:241,1,140
92,67,32345,5,0,0:0:0:0:
117,35,32452,1,0,0:0:0:0:
152,17,32559,1,0,0:0:0:0:
450,52,32774,1,0,0:0:0:0:
130,192,32988,2,0,P|100:166|83:117,1,70
179,105,33202,1,0,0:0:0:0:
211,138,33309,1,0,0:0:0:0:
226,181,33416,1,0,0:0:0:0:
222,227,33523,1,0,0:0:0:0:
224,274,33631,6,0,P|265:329|331:347,1,140
130,192,34060,1,0,0:0:0:0:
327,241,34274,1,0,0:0:0:0:
35,38,34488,1,0,0:0:0:0:
212,205,34702,2,0,L|223:273,1,70
192,92,34917,1,0,0:0:0:0:
65,336,35131,1,0,0:0:0:0:
224,274,35345,6,0,P|274:227|285:159,1,140
243,0,35774,1,0,0:0:0:0:
171,168,35988,1,0,0:0:0:0:
371,40,36202,1,0,0:0:0:0:
118,44,36417,1,0,0:0:0:0:
364,206,36631,2,0,P|397:146|387:78,1,140
371,40,36952,1,0,0:0:0:0:
334,21,37060,5,0,0:0:0:0:
487,83,37274,1,0,0:0:0:0:
296,124,37488,2,0,L|200:144,2,70
386,77,37917,1,0,0:0:0:0:
251,299,38131,2,0,L|202:373,1,70
320,184,38345,1,0,0:0:0:0:
181,266,38560,1,0,0:0:0:0:
96,83,38774,5,0,0:0:0:0:
271,189,38988,1,0,0:0:0:0:
181,266,39202,1,0,0:0:0:0:
145,286,39309,1,0,0:0:0:0:
106,290,39416,1,0,0:0:0:0:
200,112,39631,1,0,0:0:0:0:
37,222,39845,2,0,P|17:250|9:284,1,70
106,290,40060,1,0,2:0:0:0:
125,247,40167,1,0,2:0:0:0:
126,202,40274,1,0,2:0:0:0:
108,160,40381,1,0,2:0:0:0:
95,115,40489,6,0,P|116:50|174:12,1,140,0|0,2:0|2:0,2:0:0:0:
37,222,40917,1,0,0:0:0:0:
200,112,41131,1,0,0:0:0:0:
64,322,41345,1,0,0:0:0:0:
201,219,41560,2,0,L|269:165,1,70
159,344,41774,1,0,0:0:0:0:
200,112,41988,1,0,0:0:0:0:
387,282,42202,6,0,P|424:339|489:360,1,140,0|0,2:0|2:0,2:0:0:0:
485,262,42631,1,0,0:0:0:0:
411,148,42845,1,0,0:0:0:0:
254,68,43060,1,0,0:0:0:0:
44,81,43274,1,0,0:0:0:0:
246,166,43488,2,0,P|312:147|352:92,1,140,0|0,2:0|2:0,2:0:0:0:
367,55,43810,1,0,0:0:0:0:
361,16,43917,5,0,0:0:0:0:
120,184,44131,1,0,0:0:0:0:
411,148,44345,1,0,0:0:0:0:
430,113,44452,1,0,0:0:0:0:
436,72,44559,1,0,0:0:0:0:
242,267,44774,1,0,0:0:0:0:
314,150,44988,2,0,L|352:91,1,70
344,270,45202,1,0,0:0:0:0:
167,98,45417,1,0,0:0:0:0:
430,113,45631,5,0,0:0:0:0:
147,170,45845,1,0,0:0:0:0:
300,64,46060,2,0,L|350:15,2,70
311,235,46488,1,0,0:0:0:0:
198,78,46702,2,0,P|170:58|136:50,1,70
130,147,46917,1,0,2:0:0:0:
173,166,47024,1,0,2:0:0:0:
218,167,47131,1,0,2:0:0:0:
260,149,47238,1,0,2:0:0:0:
305,136,47346,6,0,P|370:157|408:215,1,140,0|0,2:0|2:0,2:0:0:0:
198,78,47774,1,0,0:0:0:0:
311,235,47988,1,0,0:0:0:0:
291,28,48202,1,0,0:0:0:0:
218,185,48417,2,0,L|174:268,1,70
332,124,48631,1,0,0:0:0:0:
71,307,48845,1,0,0:0:0:0:
311,235,49060,6,0,P|378:224|424:173,1,140,0|0,2:0|2:0,2:0:0:0:
459,43,49488,1,0,0:0:0:0:
332,124,49702,1,0,0:0:0:0:
508,216,49917,1,0,0:0:0:0:
329,338,50131,1,0,0:0:0:0:
444,136,50345,2,0,P|433:68|382:22,1,140,0|0,2:0|2:0,2:0:0:0:
354,4,50667,1,0,0:0:0:0:
314,1,50774,5,0,0:0:0:0:
508,216,50988,1,0,0:0:0:0:
279,82,51202,1,0,0:0:0:0:
242,69,51309,1,0,0:0:0:0:
199,69,51416,1,0,0:0:0:0:
512,0,51631,1,0,0:0:0:0:
229,157,51845,2,0,L|165:197,1,70
345,180,52060,1,0,0:0:0:0:
103,131,52274,1,0,0:0:0:0:
279,82,52488,5,0,0:0:0:0:
133,331,52702,1,0,0:0:0:0:
369,143,52917,2,0,L|429:100,2,70
309,275,53345,1,0,0:0:0:0:
279,82,53560,2,0,P|263:51|236:28,1,70
186,111,53775,1,0,2:0:0:0:
215,147,53882,1,0,2:0:0:0:
254,168,53989,1,0,2:0:0:0:
300,171,54096,1,0,2:0:0:0:
347,180,54204,6,0,P|395:228|402:297,1,140,0|0,2:0|2:0,2:0:0:0:
279,82,54631,5,0,0:0:0:0:
309,275,54845,1,0,0:0:0:0:
407,73,55060,1,0,0:0:0:0:
200,204,55274,1,0,0:0:0:0:
495,138,55488,6,0,P|519:73|498:8,1,140,0|0,2:0|2:0,2:0:0:0:
407,73,55917,6,0,L|373:63,1,35
371,92,56131,2,0,L|340:75,1,35
332,104,56346,2,0,L|305:81,1,35
292,107,56560,2,0,L|270:79,1,35
251,102,56774,2,0,L|235:70,1,35
289,196,56988,2,0,L|304:227,2,35
259,183,57310,2,0,P|222:174|182:130,1,70
444,207,57631,6,0,B|460:209|478:206|492:193|502:177|507:161|505:141|495:125|481:113|465:106|445:102|428:103|413:108|400:116|384:130|375:151|376:169|378:183|380:201|385:221|387:247|377:271|365:292|353:304,1,367.500014019013
170,269,59345,2,0,B|148:255|118:255|96:271|85:301|89:337|107:366|133:385|167:388|206:374|240:350|258:314|260:281|261:250|242:223,1,367.500014019013
258,160,61060,2,0,B|272:132|288:116|312:100|336:92|360:92|384:92|408:100|432:116|456:116|480:108|496:92|504:68|512:44|507:24|488:4|464:-4|432:-4|408:4|384:20|376:36|376:60|376:84|392:108|416:132|440:140|464:156|472:180|480:220|472:244|456:268|432:284|408:292|376:292|352:284|328:268|312:244|304:220|312:180|336:164|384:172,1,787.500030040742
184,294,64488,2,0,B|164:309|153:337|160:363|184:385|219:394|253:387|280:370|295:339|296:298|285:257|258:228|228:214|200:202|168:210,1,367.500014019013
83,204,66202,2,0,B|54:204|29:197|9:184|-7:165|-15:143|-15:120|-7:98|13:80|36:76|59:83|75:102|85:119|91:139|115:149|162:137|178:121|185:98|181:73|138:58,1,367.500014019013
236,68,67917,6,0,B|270:77|294:86|311:97|330:114|348:136|360:156|368:180|368:204|359:232|343:248|319:259|289:262|264:257|241:241|230:216|226:190|233:163|246:139|268:128|295:123|322:124|349:131|377:142|405:139|429:127|445:106|451:78|440:53|419:36|384:33|365:51,1,630.000024032594
100,49,71345,5,0,0:0:0:0:
202,97,71560,2,0,L|249:102,2,35
100,49,71989,1,0,0:0:0:0:
108,160,72203,1,0,0:0:0:0:
202,97,72417,1,0,0:0:0:0:
213,63,72524,1,0,0:0:0:0:
225,30,72631,1,0,0:0:0:0:
306,116,72846,1,0,0:0:0:0:
394,79,73060,5,0,0:0:0:0:
339,209,73274,2,0,L|319:258,2,35
394,79,73702,1,0,0:0:0:0:
429,239,73917,1,0,0:0:0:0:
300,104,74131,1,0,0:0:0:0:
289,70,74238,1,0,0:0:0:0:
277,37,74345,1,0,0:0:0:0:
339,209,74560,1,0,0:0:0:0:
437,154,74774,5,0,0:0:0:0:
306,116,74988,2,0,L|249:101,2,35
437,154,75417,1,0,0:0:0:0:
397,45,75631,1,0,0:0:0:0:
367,170,75845,1,0,0:0:0:0:
379,203,75952,1,0,0:0:0:0:
391,237,76059,1,0,0:0:0:0:
298,181,76274,1,0,0:0:0:0:
437,154,76488,5,0,0:0:0:0:
321,90,76702,2,0,L|286:75,2,35
437,154,77131,1,0,0:0:0:0:
396,84,77345,1,0,0:0:0:0:
363,151,77560,2,0,L|339:192,2,35
321,90,77988,1,0,0:0:0:0:
405,228,78202,6,0,P|369:256|332:255,1,70
313,247,78524,1,0,0:0:0:0:
286,225,78631,1,0,0:0:0:0:
242,139,78845,1,0,0:0:0:0:
164,202,79060,2,0,P|198:233|234:239,1,70
255,241,79381,1,0,0:0:0:0:
286,225,79488,1,0,0:0:0:0:
242,139,79702,1,0,0:0:0:0:
140,123,79917,6,0,P|98:146|82:178,1,70
77,197,80238,1,0,0:0:0:0:
79,232,80345,1,0,0:0:0:0:
170,212,80560,1,0,0:0:0:0:
79,232,80774,2,0,P|89:277|116:302,1,70
136,309,81095,1,0,0:0:0:0:
171,314,81202,1,0,0:0:0:0:
170,212,81417,1,0,0:0:0:0:
262,185,81631,6,0,P|245:140|216:119,1,70
198,111,81952,1,0,0:0:0:0:
163,110,82059,1,0,0:0:0:0:
294,40,82274,1,0,0:0:0:0:
170,212,82488,2,0,P|193:253|236:274,1,70
244,279,82810,1,0,0:0:0:0:
279,279,82917,1,0,0:0:0:0:
154,349,83131,1,0,0:0:0:0:
262,185,83345,6,0,B|294:144|293:117|287:92|278:70|262:54|244:41|227:36|208:36|188:44|179:53|173:66|169:83|171:100|180:115|194:126|213:130|234:128|246:122|257:111|263:96|272:79|285:68|303:62|321:59|349:63,1,420
338,61,85060,5,0,0:0:0:0:
362,235,85274,2,0,L|368:280,1,35
350,149,85488,1,0,0:0:0:0:
437,282,85702,1,0,0:0:0:0:
290,224,85917,1,0,0:0:0:0:
446,172,86131,1,0,0:0:0:0:
295,297,86345,2,0,P|260:292|222:243,1,70
437,282,86774,5,0,0:0:0:0:
290,224,86988,2,0,L|260:197,1,35
371,330,87202,1,0,0:0:0:0:
192,211,87417,1,0,0:0:0:0:
278,356,87631,1,0,0:0:0:0:
99,237,87845,1,0,0:0:0:0:
377,250,88060,2,0,P|411:257|436:281,1,70,0|0,2:0|2:0,2:0:0:0:
197,268,88488,5,0,0:0:0:0:
239,101,88702,2,0,L|262:65,1,35
154,196,88917,1,0,0:0:0:0:
299,149,89131,1,0,0:0:0:0:
271,303,89345,2,0,P|242:338|206:347,1,70
321,229,89774,2,0,P|352:214|371:185,1,70
402,54,90202,5,0,0:0:0:0:
299,149,90417,2,0,L|255:166,1,35
426,128,90631,2,0,P|457:111|476:73,1,70
321,229,91060,1,0,0:0:0:0:
402,54,91274,1,0,0:0:0:0:
226,103,91488,2,0,P|200:132|234:226,1,140
138,66,92131,6,0,L|116:25,1,35
207,30,92345,2,0,P|246:28|280:50,1,70
262,162,92774,1,0,0:0:0:0:
226,103,92988,1,0,0:0:0:0:
331,165,93202,1,0,0:0:0:0:
224,220,93417,1,0,0:0:0:0:
419,42,93631,5,0,0:0:0:0:
418,151,93845,2,0,L|418:195,1,35
478,97,94060,2,0,P|497:63|494:22,1,70
491,172,94488,1,0,0:0:0:0:
419,42,94702,1,0,0:0:0:0:
365,233,94917,2,0,P|397:254|438:254,1,70
205,182,95345,5,0,0:0:0:0:
418,186,95560,2,0,L|462:187,1,35
313,147,95774,1,0,0:0:0:0:
479,124,95988,1,0,0:0:0:0:
365,233,96202,1,0,0:0:0:0:
391,81,96417,1,0,0:0:0:0:
420,294,96631,2,0,P|386:313|345:310,1,70
191,273,97060,5,0,0:0:0:0:
191,273,97167,2,0,L|121:244,1,70
304,203,97488,1,0,0:0:0:0:
336,189,97595,1,0,0:0:0:0:
368,176,97702,1,0,0:0:0:0:
126,246,97917,1,0,0:0:0:0:
325,116,98131,2,0,P|356:102|391:105,1,70
46,41,98774,5,0,0:0:0:0:
214,165,98988,1,0,0:0:0:0:
368,176,99202,2,0,L|424:180,1,52.5000020027161
248,98,99417,1,0,0:0:0:0:
402,243,99631,1,0,0:0:0:0:
282,31,99845,1,0,0:0:0:0:
177,232,100060,6,0,L|149:284,1,52.5000020027161
274,242,100274,2,0,L|298:195,1,52.5000020027161
83,236,100488,2,0,P|72:283|96:338,1,105.000004005432
28,79,100917,2,0,L|12:22,1,52.5000020027161
121,134,101131,1,0,0:0:0:0:
48,152,101345,6,0,P|83:199|134:206,1,105.000004005432
416,158,101774,2,0,L|475:151,1,52.5000020027161
292,114,101988,1,0,0:0:0:0:
277,260,102202,2,0,L|336:253,1,52.5000020027161
203,196,102416,2,0,L|150:202,1,52.5000020027161
170,340,102631,2,0,L|229:333,1,52.5000020027161
96,276,102845,2,0,L|43:282,1,52.5000020027161
203,196,103060,5,0,0:0:0:0:
96,353,103274,1,0,0:0:0:0:
203,119,103488,1,0,0:0:0:0:
310,353,103702,1,0,0:0:0:0:
136,157,103917,1,0,0:0:0:0:
377,315,104131,1,0,0:0:0:0:
142,84,104345,6,0,P|83:105|63:147,1,105.000004005432
242,50,104774,2,0,L|300:22,1,52.5000020027161
136,157,104988,1,0,0:0:0:0:
376,45,105202,1,0,0:0:0:0:
361,277,105417,1,0,0:0:0:0:
192,108,105631,6,0,P|135:81|91:97,1,105.000004005432
376,45,106060,2,0,L|438:33,1,52.5000020027161
298,107,106274,1,0,0:0:0:0:
427,35,106488,1,0,0:0:0:0:
364,181,106702,1,0,0:0:0:0:
302,34,106917,2,0,P|246:52|223:95,1,105.000004005432
427,35,107345,6,0,L|489:23,1,52.5000020027161
298,107,107560,1,0,0:0:0:0:
424,251,107774,2,0,L|459:293,2,52.5000020027161
148,267,108202,1,0,0:0:0:0:
251,302,108417,1,0,0:0:0:0:
362,66,108631,2,0,P|310:32|268:38,1,105.000004005432
148,267,109060,6,0,L|98:317,1,52.5000020027161
251,302,109274,2,0,L|288:264,1,52.5000020027161
113,141,109488,2,0,L|63:191,1,52.5000020027161
216,176,109702,2,0,L|253:138,1,52.5000020027161
181,50,109917,5,0,0:0:0:0:
148,267,110131,1,0,0:0:0:0:
300,85,110345,1,0,0:0:0:0:
29,232,110560,1,0,0:0:0:0:
256,12,110774,2,0,P|304:-3|351:17,1,105.000004005432
113,141,111202,1,0,0:0:0:0:
351,265,111417,1,0,0:0:0:0:
164,85,111631,2,0,P|117:63|68:79,1,105.000004005432
148,267,112060,1,0,0:0:0:0:
300,85,112274,2,0,L|339:41,1,52.5000020027161
288,222,112488,5,0,0:0:0:0:
454,24,112702,1,0,0:0:0:0:
113,141,112917,2,0,L|43:165,1,52.5000020027161
174,7,113131,1,0,0:0:0:0:
222,262,113345,2,0,P|259:296|311:297,1,105.000004005432
246,138,113774,1,0,0:0:0:0:
311,297,113988,1,0,0:0:0:0:
164,96,114202,6,0,L|118:38,1,52.5000020027161
183,193,114417,1,0,0:0:0:0:
239,55,114631,2,0,L|257:4,1,52.5000020027161
102,160,114845,1,0,0:0:0:0:
314,86,115060,2,0,P|364:94|396:134,1,105.000004005432
164,96,115488,6,0,L|118:38,1,52.5000020027161
325,161,115702,1,0,0:0:0:0:
150,321,115917,2,0,L|195:376,1,52.5000020027161
216,233,116131,2,0,L|180:189,1,52.5000020027161
100,239,116345,2,0,L|58:271,1,52.5000020027161
263,315,116559,2,0,L|303:281,1,52.5000020027161
150,321,116774,5,0,0:0:0:0:
413,255,116988,1,0,0:0:0:0:
158,156,117202,1,0,0:0:0:0:
263,315,117417,2,0,L|308:370,1,52.5000020027161
258,204,117631,1,0,0:0:0:0:
419,373,117845,1,0,0:0:0:0:
332,179,118060,6,0,P|301:136|251:126,1,105.000004005432
476,325,118488,1,0,0:0:0:0:
258,204,118702,1,0,0:0:0:0:
403,300,118917,1,0,0:0:0:0:
263,315,119131,2,0,L|183:328,1,52.5000020027161
419,373,119346,5,0,0:0:0:0:
211,323,119560,1,0,0:0:0:0:
385,172,119774,2,0,L|436:163,1,52.5000020027161
295,242,119988,1,0,0:0:0:0:
475,102,120202,1,0,0:0:0:0:
387,263,120417,1,0,0:0:0:0:
394,92,120631,6,0,P|414:44|462:23,1,105.000004005432
260,167,121060,1,0,0:0:0:0:
475,102,121274,1,0,0:0:0:0:
304,18,121488,2,0,L|253:-1,1,52.5000020027161
394,92,121702,1,0,0:0:0:0:
253,94,121917,2,0,P|205:114|184:162,1,105.000004005432
394,92,122345,2,0,L|446:75,1,52.5000020027161
253,94,122560,1,0,0:0:0:0:
442,174,122774,6,0,L|491:190,1,52.5000020027161
394,92,122988,2,0,L|446:75,1,52.5000020027161
301,176,123202,2,0,L|350:192,1,52.5000020027161
253,94,123416,2,0,L|305:77,1,52.5000020027161
160,178,123631,5,0,0:0:0:0:
394,92,123845,1,0,0:0:0:0:
301,176,124060,1,0,0:0:0:0:
272,206,124167,1,0,0:0:0:0:
252,242,124274,1,0,0:0:0:0:
220,269,124381,1,0,0:0:0:0:
180,283,124488,1,0,0:0:0:0:
232,135,124702,6,0,P|268:98|319:97,2,105.000004005432
180,283,125345,1,0,0:0:0:0:
301,176,125560,1,0,0:0:0:0:
111,242,125774,2,0,L|59:259,1,52.5000020027161
232,135,125988,1,0,0:0:0:0:
97,367,126202,5,0,0:0:0:0:
259,250,126417,1,0,0:0:0:0:
101,153,126631,2,0,L|38:116,1,70
232,135,126845,1,0,0:0:0:0:
61,258,127060,1,0,0:0:0:0:
156,38,127274,1,0,0:0:0:0:
306,191,127488,2,0,P|334:260|300:313,1,140
386,82,127917,5,0,0:0:0:0:
425,268,128131,1,0,0:0:0:0:
324,120,128345,2,0,L|284:58,1,70
431,171,128560,1,0,0:0:0:0:
238,121,128774,2,0,P|209:51|243:-1,1,140
288,200,129202,2,0,L|301:277,1,70
155,192,129417,2,0,L|143:122,1,70
366,239,129631,6,0,P|362:310|300:343,1,140
324,120,130060,1,0,0:0:0:0:
411,363,130274,1,0,0:0:0:0:
251,149,130488,2,0,P|254:77|316:44,2,140
411,363,131131,1,0,0:0:0:0:
324,120,131345,5,0,0:0:0:0:
252,151,131560,1,0,0:0:0:0:
191,227,131774,1,0,0:0:0:0:
150,352,131988,1,0,0:0:0:0:
76,183,132202,1,0,0:0:0:0:
257,318,132417,1,0,0:0:0:0:
148,81,132631,2,0,L|120:9,1,70
76,183,132845,1,0,0:0:0:0:
307,44,133060,6,0,P|251:81|251:149,1,140
452,36,133488,2,0,L|520:-4,1,70
324,120,133702,1,0,0:0:0:0:
179,156,133917,2,0,P|215:212|283:212,1,140
76,183,134345,1,0,0:0:0:0:
251,149,134560,1,0,0:0:0:0:
93,114,134774,6,0,P|27:128|2:190,1,140
197,69,135202,2,0,L|259:28,1,70
158,193,135417,1,0,0:0:0:0:
295,88,135631,2,0,P|328:146|297:206,1,140
389,79,136060,2,0,L|432:19,1,70
429,181,136274,2,0,L|472:121,1,70
288,280,136488,6,0,P|231:242|231:175,1,140
219,384,136917,1,0,0:0:0:0:
297,206,137131,1,0,0:0:0:0:
79,281,137345,2,0,P|16:256|2:190,2,140
297,206,137988,1,0,0:0:0:0:
78,205,138202,1,0,0:0:0:0:
438,288,138417,5,0,0:0:0:0:
396,201,138631,1,0,0:0:0:0:
291,106,138845,1,0,0:0:0:0:
237,293,139060,1,0,0:0:0:0:
398,92,139274,1,0,0:0:0:0:
168,174,139488,1,0,0:0:0:0:
438,288,139702,2,0,L|507:318,1,70
396,201,139917,5,0,0:0:0:0:
485,384,140131,1,0,0:0:0:0:
303,207,140345,2,0,L|252:158,1,70
351,343,140560,1,0,0:0:0:0:
312,112,140774,2,0,P|251:81|189:118,1,140
398,92,141202,1,0,0:0:0:0:
303,207,141417,1,0,0:0:0:0:
512,0,141631,5,0,0:0:0:0:
267,34,141845,1,0,0:0:0:0:
435,185,142060,2,0,L|503:247,1,70
398,92,142274,1,0,0:0:0:0:
364,248,142488,2,0,P|304:279|244:248,1,140
161,128,142917,2,0,L|120:68,1,70
267,34,143131,2,0,L|306:91,1,70
49,73,143345,6,0,P|78:12|145:2,1,140
69,210,143774,1,0,0:0:0:0:
121,70,143988,1,0,0:0:0:0:
215,182,144202,2,0,P|212:249|155:285,2,140
121,70,144845,1,0,0:0:0:0:
148,213,145060,6,0,P|148:145|203:107,1,140,0|0,2:0|0:0,0:0:0:0:
287,122,145488,1,0,0:0:0:0:
364,180,145702,1,0,0:0:0:0:
405,311,145917,1,0,0:0:0:0:
375,85,146131,1,0,0:0:0:0:
279,281,146345,2,0,L|243:355,1,70
409,238,146560,1,0,0:0:0:0:
213,247,146774,6,0,P|158:286|94:263,1,140,0|0,2:0|0:0,0:0:0:0:
315,184,147202,2,0,L|390:158,1,70
220,147,147417,1,0,0:0:0:0:
375,85,147631,2,0,P|437:109|453:174,1,140,0|0,2:0|0:0,0:0:0:0:
472,38,148060,1,0,0:0:0:0:
381,161,148274,1,0,0:0:0:0:
362,12,148488,6,0,P|306:50|306:117,1,140,0|0,2:0|0:0,0:0:0:0:
381,257,148917,2,0,L|419:329,1,70
381,161,149131,1,0,0:0:0:0:
188,315,149345,2,0,P|120:314|82:259,1,140,0|0,2:0|0:0,0:0:0:0:
200,121,149774,2,0,L|248:63,1,70
292,209,149988,2,0,L|247:262,1,70
208,7,150202,6,0,P|275:7|313:62,1,140,0|0,2:0|0:0,0:0:0:0:
115,59,150631,1,0,0:0:0:0:
381,161,150845,1,0,0:0:0:0:
89,127,151060,2,0,P|44:77|59:12,2,140,0|0|0,2:0|0:0|0:0,0:0:0:0:
381,161,151702,2,0,L|471:170,1,70
313,62,151917,5,0,0:0:0:0:
303,137,152131,1,0,0:0:0:0:
250,216,152345,1,0,0:0:0:0:
148,288,152560,1,0,0:0:0:0:
207,129,152774,1,0,0:0:0:0:
253,328,152988,1,0,0:0:0:0:
133,138,153202,2,0,P|160:71|226:58,1,140,0|0,2:0|0:0,0:0:0:0:
133,0,153524,1,0,0:0:0:0:
206,128,153631,2,0,P|184:192|119:210,1,140,0|0,2:0|0:0,0:0:0:0:
133,138,154274,1,0,0:0:0:0:
63,162,154488,2,0,P|46:200|54:243,2,70
206,128,155131,1,0,0:0:0:0:
41,301,155345,6,0,P|104:275|119:210,1,140,0|0,2:0|0:0,0:0:0:0:
0,384,155988,1,0,0:0:0:0:
119,210,156202,2,0,P|136:172|129:129,2,70
41,301,156845,1,0,0:0:0:0:
119,69,157060,6,0,P|184:83|210:146,1,140,0|0,2:0|0:0,0:0:0:0:
195,219,157702,1,0,0:0:0:0:
209,146,157917,6,0,P|262:185|260:253,1,140,0|0,2:0|0:0,0:0:0:0:
217,313,158559,1,0,0:0:0:0:
260,253,158774,6,0,P|293:310|263:372,1,140,0|0,2:0|0:0,0:0:0:0:
183,251,159417,2,0,P|191:213|271:180,2,105
324,223,160274,1,0,0:0:0:0:
244,281,160488,6,0,P|187:314|125:284,1,140,0|0,2:0|0:0,0:0:0:0:
227,382,161131,1,0,0:0:0:0:
183,243,161345,2,0,P|144:212|100:214,1,70
244,281,161774,1,0,0:0:0:0:
210,176,161988,1,0,0:0:0:0:
337,334,162202,6,0,P|397:363|455:330,1,140,0|0,2:0|0:0,0:0:0:0:
262,356,162845,1,0,0:0:0:0:
395,287,163060,2,0,P|437:259|478:262,1,70
360,384,163488,1,0,0:0:0:0:
389,191,163702,1,0,0:0:0:0:
262,356,163917,6,0,P|205:389|143:359,1,140,0|0,2:0|0:0,0:0:0:0:
277,236,164560,1,0,0:0:0:0:
143,359,164774,6,0,P|79:342|56:276,1,140,0|0,2:0|0:0,0:0:0:0:
203,316,165417,1,0,0:0:0:0:
53,281,165631,6,0,P|20:224|49:162,1,140,0|0,2:0|0:0,0:0:0:0:
93,220,166274,2,0,P|122:179|115:120,1,105
49,161,166917,1,0,0:0:0:0:
260,213,167131,2,0,L|306:222,1,35
268,145,167345,6,0,P|221:156|197:187,1,70
279,78,167774,1,0,0:0:0:0:
350,256,167988,1,0,0:0:0:0:
334,122,168202,1,0,0:0:0:0:
263,300,168417,1,0,0:0:0:0:
382,191,168631,2,0,P|413:220|422:259,1,70
247,15,169060,6,0,P|215:44|209:85,2,70
279,78,169702,1,0,0:0:0:0:
131,93,169917,2,0,P|99:63|92:23,1,70
164,29,170345,1,0,0:0:0:0:
207,86,170560,1,0,0:0:0:0:
89,157,170774,6,0,P|129:171|168:158,1,70
207,86,171202,1,0,0:0:0:0:
207,86,171417,1,0,0:0:0:0:
89,157,171631,6,0,P|107:195|144:214,1,70
222,190,172059,1,0,0:0:0:0:
222,190,172274,1,0,0:0:0:0:
89,157,172488,6,0,P|74:197|86:235,1,70
145,272,172916,1,0,0:0:0:0:
145,272,173131,2,0,P|91:304|42:297,1,105
149,197,173774,1,0,0:0:0:0:
214,320,173988,2,0,L|229:263,1,35
88,156,174202,6,0,P|73:196|85:234,1,70
153,132,174631,1,0,0:0:0:0:
3,241,174845,1,0,0:0:0:0:
149,197,175060,1,0,0:0:0:0:
0,87,175274,1,0,0:0:0:0:
78,221,175488,2,0,P|99:257|136:272,1,70
222,113,175917,6,0,P|200:76|163:61,2,70
252,245,176560,1,0,0:0:0:0:
153,132,176774,2,0,P|122:115|104:86,1,70
206,186,177202,1,0,0:0:0:0:
177,64,177417,1,0,0:0:0:0:
274,173,177631,6,0,P|304:189|322:218,1,70
271,82,178060,1,0,0:0:0:0:
206,186,178274,1,0,0:0:0:0:
322,218,178488,6,0,P|332:251|323:284,1,70
384,151,178917,1,0,0:0:0:0:
274,173,179131,1,0,0:0:0:0:
323,284,179345,6,0,P|306:314|277:332,1,70
414,280,179774,1,0,0:0:0:0:
322,218,179988,1,0,0:0:0:0:
135,336,180310,1,0,0:0:0:0:
135,100,180631,1,0,0:0:0:0:
187,198,180845,2,0,L|212:243,1,35
111,175,181060,6,0,P|80:158|62:129,1,70
