osu file format v14

[General]
AudioFilename: audio.mp3
AudioLeadIn: 0
PreviewTime: 65645
Countdown: 0
SampleSet: Soft
StackLeniency: 0.4
Mode: 0
LetterboxInBreaks: 0
WidescreenStoryboard: 0

[Editor]
DistanceSpacing: 0.1
BeatDivisor: 4
GridSize: 8
TimelineZoom: 1.3

[Metadata]
Title:Watashitachi no STARTRAIL (TV Size)
TitleUnicode:私たちのSTARTRAIL (TV Size)
Artist:Lapis Re:LiGHTs Stars
ArtistUnicode:ラピスリライツ・スターズ
Creator:Mayuzumi Fuyuko
Version:Shining Stars
Source:Lapis Re:LiGHTs
Tags:our star trail relights japanese pop jpop j-pop anime idols 安齋 由香里 Yukari Anzai Tiara 久保田 梨沙 Risa Lisa Kubota Rosetta Lavie Ribu Mukai 向井莉生 佐伯 伊織 Saeki Iori Ashley 山本 美月 Yamamoto Mizuki Lynette 星乃 葉月 篠原 侑 中山 瑶子 本泉 莉奈 鈴木 亜理沙 大野 柚布子 早瀬 雪未 広瀬 世華 赤尾 ひかる 雨宮 夕夏 松田 利冴 桜木 夕 奥 紗瑛子 伊藤 はるか 花澤 香菜 南條 愛 上坂 すみれ 佐倉 綾音 Hoshino Hazuki Mineuchi Tomomi Sasahara Yuu Nakayama Youko Rina Honnizumi Suzuki Arisa Oono Yuuko Hayase Yukimi Hirose Seika Akao Hikaru Amemiya Yuka Matsuda Risae Sakuragi Yuu Oku Saeko Itou Haruka Hanazawa Kana Nanjo Yoshino Uesaka Sumire Sakura Ayane Erisu Wanpachi Cycopton Kowari -_Ex_- osuplayer111 Andrea Sekai Sekaii Sekai-nyan
BeatmapID:2737177
BeatmapSetID:1321380

[Difficulty]
HPDrainRate:5.5
CircleSize:4
OverallDifficulty:8.6
ApproachRate:9.2
SliderMultiplier:1.8
SliderTickRate:1

[Events]
//Background and Video events
0,0,"bg.jpg",0,0
Video,-272,"op.mp4"
//Break Periods
//Storyboard Layer 0 (Background)
//Storyboard Layer 1 (Fail)
//Storyboard Layer 2 (Pass)
//Storyboard Layer 3 (Foreground)
//Storyboard Layer 4 (Overlay)
//Storyboard Sound Samples

[TimingPoints]
1065,333.333333333333,4,2,1,40,1,0
1065,-250,4,2,1,40,0,0
2064,-250,4,2,1,40,0,0
10898,-166.666666666667,4,2,1,40,0,0
16564,-200,4,2,1,40,0,0
17064,-111.111111111111,4,2,1,40,0,0
17398,-111.111111111111,4,2,1,40,0,0
21064,-90.9090909090909,4,2,1,55,0,0
21398,-100,4,2,1,55,0,0
22231,-90.9090909090909,4,2,1,55,0,0
22564,-100,4,2,1,55,0,0
26398,-83.3333333333333,4,2,1,60,0,0
26731,-111.111111111111,4,2,1,60,0,0
29064,-90.9090909090909,4,2,1,60,0,0
29398,-111.111111111111,4,2,1,60,0,0
31064,-111.111111111111,4,2,2,60,0,0
31231,-111.111111111111,4,2,1,60,0,0
31731,-83.3333333333333,4,2,2,60,0,0
31981,-83.3333333333333,4,2,1,60,0,0
32064,-111.111111111111,4,2,1,60,0,0
33064,-111.111111111111,4,2,1,60,0,0
33398,-111.111111111111,4,2,1,60,0,0
34064,-100,4,2,1,60,0,0
34398,-111.111111111111,4,2,1,60,0,0
35731,-100,4,2,1,60,0,0
36231,-111.111111111111,4,2,1,60,0,0
36398,-111.111111111111,4,2,2,60,0,0
36564,-111.111111111111,4,2,1,60,0,0
37064,-111.111111111111,4,2,2,60,0,0
37231,-111.111111111111,4,2,1,60,0,0
38398,-100,4,2,1,60,0,0
38898,-100,4,2,1,60,0,0
39398,-111.111111111111,4,2,1,60,0,0
39731,-76.9230769230769,4,2,1,60,0,0
40064,-111.111111111111,4,2,1,60,0,0
41064,-90.9090909090909,4,2,1,60,0,0
41731,-111.111111111111,4,2,2,60,0,0
41898,-111.111111111111,4,2,1,60,0,0
42396,-100,4,2,2,60,0,0
42648,-100,4,2,1,60,0,0
42898,-111.111111111111,4,2,1,60,0,0
45064,-90.9090909090909,4,2,1,60,0,0
45398,-111.111111111111,4,2,1,60,0,0
46398,-76.9230769230769,4,2,1,60,0,0
46731,-100,4,2,1,60,0,0
47731,-95.2380952380952,4,2,1,50,0,0
48064,-142.857142857143,4,2,1,50,0,0
48398,-111.111111111111,4,2,1,50,0,0
48898,-142.857142857143,4,2,1,50,0,0
50398,-111.111111111111,4,2,1,50,0,0
50731,-142.857142857143,4,2,1,50,0,0
51064,-111.111111111111,4,2,1,50,0,0
51564,-142.857142857143,4,2,1,50,0,0
52064,-100,4,2,1,50,0,0
52398,-111.111111111111,4,2,1,50,0,0
52731,-142.857142857143,4,2,1,50,0,0
53064,-90.9090909090909,4,2,1,50,0,0
53398,-142.857142857143,4,2,1,50,0,0
55731,-111.111111111111,4,2,1,50,0,0
56064,-142.857142857143,4,2,1,50,0,0
56398,-111.111111111111,4,2,1,50,0,0
57064,-142.857142857143,4,2,1,50,0,0
58398,-100,4,2,1,70,0,0
58731,-100,4,2,1,70,0,0
63731,-166.666666666667,4,2,1,70,0,0
65064,-125,4,2,1,70,0,0
66398,-71.4285714285714,4,2,1,80,0,0
66731,-83.3333333333333,4,2,1,80,0,0
69064,-76.9230769230769,4,2,1,80,0,0
69564,-83.3333333333333,4,2,1,80,0,0
71731,-76.9230769230769,4,2,1,80,0,0
72064,-83.3333333333333,4,2,1,80,0,0
74398,-76.9230769230769,4,2,1,80,0,0
74731,-83.3333333333333,4,2,1,80,0,0
77064,-76.9230769230769,4,2,1,80,0,0
77398,-83.3333333333333,4,2,1,80,0,0
79731,-83.3333333333333,4,2,1,80,0,0
80064,-83.3333333333333,4,2,1,80,0,0
82398,-83.3333333333333,4,2,1,75,0,1
82731,-83.3333333333333,4,2,1,75,0,1
86398,-100,4,2,1,70,0,0
87231,-100,4,2,1,70,0,0
87648,-100,4,2,1,5,0,0
87731,-100,4,2,1,60,0,0
90064,-100,4,2,1,5,0,0

[Colours]
Combo1 : 216,79,75
Combo2 : 243,172,39
Combo3 : 154,123,234
Combo4 : 26,121,217
Combo5 : 80,136,38

[HitObjects]
7,56,1065,6,0,B|57:29|115:76|90:89|127:132|202:116,1,216,6|2,0:1|0:0,0:0:0:0:
35,234,2398,2,0,L|16:148,1,72,2|2,0:0|0:0,0:0:0:0:
162,243,3064,2,0,L|143:329,1,72,2|2,0:0|0:0,0:0:0:0:
294,205,3731,2,0,P|350:100|295:91,1,216,2|2,0:0|0:0,0:0:0:0:
181,50,5064,2,0,L|102:56,2,72,2|2|2,0:0|0:0|0:0,0:0:0:0:
401,192,6398,6,0,B|420:219|459:243|459:243|428:284|397:373,1,216,2|2,0:0|0:0,0:0:0:0:
277,242,7731,2,0,L|289:160,1,72,2|2,0:0|0:0,0:0:0:0:
422,47,8398,2,0,L|434:129,1,72,2|2,0:0|0:0,0:0:0:0:
217,133,9064,2,0,B|224:101|261:91|261:91|223:89|187:113|201:123|173:158|131:163,1,216,2|2,0:0|0:0,0:0:0:0:
142,317,10398,2,0,B|173:305|173:305|180:309|180:309|211:298,1,72,2|0,0:0|0:0,0:0:0:0:
295,269,10898,2,0,L|290:209,2,53.9999983520508,2|2|2,0:0|0:0|0:0,0:0:0:0:
394,296,11398,1,2,0:0:0:0:
394,296,11564,1,2,0:0:0:0:
394,195,11731,6,0,P|405:142|381:85,1,107.999996704102,2|2,0:0|0:0,0:0:0:0:
297,30,12231,1,2,0:0:0:0:
141,134,12564,1,2,0:0:0:0:
141,134,12731,2,0,P|128:78|154:13,1,107.999996704102,2|2,0:0|0:0,0:0:0:0:
41,101,13231,2,0,B|21:135|21:135|47:215,1,107.999996704102,2|2,0:0|0:0,0:0:0:0:
120,263,13731,2,0,L|116:326,2,53.9999983520508,2|2|2,0:0|0:0|0:0,0:0:0:0:
42,200,14231,1,2,0:0:0:0:
136,178,14398,6,0,B|142:123|130:92|130:92|111:70,1,107.999996704102,2|0,0:0|0:0,0:0:0:0:
194,29,14898,1,2,0:0:0:0:
194,29,15064,2,0,P|257:14|308:41,1,107.999996704102,2|2,0:0|0:0,0:0:0:0:
243,95,15564,1,2,0:0:0:0:
402,26,15898,2,0,B|418:81|418:81|386:144,1,107.999996704102,2|0,0:0|0:0,0:0:0:0:
307,198,16398,1,0,3:2:0:0:
307,198,16564,2,0,B|294:157|294:157|318:110,1,90,2|2,0:0|0:0,0:0:0:0:
451,244,17064,6,0,P|363:300|311:279,1,161.999995056153,6|0,3:1|0:0,0:0:0:0:
217,225,17564,1,8,0:0:0:0:
217,225,17648,1,8,0:0:0:0:
217,225,17731,2,0,L|208:322,1,80.9999975280763,10|0,0:0|0:0,0:0:0:0:
79,265,18064,2,0,L|70:168,1,80.9999975280763,2|0,3:2|0:0,0:0:0:0:
0,324,18398,6,0,B|47:362|47:362|164:328,1,161.999995056153,6|2,3:2|0:0,0:0:0:0:
0,324,18898,1,0,3:1:0:0:
112,246,19064,2,0,P|155:228|213:242,1,80.9999975280763,2|0,3:2|0:0,0:0:0:0:
330,352,19398,2,0,P|287:370|229:356,1,80.9999975280763,2|0,3:2|0:0,0:0:0:0:
339,246,19731,1,2,0:0:0:0:
339,246,20398,5,0,3:2:0:0:
407,159,20564,1,8,0:0:0:0:
407,159,20648,1,8,0:0:0:0:
407,159,20731,2,8,L|429:207,1,40.4999987640381
512,300,20898,2,8,L|506:258,1,40.4999987640381
477,73,21064,6,0,B|414:52|387:56|387:56|368:95|311:95,1,148.50000453186,4|0,3:2|0:0,0:0:0:0:
278,55,21398,2,0,P|214:46|170:80,1,90,8|0,0:0|0:0,0:0:0:0:
322,252,21731,2,0,L|301:164,1,90,0|0,3:1|3:1,0:0:0:0:
136,155,22064,1,8,0:0:0:0:
254,299,22231,6,0,P|341:333|404:280,1,148.50000453186,4|0,3:2|0:0,0:0:0:0:
459,278,22564,2,0,L|445:188,1,90,0|8,3:2|0:0,0:0:0:0:
419,53,22898,1,8,0:0:0:0:
389,42,22981,1,8,0:0:0:0:
357,42,23064,1,8,0:0:0:0:
326,52,23148,1,8,0:0:0:0:
296,62,23231,1,8,0:0:0:0:
264,63,23314,1,8,0:0:0:0:
234,52,23398,2,8,L|181:31,1,45
274,150,23564,1,0,3:2:0:0:
274,150,23648,1,0,3:2:0:0:
274,150,23731,6,0,L|259:275,1,90,4|0,3:2|0:0,0:0:0:0:
358,349,24064,1,8,0:0:0:0:
415,130,24231,2,0,L|425:219,1,90,4|0,3:2|0:0,0:0:0:0:
358,349,24564,1,8,0:0:0:0:
263,239,24731,1,0,3:1:0:0:
429,295,24898,1,0,3:1:0:0:
213,345,25064,6,0,P|160:357|103:335,1,90,4|0,3:2|0:0,0:0:0:0:
210,138,25398,1,8,0:0:0:0:
0,271,25564,2,0,P|53:283|-12:191,1,270,4|0,3:2|0:0,0:0:0:0:
129,76,26231,1,0,3:2:0:0:
129,76,26314,1,0,3:2:0:0:
129,76,26398,6,0,B|184:57|241:68|241:68|216:83|204:124,1,161.999995056153,4|0,3:1|0:0,0:0:0:0:
285,132,26731,2,0,P|338:142|396:119,1,80.9999975280763,10|0,0:0|0:0,0:0:0:0:
337,30,27064,1,2,0:0:0:0:
257,165,27231,2,0,L|267:261,1,80.9999975280763,2|8,3:2|0:0,0:0:0:0:
382,363,27564,2,0,L|392:267,1,80.9999975280763,2|0,0:0|3:1,0:0:0:0:
268,361,27898,5,2,0:0:0:0:
173,293,28064,2,0,P|176:242|143:196,1,80.9999975280763,10|0,0:0|3:1,0:0:0:0:
28,121,28398,2,0,P|59:145|99:151,1,80.9999975280763,2|0,0:0|3:1,0:0:0:0:
252,81,28731,2,0,P|215:96|190:127,1,80.9999975280763,10|0,0:0|3:1,0:0:0:0:
264,234,29064,6,0,B|333:230|333:230|351:241|351:241|414:238,1,148.50000453186,6|0,3:2|0:0,0:0:0:0:
476,184,29398,2,0,L|465:92,1,80.9999975280763,10|0,0:0|0:0,0:0:0:0:
336,17,29731,2,0,L|325:109,1,80.9999975280763,2|0,0:0|3:1,0:0:0:0:
388,203,30064,1,10,0:0:0:0:
388,203,30231,1,2,0:0:0:0:
253,159,30398,6,0,B|210:167|190:195|190:195|74:173,1,161.999995056153,0|8,3:1|0:0,0:0:0:0:
121,62,30898,1,0,3:1:0:0:
31,141,31064,2,0,P|21:188|46:240,1,80.9999975280763,0|0,1:0|3:1,0:0:0:0:
183,268,31398,2,0,L|193:181,1,80.9999975280763,8|0,0:0|0:0,0:0:0:0:
103,384,31731,6,0,B|198:390|158:328|269:336,1,161.999995056153,12|0,2:2|0:0,0:0:0:0:
294,270,32064,2,0,P|331:261|390:285,1,80.9999975280763,10|0,0:0|0:0,0:0:0:0:
452,360,32398,1,2,0:0:0:0:
464,239,32564,2,0,P|474:199|455:158,1,80.9999975280763,2|8,3:2|0:0,0:0:0:0:
378,103,32898,1,2,0:0:0:0:
378,103,33064,6,0,L|373:195,1,80.9999975280763,0|2,3:1|0:0,0:0:0:0:
466,16,33398,2,0,P|420:0|368:15,1,80.9999975280763,10|0,0:0|3:1,0:0:0:0:
293,102,33731,2,0,P|247:118|195:103,1,80.9999975280763,2|0,0:0|3:1,0:0:0:0:
51,32,34064,2,0,P|111:62|86:126,1,135,10|0,0:0|0:0,0:0:0:0:
31,161,34398,6,0,B|20:206|20:206|43:265,1,80.9999975280763,6|0,3:2|0:0,0:0:0:0:
190,287,34731,2,0,B|201:242|201:242|178:183,1,80.9999975280763,10|0,0:0|0:0,0:0:0:0:
57,321,35064,2,0,P|94:337|143:330,1,80.9999975280763,2|0,0:0|3:1,0:0:0:0:
274,285,35398,1,10,0:0:0:0:
274,285,35564,1,2,0:0:0:0:
104,258,35731,6,0,B|68:221|68:221|108:79,1,180,0|8,3:1|0:0,0:0:0:0:
177,200,36231,1,0,3:1:0:0:
12,87,36398,1,2,1:2:0:0:
186,92,36564,1,2,3:2:0:0:
5,182,36731,1,10,0:0:0:0:
102,27,36898,1,8,0:0:0:0:
102,27,36981,1,8,0:0:0:0:
102,27,37064,6,0,P|98:83|133:123,1,80.9999975280763,14|0,2:0|0:0,0:0:0:0:
264,210,37398,2,0,P|222:171|169:173,1,80.9999975280763,10|0,0:0|0:0,0:0:0:0:
81,207,37731,1,2,0:0:0:0:
81,207,37898,1,2,3:2:0:0:
13,277,38064,1,10,0:0:0:0:
80,346,38231,1,2,0:0:0:0:
160,289,38398,6,0,B|217:296|217:296|231:305|231:305|293:310,1,135,2|0,3:2|0:0,0:0:0:0:
315,278,38731,1,10,0:0:0:0:
349,172,38898,2,0,P|407:143|379:217,1,180,2|0,3:2|3:1,0:0:0:0:
261,118,39398,2,0,L|161:134,1,80.9999975280763,8|0,0:0|0:0,0:0:0:0:
60,30,39731,6,0,B|0:78|0:78|35:219,1,175.499991966248,6|0,3:2|0:0,0:0:0:0:
81,230,40064,2,0,L|160:242,1,80.9999975280763,10|2,0:0|0:0,0:0:0:0:
270,309,40398,1,2,0:0:0:0:
266,171,40564,1,2,3:2:0:0:
186,274,40731,1,10,0:0:0:0:
325,238,40898,1,2,0:0:0:0:
183,162,41064,6,0,P|231:99|331:120,1,148.50000453186,2|0,3:2|0:0,0:0:0:0:
295,95,41398,1,10,0:0:0:0:
415,201,41564,1,2,3:2:0:0:
415,201,41731,2,0,P|439:151|426:99,1,80.9999975280763,0|0,1:0|3:1,0:0:0:0:
296,228,42064,2,0,P|272:277|285:329,1,80.9999975280763,10|2,0:0|0:0,0:0:0:0:
363,142,42398,6,0,B|320:117|320:117|210:144,1,135,14|0,2:0|0:0,0:0:0:0:
211,169,42731,1,10,0:0:0:0:
134,20,42898,2,0,L|119:99,1,80.9999975280763,2|0,0:0|0:0,0:0:0:0:
103,200,43231,1,2,3:2:0:0:
9,46,43398,2,0,L|23:125,1,80.9999975280763,10|0,0:0|0:0,0:0:0:0:
96,298,43731,6,0,B|206:282|206:282|181:293|163:319,1,161.999995056153,2|8,3:2|0:0,0:0:0:0:
96,298,44231,1,0,3:2:0:0:
10,368,44398,2,0,P|1:312|19:258,1,80.9999975280763,2|0,0:0|3:2,0:0:0:0:
198,200,44731,2,0,P|207:256|189:310,1,80.9999975280763,10|0,0:0|0:0,0:0:0:0:
115,156,45064,6,0,P|171:112|246:128,1,148.50000453186,6|0,3:2|0:0,0:0:0:0:
269,146,45398,1,10,0:0:0:0:
428,243,45564,2,0,P|383:258|347:251,1,80.9999975280763,2|0,0:0|0:0,0:0:0:0:
221,212,45898,1,2,3:2:0:0:
366,147,46064,2,0,P|369:109|397:73,1,80.9999975280763,10|0,0:0|0:0,0:0:0:0:
255,20,46398,6,0,B|217:60|217:60|244:187,1,175.499991966248,6|0,3:2|0:0,0:0:0:0:
227,235,46731,2,0,L|203:130,1,90,8|0,0:0|3:1,0:0:0:0:
407,228,47064,1,10,0:0:0:0:
236,326,47231,1,0,3:1:0:0:
301,193,47398,1,0,3:1:0:0:
354,325,47564,1,2,3:2:0:0:
148,193,47731,6,0,P|82:204|100:267,1,141.749995674133,6|0,3:1|0:0,0:0:0:0:
171,222,48064,2,0,L|182:132,1,62.9999980773926,2|0,0:0|3:2,0:0:0:0:
75,14,48398,2,0,B|60:45|38:68|38:68|48:106|62:181,1,161.999995056153,10|2,0:0|0:0,0:0:0:0:
166,45,48898,2,0,P|235:24|301:56,1,125.999996154785,2|10,3:2|0:0,0:0:0:0:
396,123,49398,2,0,L|398:51,1,62.9999980773926,2|0,3:2|0:0,0:0:0:0:
264,163,49731,1,10,0:0:0:0:
390,233,50064,1,2,0:0:0:0:
137,94,50398,6,0,B|199:133|199:133|189:258,1,161.999995056153,6|2,3:2|0:0,0:0:0:0:
77,154,50898,1,2,3:2:0:0:
126,296,51064,2,0,P|40:296|22:212,1,161.999995056153,10|2,0:0|0:0,0:0:0:0:
152,259,51564,2,0,L|164:349,1,62.9999980773926,2|0,3:2|0:0,0:0:0:0:
15,234,51898,1,10,0:0:0:0:
125,174,52064,2,0,B|180:172|180:172|216:184|216:184|275:179,1,135,2|0,3:2|0:0,0:0:0:0:
335,135,52398,2,0,L|343:45,1,80.9999975280763,6|0,3:2|0:0,0:0:0:0:
469,236,52731,2,0,L|461:146,1,62.9999980773926,2|0,3:2|3:2,0:0:0:0:
333,247,53064,6,0,P|259:253|166:261,1,148.50000453186,6|0,3:2|0:0,0:0:0:0:
102,216,53398,2,0,L|98:300,1,62.9999980773926,2|0,0:0|3:1,0:0:0:0:
187,172,53731,1,10,0:0:0:0:
17,205,53898,1,2,0:0:0:0:
178,292,54064,1,2,0:0:0:0:
98,126,54231,1,2,3:2:0:0:
53,296,54398,6,0,L|48:372,1,62.9999980773926,2|10,0:0|0:0,0:0:0:0:
109,223,54731,1,2,3:2:0:0:
109,223,54898,1,2,0:0:0:0:
173,304,55064,2,0,P|213:311|257:288,1,62.9999980773926,10|0,0:0|0:0,0:0:0:0:
360,367,55398,2,0,P|350:334|323:309,1,62.9999980773926,2|0,3:2|3:1,0:0:0:0:
375,142,55731,6,0,P|315:136|312:241,1,161.999995056153,6|2,3:2|0:0,0:0:0:0:
375,142,56231,1,0,3:1:0:0:
296,33,56398,2,0,B|180:17|180:17|170:50|125:62,1,161.999995056153,10|2,0:0|0:0,0:0:0:0:
296,33,56898,1,2,3:2:0:0:
170,138,57064,6,0,L|166:223,1,62.9999980773926,2|8,0:0|0:0,0:0:0:0:
268,325,57398,1,2,3:2:0:0:
84,281,57564,1,10,0:0:0:0:
303,176,57731,1,12,0:0:0:0:
165,325,57898,1,0,3:1:0:0:
71,190,58064,1,10,0:0:0:0:
71,190,58148,1,8,0:0:0:0:
71,190,58231,2,0,L|75:132,1,31.4999990386963,0|0,3:2|3:2,3:2:0:0:
23,13,58398,6,0,B|70:-7|127:19|101:34|143:67|214:49,1,180,6|10,3:1|0:0,0:0:0:0:
335,157,58898,2,0,B|376:198|376:198|338:47,1,180,2|0,3:2|3:1,0:0:0:0:
221,196,59398,1,10,0:0:0:0:
378,278,59564,1,2,3:2:0:0:
139,305,59731,6,0,P|56:286|66:202,1,180,6|10,3:2|0:0,0:0:0:0:
50,376,60231,1,2,3:2:0:0:
163,214,60398,1,8,0:0:0:0:
163,214,60481,1,8,0:0:0:0:
163,214,60564,2,0,P|215:201|278:229,1,90,10|2,0:0|3:2,0:0:0:0:
431,336,60898,6,0,B|476:293|476:293|431:155,1,180,6|0,3:2|3:1,0:0:0:0:
412,171,61314,1,0,3:1:0:0:
412,171,61398,2,0,L|401:109,1,45,8|0,0:0|3:2,0:0:0:0:
311,41,61564,5,0,3:2:0:0:
311,41,61648,1,0,3:2:0:0:
311,41,61731,2,0,L|299:110,1,45,8|0,0:0|3:2,0:0:0:0:
224,185,61898,5,0,3:2:0:0:
224,185,61982,1,0,3:2:0:0:
224,185,62065,2,0,L|212:116,1,45,8|0,0:0|3:2,0:0:0:0:
133,46,62231,5,0,3:2:0:0:
133,46,62315,1,0,3:2:0:0:
133,46,62398,2,0,L|121:115,1,45,8|0,0:0|3:2,0:0:0:0:
28,206,62564,5,0,3:2:0:0:
28,206,62648,1,0,3:2:0:0:
28,206,62731,2,0,L|16:137,3,45,10|0|0|0,0:0|3:2|3:2|3:2,0:0:0:0:
103,279,63064,5,10,0:0:0:0:
103,279,63148,1,0,3:2:0:0:
103,279,63231,2,0,L|161:268,1,45,0|0,3:2|3:2,0:0:0:0:
265,141,63398,2,0,L|245:196,1,45,10|0,0:0|3:2,0:0:0:0:
296,344,63564,2,0,L|257:299,1,45,0|0,3:2|3:2,0:0:0:0:
167,177,63731,5,6,3:2:0:0:
158,151,63814,1,0,3:2:0:0:
158,124,63897,1,0,3:2:0:0:
167,99,63981,1,0,3:2:0:0:
184,78,64064,1,8,0:0:0:0:
207,65,64147,1,0,3:2:0:0:
233,59,64231,5,0,3:2:0:0:
252,77,64314,1,0,3:2:0:0:
275,91,64397,1,8,0:0:0:0:
301,98,64481,1,0,3:2:0:0:
328,99,64564,1,0,3:2:0:0:
354,93,64647,1,0,3:2:0:0:
378,81,64731,2,0,L|414:57,3,26.9999991760254,8|0|0|0,3:2|3:2|3:2|3:2,0:0:0:0:
329,10,65064,5,8,0:0:0:0:
303,46,65147,1,8,0:0:0:0:
291,88,65230,1,8,0:0:0:0:
293,133,65314,1,8,0:0:0:0:
310,176,65398,1,8,0:0:0:0:
329,215,65481,1,8,0:0:0:0:
331,260,65564,1,8,0:0:0:0:
319,304,65647,1,8,0:0:0:0:
294,342,65731,1,10,0:0:0:0:
108,10,66398,6,0,B|162:55|162:55|119:183,1,188.999994232178,6|0,3:3|0:0,0:0:0:0:
64,236,66731,2,0,P|39:175|61:115,1,107.999996704102,10|0,0:0|0:0,0:0:0:0:
219,263,67064,1,2,3:2:0:0:
65,321,67231,1,0,3:2:0:0:
202,173,67398,2,0,B|231:151|231:151|322:166,1,107.999996704102,10|0,0:0|0:0,0:0:0:0:
507,45,67731,6,0,P|439:45|408:99,1,107.999996704102,2|0,3:2|0:0,0:0:0:0:
245,62,68064,2,0,P|279:119|341:119,1,107.999996704102,10|0,0:0|0:0,0:0:0:0:
476,281,68398,1,2,3:2:0:0:
437,89,68564,1,0,3:2:0:0:
357,230,68731,2,0,L|235:243,1,107.999996704102,10|0,0:0|0:0,0:0:0:0:
112,354,69064,6,0,B|67:319|67:319|101:177,1,175.499991966248,2|0,3:2|0:0,0:0:0:0:
120,181,69398,1,10,0:0:0:0:
53,20,69564,2,0,B|29:69|29:69|46:127,1,107.999996704102,2|0,0:0|3:2,0:1:0:0:
195,197,69898,2,0,L|310:190,1,107.999996704102,2|8,3:2|0:0,0:0:0:0:
455,121,70231,1,2,0:0:0:0:
341,343,70398,6,0,B|343:268|343:268|319:209|319:209|327:105,2,215.999993408203,0|8|0,3:1|0:0|3:1,0:0:0:0:
237,268,71231,1,0,3:1:0:0:
416,191,71398,2,0,P|435:135|419:73,1,107.999996704102,8|0,0:0|0:0,0:0:0:0:
256,191,71731,6,0,B|211:177|160:208|189:223|138:270|67:235,1,175.499991966248,6|0,3:1|0:0,0:0:0:0:
61,171,72064,2,0,L|75:54,1,107.999996704102,10|0,0:0|0:0,0:0:0:0:
271,0,72398,2,0,L|285:117,1,107.999996704102,2|0,3:2|3:1,0:0:0:0:
140,285,72731,2,0,P|188:253|132:265,1,161.999995056153,10|0,0:0|0:0,0:0:0:0:
237,268,73064,6,0,P|298:262|329:216,1,107.999996704102,2|0,3:2|0:0,0:0:0:0:
120,90,73398,2,0,P|171:102|198:146,1,107.999996704102,10|0,0:0|0:0,0:0:0:0:
54,318,73731,1,2,3:2:0:0:
0,151,73898,1,0,3:2:0:0:
155,207,74064,2,0,L|282:196,1,107.999996704102,10|0,0:0|0:0,0:0:0:0:
395,64,74398,6,0,B|449:98|449:98|414:245,1,175.499991966248,6|0,3:2|0:0,0:0:0:0:
446,231,74731,1,10,0:0:0:0:
292,71,74898,2,0,P|348:53|414:77,1,107.999996704102,2|0,0:0|3:1,0:0:0:0:
303,252,75231,2,0,P|247:270|181:246,1,107.999996704102,2|8,0:0|0:0,0:0:0:0:
181,94,75564,1,2,0:0:0:0:
52,228,75731,6,0,B|47:154|11:121|11:121|4:57|56:33,1,215.999993408203,0|8,3:1|0:0,0:0:0:0:
187,182,76231,2,0,L|263:170,1,53.9999983520508,2|8,3:2|0:0,0:0:0:0:
166,302,76398,1,0,3:1:0:0:
122,117,76564,1,10,0:0:0:0:
122,117,76648,1,8,0:0:0:0:
122,117,76731,2,0,L|200:102,1,53.9999983520508,10|8,0:0|0:0,0:0:0:0:
262,24,76898,2,8,L|315:34,1,53.9999983520508,10|8,0:0|0:0,0:0:0:0:
466,141,77064,6,0,P|506:69|428:77,1,175.499991966248,6|0,3:1|0:0,0:0:0:0:
429,158,77398,2,0,L|442:274,1,107.999996704102,8|2,0:0|0:0,0:0:0:0:
316,361,77731,1,0,3:2:0:0:
497,369,77898,1,2,3:2:0:0:
339,256,78064,2,0,L|165:271,1,161.999995056153,10|0,0:0|0:0,0:0:0:0:
106,231,78398,6,0,P|89:166|120:106,1,107.999996704102,2|2,3:2|0:0,0:0:0:0:
245,33,78731,1,8,0:0:0:0:
183,205,78898,1,2,0:0:0:0:
104,19,79064,1,2,3:2:0:0:
262,151,79231,1,2,3:2:0:0:
63,125,79398,1,10,0:0:0:0:
245,33,79564,1,2,0:0:0:0:
113,203,79731,6,0,B|20:224|20:224|-14:265|-1:319|82:329,1,215.999993408203,4|8,3:2|0:0,0:0:0:0:
113,203,80231,1,2,0:0:0:0:
202,302,80398,2,0,B|250:318|276:293|276:293|296:302|296:302|326:278|378:291,1,161.999995056153,2|0,3:2|0:0,0:0:0:0:
353,286,80731,1,10,0:0:0:0:
483,366,80898,2,0,L|494:241,1,107.999996704102,2|0,0:0|3:2,0:0:0:0:
512,91,81231,5,2,3:2:0:0:
313,59,81398,1,8,0:0:0:0:
448,230,81564,1,0,3:2:0:0:
448,230,81648,1,0,3:2:0:0:
448,230,81731,1,8,0:0:0:0:
208,161,81898,6,0,L|215:107,1,53.9999983520508,0|0,3:1|3:1,0:0:0:0:
348,256,82064,2,0,L|355:309,1,53.9999983520508,10|8,0:0|0:0,0:0:0:0:
138,300,82231,2,0,L|145:246,1,53.9999983520508,0|0,3:1|3:1,0:0:0:0:
128,47,82398,6,0,P|36:93|71:162,1,161.999995056153,6|0,3:1|0:0,0:0:0:0:
42,134,82731,5,10,0:0:0:0:
269,70,82898,1,2,3:2:0:0:
247,150,83064,5,10,0:0:0:0:
486,207,83231,1,2,3:2:0:0:
379,71,83398,5,10,0:0:0:0:
403,179,83564,1,2,3:2:0:0:
345,334,83731,5,10,0:0:0:0:
345,334,83898,1,0,0:0:0:0:
249,58,84064,5,10,0:0:0:0:
192,344,84231,1,0,3:2:0:0:
66,149,84398,5,10,0:0:0:0:
315,117,84565,1,0,3:2:0:0:
168,175,84731,5,10,0:0:0:0:
144,59,84898,1,0,3:2:0:0:
364,46,85064,6,0,B|408:97|408:97|371:207,1,161.999995056153,6|0,3:2|0:0,0:0:0:0:
341,255,85398,1,0,3:2:0:0:
508,179,85564,1,2,3:2:0:0:
411,344,85731,1,2,3:2:0:0:
219,231,85898,1,0,3:2:0:0:
406,132,86064,1,0,3:2:0:0:
281,368,86231,1,2,3:2:0:0:
110,75,86398,5,6,3:1:0:0:
110,75,87231,5,0,3:1:0:0:
290,13,87398,2,0,P|328:82|292:148,1,135,8|0,0:0|0:0,0:0:0:0:
256,192,87731,1,4,0:1:0:0:
256,192,87814,12,0,90064,0:0:0:0:
