osu file format v14

[General]
AudioFilename: audio.mp3
AudioLeadIn: 0
PreviewTime: 65645
Countdown: 0
SampleSet: Soft
StackLeniency: 0.4
Mode: 0
LetterboxInBreaks: 0
WidescreenStoryboard: 1

[Editor]
Bookmarks: 1062,26395,47728,66395,82395,90061
DistanceSpacing: 1.4
BeatDivisor: 4
GridSize: 8
TimelineZoom: 1.9

[Metadata]
Title:Watashitachi no STARTRAIL (TV Size)
TitleUnicode:私たちのSTARTRAIL (TV Size)
Artist:Lapis Re:LiGHTs Stars
ArtistUnicode:ラピスリライツ・スターズ
Creator:Mayuzumi Fuyuko
Version:Ex & Kowari's Hard
Source:Lapis Re:LiGHTs
Tags:our star trail relights japanese pop jpop j-pop anime idols 安齋 由香里 Yukari Anzai Tiara 久保田 梨沙 Risa Lisa Kubota Rosetta Lavie Ribu Mukai 向井莉生 佐伯 伊織 Saeki Iori Ashley 山本 美月 Yamamoto Mizuki Lynette 星乃 葉月 篠原 侑 中山 瑶子 本泉 莉奈 鈴木 亜理沙 大野 柚布子 早瀬 雪未 広瀬 世華 赤尾 ひかる 雨宮 夕夏 松田 利冴 桜木 夕 奥 紗瑛子 伊藤 はるか 花澤 香菜 南條 愛 上坂 すみれ 佐倉 綾音 Hoshino Hazuki Mineuchi Tomomi Sasahara Yuu Nakayama Youko Rina Honnizumi Suzuki Arisa Oono Yuuko Hayase Yukimi Hirose Seika Akao Hikaru Amemiya Yuka Matsuda Risae Sakuragi Yuu Oku Saeko Itou Haruka Hanazawa Kana Nanjo Yoshino Uesaka Sumire Sakura Ayane Erisu Wanpachi Cycopton Kowari -_Ex_- osuplayer111 Andrea Sekai Sekaii Sekai-nyan
BeatmapID:2759909
BeatmapSetID:1321380

[Difficulty]
HPDrainRate:4.5
CircleSize:4
OverallDifficulty:6.5
ApproachRate:8
SliderMultiplier:1.4
SliderTickRate:1

[Events]
//Background and Video events
Video,-272,"op.mp4"
0,0,"bg.jpg",0,0
//Break Periods
//Storyboard Layer 0 (Background)
//Storyboard Layer 1 (Fail)
//Storyboard Layer 2 (Pass)
//Storyboard Layer 3 (Foreground)
//Storyboard Layer 4 (Overlay)
//Storyboard Sound Samples

[TimingPoints]
1065,333.333333333333,4,2,1,40,1,0
1065,-142.857142857143,4,2,1,40,0,0
17064,-125,4,2,1,40,0,0
21064,-100,4,2,1,55,0,0
26398,-100,4,2,1,60,0,0
26731,-111.111111111111,4,2,1,60,0,0
31064,-111.111111111111,4,2,2,60,0,0
31231,-111.111111111111,4,2,1,60,0,0
31731,-111.111111111111,4,2,2,60,0,0
31981,-111.111111111111,4,2,1,60,0,0
36398,-111.111111111111,4,2,2,60,0,0
36564,-111.111111111111,4,2,1,60,0,0
37064,-111.111111111111,4,2,2,60,0,0
37231,-111.111111111111,4,2,1,60,0,0
41731,-111.111111111111,4,2,2,60,0,0
41898,-111.111111111111,4,2,1,60,0,0
42396,-111.111111111111,4,2,2,60,0,0
42648,-111.111111111111,4,2,1,60,0,0
47731,-111.111111111111,4,2,1,50,0,0
58398,-111.111111111111,4,2,1,70,0,0
66398,-90.9090909090909,4,2,1,80,0,0
82398,-90.9090909090909,4,2,1,75,0,0
86398,-90.9090909090909,4,2,1,70,0,0
87648,-90.9090909090909,4,2,1,5,0,0
87731,-90.9090909090909,4,2,1,60,0,0
90064,-90.9090909090909,4,2,1,5,0,0

[Colours]
Combo1 : 216,79,75
Combo2 : 243,172,39
Combo3 : 154,123,234
Combo4 : 26,121,217
Combo5 : 80,136,38

[HitObjects]
76,336,1065,5,6,0:1:0:0:
435,110,2398,1,2,0:0:0:0:
262,16,3064,1,2,0:0:0:0:
335,205,3731,1,2,0:0:0:0:
335,205,5064,2,0,P|387:192|450:180,2,97.9999970092774,2|2|2,0:0|0:0|0:0,0:0:0:0:
36,81,6398,5,2,0:0:0:0:
325,346,7731,1,2,0:0:0:0:
401,83,9064,6,0,B|380:69|372:42|372:42|379:116|319:124|290:112|284:72|309:62,2,195.999994018555,2|0|2,0:0|0:0|0:0,0:0:0:0:
482,134,10564,2,0,P|475:175|466:203,1,48.9999985046387
428,274,10898,1,2,0:0:0:0:
428,274,11064,2,0,P|469:280|496:288,1,48.9999985046387,2|2,0:0|0:0,0:0:0:0:
380,198,11398,2,0,P|349:205|318:209,1,48.9999985046387,2|2,0:0|0:0,0:0:0:0:
228,173,11731,6,0,P|195:145|204:77,1,97.9999970092774,2|2,0:0|0:0,0:0:0:0:
275,43,12231,1,2,0:0:0:0:
275,43,12564,1,2,0:0:0:0:
193,93,12731,2,0,P|131:76|79:62,1,97.9999970092774,2|2,0:0|0:0,0:0:0:0:
18,106,13231,1,2,0:0:0:0:
18,106,13564,1,2,0:0:0:0:
77,171,13731,6,0,P|84:208|87:241,1,48.9999985046387,2|2,0:0|0:0,0:0:0:0:
181,237,14064,2,0,P|176:268|170:299,1,48.9999985046387,2|2,0:0|0:0,0:0:0:0:
119,374,14398,2,0,P|141:337|251:335,1,146.999995513916,2|2,0:0|0:0,0:0:0:0:
336,379,15064,2,0,P|323:321|315:264,1,97.9999970092774,2|2,0:0|0:0,0:0:0:0:
382,208,15564,6,0,P|419:199|469:252,2,97.9999970092774,2|2|0,0:0|0:0|0:0,0:0:0:0:
317,282,16398,1,0,3:2:0:0:
226,301,16564,2,0,P|171:279|125:261,1,97.9999970092774,2|2,0:0|0:0,0:0:0:0:
232,202,17064,6,0,P|263:160|231:92,1,112,6|0,3:1|0:0,0:0:0:0:
248,105,17564,1,8,0:0:0:0:
150,65,17731,2,0,P|159:104|168:143,1,56,10|0,0:0|0:0,0:0:0:0:
87,161,18064,2,0,P|77:200|68:239,1,56,2|0,3:2|0:0,0:0:0:0:
21,312,18398,6,0,P|84:296|148:282,1,112,6|2,3:2|0:0,0:0:0:0:
205,347,18898,1,0,3:1:0:0:
289,301,19064,2,0,P|301:257|307:230,1,56,2|0,3:2|0:0,0:0:0:0:
227,176,19398,2,0,P|214:220|208:248,1,56,2|0,3:2|0:0,0:0:0:0:
130,286,19731,5,2,0:0:0:0:
470,67,20398,1,0,3:2:0:0:
360,23,20565,1,8,0:0:0:0:
360,23,20648,1,8,0:0:0:0:
360,23,20731,2,8,L|370:65,3,28
364,99,21064,6,0,P|320:56|234:79,1,140,4|8,3:2|0:0,0:0:0:0:
213,158,21564,1,0,0:0:0:0:
290,218,21731,2,0,P|303:264|312:303,1,70,0|0,3:1|3:1,0:0:0:0:
260,371,22064,1,8,0:0:0:0:
191,305,22231,6,0,P|119:288|65:278,1,105,4|0,3:2|0:0,0:0:0:0:
54,282,22564,2,0,P|61:336|68:377,1,70,0|8,3:2|0:0,0:0:0:0:
139,208,22898,2,0,L|180:198,2,35,8|8|8,0:0|0:0|0:0,0:0:0:0:
55,160,23231,1,8,0:0:0:0:
55,160,23314,1,8,0:0:0:0:
55,160,23398,2,0,L|-3:143,2,35,8|8|0,0:0|0:0|3:2,0:0:0:0:
134,99,23731,6,0,P|140:64|146:30,1,70,4|0,3:2|0:0,0:0:0:0:
244,0,24064,1,8,0:0:0:0:
265,98,24231,2,0,P|299:144|389:140,1,140,4|8,3:2|0:0,0:0:0:0:
444,65,24731,2,0,P|391:52|354:46,1,70,0|0,3:1|3:1,0:0:0:0:
472,156,25064,6,0,P|489:215|500:251,1,70,4|0,3:2|0:0,0:0:0:0:
432,305,25398,1,8,0:0:0:0:
354,246,25565,2,0,P|267:225|176:319,1,210,4|0,3:2|0:0,0:0:0:0:
125,380,26231,5,0,3:2:0:0:
125,380,26314,1,0,3:2:0:0:
125,380,26398,2,0,P|67:365|23:356,1,105,4|0,3:1|0:0,0:0:0:0:
4,315,26731,2,0,P|19:260|25:230,1,62.9999980773926,10|0,0:0|0:0,0:0:0:0:
87,196,27064,1,2,0:0:0:0:
87,196,27231,2,0,P|72:141|66:111,1,62.9999980773926,2|8,3:2|0:0,0:0:0:0:
126,66,27564,6,0,P|186:89|251:111,1,125.999996154785,2|2,0:0|0:0,0:0:0:0:
324,70,28064,2,0,P|315:27|308:0,1,62.9999980773926,10|0,0:0|3:1,0:0:0:0:
383,125,28398,2,0,P|432:110|463:102,1,62.9999980773926,2|0,0:0|3:1,0:0:0:0:
478,187,28731,2,0,P|429:202|398:210,1,62.9999980773926,10|0,0:0|3:1,0:0:0:0:
332,227,29064,6,0,P|294:200|235:200,1,94.499997116089,6|0,3:2|0:0,0:0:0:0:
209,220,29398,2,0,P|166:208|144:203,1,62.9999980773926,10|0,0:0|0:0,0:0:0:0:
74,253,29731,2,0,P|84:293|92:325,1,62.9999980773926,2|0,0:0|3:1,0:0:0:0:
154,374,30064,1,10,0:0:0:0:
154,374,30231,1,2,0:0:0:0:
225,322,30398,6,0,P|279:339|363:369,1,125.999996154785,0|8,3:1|0:0,0:0:0:0:
429,339,30898,1,0,3:1:0:0:
387,261,31064,2,0,P|399:210|409:173,1,62.9999980773926,0|0,1:0|3:1,0:0:0:0:
482,162,31398,2,0,P|470:111|460:74,1,62.9999980773926,8|0,0:0|0:0,0:0:0:0:
422,24,31731,6,0,P|368:46|330:60,1,94.499997116089,12|0,2:2|0:0,0:0:0:0:
298,84,32064,2,0,P|254:73|230:69,1,62.9999980773926,10|0,0:0|0:0,0:0:0:0:
173,7,32398,1,2,0:0:0:0:
173,7,32564,2,0,P|129:18|105:22,1,62.9999980773926,2|8,3:2|0:0,0:0:0:0:
36,69,32898,6,0,P|71:130|48:195,1,125.999996154785,2|2,0:0|0:0,0:0:0:0:
117,246,33398,2,0,P|104:291|96:322,1,62.9999980773926,10|0,0:0|3:1,0:0:0:0:
200,242,33731,2,0,P|213:287|221:318,1,62.9999980773926,2|0,0:0|3:1,0:0:0:0:
280,363,34064,2,0,P|313:351|350:340,1,62.9999980773926,10|0,0:0|0:0,0:0:0:0:
412,292,34398,6,0,P|368:275|307:254,1,94.499997116089,6|0,3:2|0:0,0:0:0:0:
288,231,34731,2,0,P|299:180|305:152,1,62.9999980773926,10|0,0:0|0:0,0:0:0:0:
259,91,35064,2,0,P|228:97|197:104,1,62.9999980773926,2|0,0:0|3:1,0:0:0:0:
300,16,35398,1,10,0:0:0:0:
300,16,35564,1,2,0:0:0:0:
358,82,35731,6,0,P|403:47|482:64,1,125.999996154785,0|8,3:1|0:0,0:0:0:0:
505,134,36231,1,0,3:1:0:0:
451,204,36398,2,0,P|414:189|374:176,1,62.9999980773926,2|2,1:2|3:2,0:0:0:0:
310,148,36731,2,0,P|273:163|233:176,1,62.9999980773926,10|8,0:0|0:0,0:0:0:0:
212,192,36981,5,8,0:0:0:0:
212,192,37064,2,0,P|149:176|139:174,1,62.9999980773926,14|0,2:0|0:0,0:0:0:0:
90,111,37398,2,0,P|102:64|108:39,1,62.9999980773926,10|0,0:0|0:0,0:0:0:0:
14,141,37731,1,2,0:0:0:0:
14,141,37898,2,0,P|21:171|29:202,1,62.9999980773926,2|10,3:2|0:0,0:0:0:0:
12,288,38231,1,2,0:0:0:0:
86,335,38398,6,0,P|135:317|188:303,1,94.499997116089,2|0,3:2|0:0,0:0:0:0:
217,291,38731,1,10,0:0:0:0:
164,220,38898,2,0,P|176:171|183:144,1,62.9999980773926,2|0,3:2|0:0,0:0:0:0:
242,97,39231,1,0,3:1:0:0:
242,97,39398,2,0,P|254:146|261:173,1,62.9999980773926,8|0,0:0|0:0,0:0:0:0:
328,210,39731,6,0,P|367:241|432:237,1,94.499997116089,6|0,3:2|0:0,0:0:0:0:
449,223,40064,2,0,P|437:176|432:148,1,62.9999980773926,10|2,0:0|0:0,0:0:0:0:
488,91,40398,1,2,0:0:0:0:
488,91,40564,2,0,P|444:74|416:62,1,62.9999980773926,2|10,3:2|0:0,0:0:0:0:
372,0,40898,1,2,0:0:0:0:
299,49,41064,6,0,P|313:97|330:164,1,94.499997116089,2|0,3:2|0:0,0:0:0:0:
325,185,41398,1,10,0:0:0:0:
261,246,41564,1,2,3:2:0:0:
261,246,41731,2,0,P|224:237|193:229,1,62.9999980773926,0|0,1:0|3:1,0:0:0:0:
144,161,42064,2,0,P|113:168|82:176,1,62.9999980773926,10|2,0:0|0:0,0:0:0:0:
9,126,42398,6,0,P|4:64|52:20,1,125.999996154785,14|10,2:0|0:0,0:0:0:0:
133,5,42898,2,0,P|188:22|257:39,1,125.999996154785,2|2,0:0|3:2,0:0:0:0:
315,102,43398,2,0,P|371:83|394:75,1,62.9999980773926,10|0,0:0|0:0,0:0:0:0:
446,29,43731,6,0,P|434:69|408:165,1,125.999996154785,2|8,3:2|0:0,0:0:0:0:
363,224,44231,1,0,3:2:0:0:
437,272,44398,2,0,P|466:260|495:249,1,62.9999980773926,2|0,0:0|3:2,0:0:0:0:
392,346,44731,2,0,P|362:334|333:323,1,62.9999980773926,10|0,0:0|0:0,0:0:0:0:
267,263,45064,6,0,P|209:241|144:288,1,125.999996154785,6|10,3:2|0:0,0:0:0:0:
125,351,45564,2,0,P|115:278|107:215,1,125.999996154785,2|2,0:0|3:2,0:0:0:0:
40,169,46064,2,0,P|52:120|59:91,1,62.9999980773926,10|0,0:0|0:0,0:0:0:0:
126,54,46398,6,0,P|138:103|145:132,1,62.9999980773926,6|0,3:2|3:2,0:0:0:0:
203,184,46731,1,8,0:0:0:0:
203,184,46898,1,0,3:1:0:0:
272,129,47064,2,0,P|323:116|356:108,1,62.9999980773926,10|0,0:0|3:1,0:0:0:0:
392,47,47398,2,0,P|422:54|453:62,1,62.9999980773926,0|2,3:1|3:2,0:0:0:0:
494,139,47731,6,0,P|476:187|392:190,1,125.999996154785,6|2,3:1|0:0,0:0:0:0:
348,134,48231,1,0,3:2:0:0:
288,198,48398,2,0,P|269:285|262:334,1,125.999996154785,10|2,0:0|0:0,0:0:0:0:
189,369,48898,6,0,P|147:355|115:345,1,62.9999980773926,2|0,3:2|0:0,0:0:0:0:
76,278,49231,1,10,0:0:0:0:
76,278,49398,2,0,P|118:264|150:254,1,62.9999980773926,2|0,3:2|0:0,0:0:0:0:
178,181,49731,2,0,P|168:129|161:99,1,62.9999980773926,10|0,0:0|0:0,0:0:0:0:
89,74,50064,2,0,P|99:22|106:-8,1,62.9999980773926,2|0,0:0|0:0,0:0:0:0:
78,167,50398,6,0,P|25:180|-5:188,1,62.9999980773926,6|0,3:2|0:0,0:0:0:0:
0,288,50731,2,0,P|53:301|83:309,1,62.9999980773926,2|2,0:0|3:2,0:0:0:0:
138,346,51064,2,0,P|207:381|258:350,1,125.999996154785,10|2,0:0|0:0,0:0:0:0:
323,318,51564,6,0,P|315:267|307:228,1,62.9999980773926,2|0,3:2|0:0,0:0:0:0:
230,223,51898,1,10,0:0:0:0:
230,223,52064,2,0,P|238:172|246:133,1,62.9999980773926,2|0,3:2|0:0,0:0:0:0:
291,88,52398,2,0,P|353:88|394:153,1,125.999996154785,6|2,3:2|3:2,0:0:0:0:
414,219,52898,1,0,3:2:0:0:
489,174,53064,6,0,P|466:236|449:303,1,125.999996154785,6|2,3:2|0:0,0:0:0:0:
431,380,53564,1,0,3:1:0:0:
355,333,53731,2,0,P|308:321|278:316,1,62.9999980773926,10|2,0:0|0:0,0:0:0:0:
232,254,54064,2,0,P|201:260|170:268,1,62.9999980773926,2|2,0:0|3:2,0:0:0:0:
118,340,54398,5,2,0:0:0:0:
118,340,54564,1,10,0:0:0:0:
49,284,54731,2,0,P|59:230|69:199,1,62.9999980773926,2|2,3:2|0:0,0:0:0:0:
138,179,55064,2,0,P|128:125|118:94,1,62.9999980773926,10|0,0:0|0:0,0:0:0:0:
84,38,55398,1,2,3:2:0:0:
165,5,55564,5,0,3:1:0:0:
165,5,55648,1,0,3:0:0:0:
165,5,55731,2,0,P|219:24|237:31,1,62.9999980773926,6|0,3:2|0:0,0:0:0:0:
295,79,56065,2,0,P|349:60|367:53,1,62.9999980773926,2|0,0:0|3:1,0:0:0:0:
430,12,56398,2,0,P|487:49|480:109,1,125.999996154785,10|2,0:0|0:0,0:0:0:0:
424,165,56898,1,2,3:2:0:0:
474,236,57064,6,0,P|486:287|493:323,1,62.9999980773926,2|8,0:0|0:0,0:0:0:0:
400,314,57398,2,0,P|393:344|385:375,1,62.9999980773926,2|10,3:2|0:0,0:0:0:0:
297,380,57731,1,12,0:0:0:0:
297,380,57898,1,0,3:1:0:0:
246,308,58064,2,0,L|207:297,2,31.4999990386963,10|8|0,0:0|0:0|3:2,0:0:0:0:
182,378,58398,6,0,P|171:297|159:237,1,125.999996154785,6|10,3:1|0:0,0:0:0:0:
99,192,58898,1,2,3:2:0:0:
99,192,59231,1,0,3:1:0:0:
160,128,59398,2,0,P|167:97|176:67,1,62.9999980773926,10|2,0:0|3:2,0:0:0:0:
250,19,59731,6,0,P|306:48|308:113,1,125.999996154785,6|10,3:2|0:0,0:0:0:0:
362,177,60231,2,0,P|320:189|277:195,1,62.9999980773926,2|8,3:2|0:0,0:0:0:0:
216,166,60564,1,10,0:0:0:0:
216,166,60731,1,2,3:2:0:0:
144,217,60898,6,0,P|118:268|152:325,1,125.999996154785,6|0,3:2|3:1,0:0:0:0:
229,360,61398,1,8,0:0:0:0:
296,303,61564,1,0,3:2:0:0:
296,303,61648,1,0,3:2:0:0:
296,303,61731,2,0,P|341:315|376:327,1,62.9999980773926,8|0,0:0|3:2,0:0:0:0:
407,247,62064,2,0,P|437:239|467:229,1,62.9999980773926,8|0,0:0|3:2,0:0:0:0:
502,148,62398,5,8,0:0:0:0:
441,99,62564,1,0,3:2:0:0:
441,99,62648,1,0,3:2:0:0:
441,99,62731,2,0,P|428:61|418:22,1,62.9999980773926,10|0,0:0|3:2,0:0:0:0:
337,14,63064,2,0,L|293:21,3,31.4999990386963,10|0|0|0,0:0|3:2|3:2|3:2,0:0:0:0:
264,35,63398,2,0,L|232:30,3,31.4999990386963,10|0|0|0,0:0|3:2|3:2|3:2,0:0:0:0:
191,14,63731,6,0,P|116:32|62:50,1,125.999996154785,6|8,3:2|0:0,0:0:0:0:
18,119,64231,1,0,3:2:0:0:
18,119,64314,1,0,3:2:0:0:
18,119,64398,2,0,P|31:172|39:207,1,62.9999980773926,8|0,0:0|3:2,0:0:0:0:
120,189,64731,2,0,P|107:242|99:277,1,62.9999980773926,8|0,3:2|3:2,0:0:0:0:
141,350,65064,6,0,L|196:340,3,31.4999990386963,8|8|8|8,0:0|0:0|0:0|0:0,0:0:0:0:
206,315,65398,2,0,L|236:320,3,31.4999990386963,8|8|8|8,0:0|0:0|0:0|0:0,0:0:0:0:
279,331,65731,1,10,0:0:0:0:
422,229,66064,1,2,0:0:0:0:
268,77,66398,6,0,P|281:152|291:208,1,115.50000352478,6|0,3:3|0:0,0:0:0:0:
260,237,66731,2,0,P|204:217|181:212,1,77.0000023498536,10|0,0:0|0:0,0:0:0:0:
123,132,67064,1,2,3:2:0:0:
123,132,67231,1,0,3:2:0:0:
60,217,67398,2,0,P|72:262|83:306,1,77.0000023498536,10|0,0:0|0:0,0:0:0:0:
5,143,67731,6,0,P|17:98|28:54,1,77.0000023498536,2|0,3:2|0:0,0:0:0:0:
117,14,68064,2,0,P|169:34|209:48,1,77.0000023498536,10|0,0:0|0:0,0:0:0:0:
264,119,68398,1,2,3:2:0:0:
264,119,68564,1,0,3:2:0:0:
360,70,68731,2,0,P|349:134|345:159,1,77.0000023498536,10|0,0:0|0:0,0:0:0:0:
370,251,69064,6,0,P|419:216|499:231,1,115.50000352478,2|0,3:2|0:0,0:0:0:0:
505,260,69398,1,10,0:0:0:0:
479,364,69564,2,0,P|408:342|322:318,1,154.000004699707,2|2,0:0|3:2,0:1:0:0:
259,239,70064,2,0,P|272:189|279:158,1,77.0000023498536,8|2,0:0|0:0,0:0:0:0:
217,73,70398,6,0,P|149:26|77:50,1,154.000004699707,0|8,3:1|0:0,0:0:0:0:
33,138,70898,1,0,0:0:0:0:
143,131,71064,2,0,P|152:176|162:219,1,77.0000023498536,0|0,3:1|3:1,0:0:0:0:
57,306,71398,2,0,P|66:261|76:218,1,77.0000023498536,8|0,0:0|0:0,0:0:0:0:
148,343,71731,6,0,P|204:325|279:308,1,115.50000352478,6|0,3:1|0:0,0:0:0:0:
309,291,72064,2,0,P|297:243|292:216,1,77.0000023498536,10|0,0:0|0:0,0:0:0:0:
209,153,72398,1,2,3:2:0:0:
209,153,72564,1,0,3:1:0:0:
275,68,72731,2,0,P|323:82|362:94,1,77.0000023498536,10|0,0:0|0:0,0:0:0:0:
443,38,73064,6,0,P|452:90|457:119,1,77.0000023498536,2|0,3:2|0:0,0:0:0:0:
504,211,73398,2,0,P|473:254|456:278,1,77.0000023498536,10|0,0:0|0:0,0:0:0:0:
382,205,73731,1,2,3:2:0:0:
382,205,73898,1,0,3:2:0:0:
293,266,74064,2,0,P|243:250|211:240,1,77.0000023498536,10|0,0:0|0:0,0:0:0:0:
145,322,74398,6,0,P|82:318|44:263,1,115.50000352478,6|0,3:2|0:0,0:0:0:0:
18,237,74731,1,10,0:0:0:0:
109,179,74898,2,0,P|99:125|81:26,1,154.000004699707,2|2,0:0|0:0,0:0:0:0:
186,4,75398,2,0,P|223:17|265:32,1,77.0000023498536,8|2,0:0|0:0,0:0:0:0:
355,77,75731,6,0,P|273:113|212:140,1,154.000004699707,0|8,3:1|0:0,0:0:0:0:
161,233,76231,2,0,L|116:214,2,38.5000011749268,2|8|0,3:2|0:0|3:1,0:0:0:0:
251,309,76564,1,10,0:0:0:0:
251,309,76648,1,8,0:0:0:0:
251,309,76731,2,0,L|304:296,3,38.5000011749268,10|8|10|8,0:0|0:0|0:0|0:0,0:0:0:0:
328,262,77064,6,0,P|389:283|452:307,1,115.50000352478,6|0,3:1|0:0,0:0:0:0:
488,285,77398,1,8,0:0:0:0:
458,181,77564,2,0,B|476:83|476:83|422:30,1,154.000004699707,2|2,0:0|3:2,0:0:0:0:
332,17,78064,2,0,P|264:31|207:46,1,115.50000352478,10|0,0:0|0:0,0:0:0:0:
169,63,78398,5,2,3:2:0:0:
66,30,78564,2,0,P|23:72|43:173,1,154.000004699707,2|2,0:0|0:0,0:0:0:0:
124,215,79064,2,0,P|162:204|202:193,1,77.0000023498536,2|2,3:2|3:2,0:0:0:0:
81,307,79398,2,0,P|43:296|3:285,1,77.0000023498536,10|2,0:0|0:0,0:0:0:0:
142,374,79731,6,0,P|190:332|280:344,1,154.000004699707,4|8,3:2|0:0,0:0:0:0:
376,379,80231,1,2,0:0:0:0:
376,379,80398,2,0,P|360:307|342:212,1,154.000004699707,2|10,3:2|0:0,0:0:0:0:
410,142,80898,6,0,P|460:156|491:165,1,77.0000023498536,2|0,0:0|3:2,0:0:0:0:
508,57,81231,1,2,3:2:0:0:
401,40,81398,2,0,P|352:54|320:63,1,77.0000023498536,8|0,0:0|3:2,0:0:0:0:
279,81,81648,1,0,3:2:0:0:
279,81,81731,1,8,0:0:0:0:
193,15,81898,1,0,3:1:0:0:
120,94,82064,2,0,P|136:138|146:174,1,77.0000023498536,10|0,0:0|3:1,0:0:0:0:
91,261,82398,5,6,3:1:0:0:
91,261,82731,2,0,P|39:242|1:232,1,77.0000023498536,10|2,0:0|3:2,0:0:0:0:
134,361,83064,2,0,P|170:349|206:336,1,77.0000023498536,10|2,0:0|3:2,0:0:0:0:
288,264,83398,1,10,0:0:0:0:
366,336,83564,1,2,3:2:0:0:
409,230,83731,6,0,P|419:179|433:130,1,77.0000023498536,10|0,0:0|0:0,0:0:0:0:
295,83,84064,2,0,P|304:120|311:158,1,77.0000023498536,10|0,0:0|3:2,0:0:0:0:
240,236,84398,2,0,P|189:222|140:212,1,77.0000023498536,10|0,0:0|3:2,0:0:0:0:
92,131,84731,2,0,P|143:117|192:107,1,77.0000023498536,10|0,0:0|3:2,0:0:0:0:
229,30,85064,6,0,P|271:14|348:80,1,154.000004699707,6|0,3:2|3:2,0:0:0:0:
334,183,85564,1,2,3:2:0:0:
441,156,85731,1,2,3:2:0:0:
441,156,85898,1,0,3:2:0:0:
473,263,86064,1,0,3:2:0:0:
473,263,86231,1,2,3:2:0:0:
371,299,86398,5,6,3:1:0:0:
371,299,87231,5,0,3:1:0:0:
272,253,87398,2,0,P|217:262|206:357,1,154.000004699707,8|4,0:0|0:1,0:0:0:0:
256,192,87898,12,0,90064,0:0:0:0:
