osu file format v14

[General]
AudioFilename: idols.mp3
AudioLeadIn: 0
PreviewTime: 65645
Countdown: 0
SampleSet: Normal
StackLeniency: 0.7
Mode: 1
LetterboxInBreaks: 0
WidescreenStoryboard: 1

[Editor]
DistanceSpacing: 0.5
BeatDivisor: 4
GridSize: 4
TimelineZoom: 1

[Metadata]
Title:Watashitachi no STARTRAIL (TV Size)
TitleUnicode:私たちのSTARTRAIL (TV Size)
Artist:Lapis Re:LiGHTs Stars
ArtistUnicode:ラピスリライツ・スターズ
Creator:Chitanda Eru
Version:Muzukashii
Source:Lapis Re:LiGHTs
Tags:j-pop Pop jpop Anime japanese idol 松原さらり OPテーマソング opening theme song 南田健吾
BeatmapID:2675273
BeatmapSetID:1288676

[Difficulty]
HPDrainRate:6
CircleSize:4
OverallDifficulty:5
ApproachRate:9
SliderMultiplier:1.4
SliderTickRate:1

[Events]
//Background and Video events
0,0,"relights upscaled.jpg",0,50
Video,416,"relights.mp4"
//Break Periods
//Storyboard Layer 0 (Background)
//Storyboard Layer 1 (Fail)
//Storyboard Layer 2 (Pass)
//Storyboard Layer 3 (Foreground)
//Storyboard Layer 4 (Overlay)
//Storyboard Sound Samples

[TimingPoints]
1062,333.333333333333,4,1,0,60,1,0
1062,-100,4,1,0,60,0,0
11728,-100,4,1,0,70,0,0
21061,-100,4,1,0,80,0,0
26728,-100,4,1,0,70,0,0
47728,-100,4,1,0,70,0,0
58395,-100,4,1,0,70,0,0
63728,-100,4,1,0,80,0,0
66395,-100,4,1,0,90,0,1
82395,-100,4,1,0,90,0,1
86395,-100,4,1,0,90,0,0
87228,-100,4,1,0,60,0,0

[HitObjects]
187,147,1062,5,0,0:0:0:0:
187,147,1728,1,0,0:0:0:0:
187,147,2061,1,8,0:0:0:0:
187,147,2395,1,0,0:0:0:0:
187,147,3061,1,0,0:0:0:0:
187,147,3395,1,0,0:0:0:0:
187,147,3728,1,8,0:0:0:0:
187,147,4228,1,8,0:0:0:0:
187,147,5061,1,0,0:0:0:0:
187,147,5395,1,0,0:0:0:0:
187,147,5728,1,8,0:0:0:0:
187,147,6395,1,8,0:0:0:0:
187,147,7061,1,8,0:0:0:0:
187,147,7395,1,0,0:0:0:0:
187,147,7728,1,8,0:0:0:0:
187,147,8395,1,8,0:0:0:0:
187,147,8728,1,8,0:0:0:0:
187,147,9061,1,0,0:0:0:0:
187,147,9561,1,0,0:0:0:0:
187,147,9895,1,0,0:0:0:0:
187,147,10228,1,8,0:0:0:0:
187,147,10895,1,0,0:0:0:0:
187,147,11228,1,8,0:0:0:0:
187,147,11395,1,0,0:0:0:0:
187,147,11561,1,0,0:0:0:0:
187,147,11728,1,8,0:0:0:0:
187,147,12061,1,8,0:0:0:0:
187,147,12228,1,0,0:0:0:0:
187,147,12728,1,8,0:0:0:0:
187,147,13061,1,0,0:0:0:0:
187,147,13228,1,0,0:0:0:0:
187,147,13728,1,8,0:0:0:0:
187,147,14061,1,8,0:0:0:0:
187,147,14228,1,8,0:0:0:0:
187,147,14395,1,0,0:0:0:0:
187,147,15061,1,8,0:0:0:0:
187,147,15395,1,0,0:0:0:0:
187,147,15561,1,0,0:0:0:0:
187,147,15895,1,8,0:0:0:0:
187,147,16561,1,0,0:0:0:0:
187,147,16895,1,0,0:0:0:0:
187,147,17061,1,12,0:0:0:0:
187,147,17395,1,0,0:0:0:0:
187,147,17561,1,0,0:0:0:0:
187,147,17645,1,0,0:0:0:0:
187,147,17728,1,0,0:0:0:0:
187,147,18061,1,0,0:0:0:0:
187,147,18395,1,4,0:0:0:0:
187,147,18728,1,8,0:0:0:0:
187,147,18895,1,8,0:0:0:0:
187,147,18978,1,8,0:0:0:0:
187,147,19061,1,8,0:0:0:0:
187,147,19395,1,8,0:0:0:0:
187,147,19728,1,8,0:0:0:0:
187,147,20395,1,0,0:0:0:0:
187,147,20561,1,0,0:0:0:0:
187,147,20645,1,0,0:0:0:0:
187,147,20728,1,0,0:0:0:0:
187,147,20895,1,8,0:0:0:0:
187,147,21061,1,4,0:0:0:0:
187,147,21395,1,8,0:0:0:0:
187,147,21728,1,0,0:0:0:0:
187,147,21895,1,0,0:0:0:0:
187,147,22061,1,8,0:0:0:0:
187,147,22228,1,8,0:0:0:0:
187,147,22561,1,0,0:0:0:0:
187,147,22895,1,8,0:0:0:0:
187,147,23228,1,0,0:0:0:0:
187,147,23311,1,0,0:0:0:0:
187,147,23395,1,0,0:0:0:0:
187,147,23561,1,8,0:0:0:0:
187,147,23728,1,4,0:0:0:0:
187,147,23895,1,0,0:0:0:0:
187,147,24061,1,8,0:0:0:0:
187,147,24228,1,4,0:0:0:0:
187,147,24561,1,0,0:0:0:0:
187,147,24728,1,0,0:0:0:0:
187,147,25061,1,12,0:0:0:0:
187,147,25228,1,8,0:0:0:0:
187,147,25395,1,0,0:0:0:0:
187,147,25561,1,12,0:0:0:0:
187,147,26228,1,0,0:0:0:0:
187,147,26395,1,12,0:0:0:0:
187,147,26728,1,0,0:0:0:0:
187,147,27061,1,0,0:0:0:0:
187,147,27228,1,0,0:0:0:0:
187,147,27395,1,8,0:0:0:0:
187,147,27561,1,8,0:0:0:0:
187,147,27895,1,8,0:0:0:0:
187,147,28061,1,0,0:0:0:0:
187,147,28395,1,0,0:0:0:0:
187,147,28561,1,0,0:0:0:0:
187,147,28728,1,8,0:0:0:0:
187,147,29061,1,8,0:0:0:0:
187,147,29395,1,8,0:0:0:0:
187,147,29728,1,0,0:0:0:0:
187,147,29895,1,0,0:0:0:0:
187,147,30061,1,8,0:0:0:0:
187,147,30228,1,0,0:0:0:0:
187,147,30395,1,8,0:0:0:0:
187,147,30728,1,8,0:0:0:0:
187,147,31061,1,0,0:0:0:0:
187,147,31728,1,8,0:0:0:0:
187,147,32061,1,0,0:0:0:0:
187,147,32395,1,8,0:0:0:0:
187,147,32561,1,8,0:0:0:0:
187,147,32728,1,0,0:0:0:0:
187,147,32895,1,0,0:0:0:0:
187,147,33228,1,0,0:0:0:0:
187,147,33395,1,8,0:0:0:0:
187,147,33728,1,8,0:0:0:0:
187,147,33895,1,8,0:0:0:0:
187,147,34061,1,0,0:0:0:0:
187,147,34395,1,0,0:0:0:0:
187,147,34728,1,8,0:0:0:0:
187,147,35061,1,8,0:0:0:0:
187,147,35228,1,8,0:0:0:0:
187,147,35395,1,0,0:0:0:0:
187,147,35561,1,0,0:0:0:0:
187,147,35728,1,0,0:0:0:0:
187,147,36395,1,0,0:0:0:0:
187,147,36561,1,0,0:0:0:0:
187,147,36728,1,8,0:0:0:0:
187,147,36895,1,0,0:0:0:0:
187,147,37061,1,12,0:0:0:0:
187,147,37395,1,8,0:0:0:0:
187,147,37728,1,0,0:0:0:0:
187,147,37895,1,0,0:0:0:0:
187,147,38061,1,8,0:0:0:0:
187,147,38228,1,0,0:0:0:0:
187,147,38395,1,8,0:0:0:0:
187,147,38728,1,0,0:0:0:0:
187,147,38895,1,8,0:0:0:0:
187,147,39395,1,8,0:0:0:0:
187,147,39728,1,8,0:0:0:0:
187,147,40061,1,0,0:0:0:0:
187,147,40395,1,8,0:0:0:0:
187,147,40561,1,0,0:0:0:0:
187,147,40728,1,0,0:0:0:0:
187,147,40895,1,0,0:0:0:0:
187,147,41061,1,8,0:0:0:0:
187,147,41395,1,0,0:0:0:0:
187,147,41561,1,8,0:0:0:0:
187,147,42061,1,8,0:0:0:0:
187,147,42395,1,12,0:0:0:0:
187,147,42728,1,0,0:0:0:0:
187,147,42895,1,8,0:0:0:0:
187,147,43228,1,8,0:0:0:0:
187,147,43395,1,0,0:0:0:0:
187,147,43561,1,0,0:0:0:0:
187,147,43728,1,8,0:0:0:0:
187,147,44395,1,0,0:0:0:0:
187,147,44561,1,0,0:0:0:0:
187,147,44728,1,8,0:0:0:0:
187,147,45061,1,12,0:0:0:0:
187,147,45395,1,8,0:0:0:0:
187,147,45561,1,0,0:0:0:0:
187,147,45895,1,0,0:0:0:0:
187,147,46061,1,8,0:0:0:0:
187,147,46228,1,8,0:0:0:0:
187,147,46395,1,4,0:0:0:0:
187,147,46728,1,4,0:0:0:0:
187,147,47061,1,8,0:0:0:0:
187,147,47228,1,0,0:0:0:0:
187,147,47395,1,0,0:0:0:0:
187,147,47728,1,4,0:0:0:0:
187,147,48228,1,0,0:0:0:0:
187,147,48395,1,8,0:0:0:0:
187,147,48728,1,0,0:0:0:0:
187,147,48895,1,0,0:0:0:0:
187,147,49228,1,0,0:0:0:0:
187,147,49395,1,8,0:0:0:0:
187,147,49728,1,0,0:0:0:0:
187,147,50061,1,0,0:0:0:0:
187,147,50395,1,8,0:0:0:0:
187,147,50895,1,8,0:0:0:0:
187,147,51061,1,0,0:0:0:0:
187,147,51395,1,8,0:0:0:0:
187,147,51561,1,8,0:0:0:0:
187,147,51895,1,0,0:0:0:0:
187,147,52061,1,8,0:0:0:0:
187,147,52395,1,8,0:0:0:0:
187,147,52728,1,8,0:0:0:0:
187,147,53061,1,4,0:0:0:0:
187,147,53561,1,0,0:0:0:0:
187,147,53728,1,8,0:0:0:0:
187,147,54061,1,0,0:0:0:0:
187,147,54228,1,8,0:0:0:0:
187,147,54561,1,0,0:0:0:0:
187,147,54728,1,0,0:0:0:0:
187,147,54895,1,8,0:0:0:0:
187,147,55061,1,0,0:0:0:0:
187,147,55395,1,0,0:0:0:0:
187,147,55728,1,12,0:0:0:0:
187,147,56228,1,8,0:0:0:0:
187,147,56395,1,0,0:0:0:0:
187,147,56728,1,8,0:0:0:0:
187,147,56895,1,0,0:0:0:0:
187,147,57228,1,8,0:0:0:0:
187,147,57395,1,8,0:0:0:0:
187,147,57561,1,0,0:0:0:0:
187,147,57728,1,8,0:0:0:0:
187,147,57895,1,0,0:0:0:0:
187,147,58061,1,0,0:0:0:0:
187,147,58145,1,0,0:0:0:0:
187,147,58228,1,0,0:0:0:0:
187,147,58395,1,12,0:0:0:0:
187,147,58728,1,8,0:0:0:0:
187,147,58895,1,0,0:0:0:0:
187,147,59395,1,0,0:0:0:0:
187,147,59561,1,0,0:0:0:0:
187,147,59728,1,12,0:0:0:0:
187,147,60061,1,0,0:0:0:0:
187,147,60228,1,8,0:0:0:0:
187,147,60561,1,0,0:0:0:0:
187,147,60728,1,0,0:0:0:0:
187,147,60895,1,12,0:0:0:0:
187,147,61228,1,0,0:0:0:0:
187,147,61395,1,8,0:0:0:0:
187,147,61561,1,0,0:0:0:0:
187,147,61645,1,0,0:0:0:0:
187,147,61728,1,0,0:0:0:0:
187,147,61895,1,8,0:0:0:0:
187,147,62061,1,8,0:0:0:0:
187,147,62228,1,0,0:0:0:0:
187,147,62395,1,8,0:0:0:0:
187,147,62728,1,0,0:0:0:0:
187,147,63061,1,0,0:0:0:0:
187,147,63145,1,0,0:0:0:0:
187,147,63228,1,0,0:0:0:0:
187,147,63395,1,0,0:0:0:0:
187,147,63561,1,0,0:0:0:0:
187,147,63728,1,12,0:0:0:0:
187,147,64061,1,0,0:0:0:0:
187,147,64228,1,8,0:0:0:0:
187,147,64395,1,0,0:0:0:0:
187,147,64728,1,8,0:0:0:0:
187,147,64895,1,0,0:0:0:0:
187,147,65061,1,0,0:0:0:0:
187,147,65145,1,0,0:0:0:0:
187,147,65228,1,0,0:0:0:0:
187,147,65395,1,0,0:0:0:0:
187,147,65561,1,8,0:0:0:0:
187,147,65645,1,8,0:0:0:0:
187,147,65728,1,8,0:0:0:0:
187,147,66395,1,4,0:0:0:0:
187,147,66728,1,8,0:0:0:0:
187,147,66895,1,8,0:0:0:0:
187,147,67061,1,0,0:0:0:0:
187,147,67228,1,0,0:0:0:0:
187,147,67395,1,8,0:0:0:0:
187,147,67561,1,0,0:0:0:0:
187,147,67645,1,0,0:0:0:0:
187,147,67728,1,0,0:0:0:0:
187,147,68061,1,8,0:0:0:0:
187,147,68228,1,0,0:0:0:0:
187,147,68395,1,8,0:0:0:0:
187,147,68561,1,8,0:0:0:0:
187,147,68728,1,0,0:0:0:0:
187,147,69061,1,8,0:0:0:0:
187,147,69395,1,0,0:0:0:0:
187,147,69561,1,8,0:0:0:0:
187,147,69728,1,8,0:0:0:0:
187,147,69895,1,0,0:0:0:0:
187,147,70061,1,8,0:0:0:0:
187,147,70228,1,8,0:0:0:0:
187,147,70311,1,8,0:0:0:0:
187,147,70395,1,8,0:0:0:0:
187,147,71061,1,0,0:0:0:0:
187,147,71228,1,0,0:0:0:0:
187,147,71395,1,8,0:0:0:0:
187,147,71728,1,12,0:0:0:0:
187,147,72061,1,0,0:0:0:0:
187,147,72228,1,0,0:0:0:0:
187,147,72395,1,8,0:0:0:0:
187,147,72561,1,8,0:0:0:0:
187,147,72728,1,0,0:0:0:0:
187,147,72895,1,8,0:0:0:0:
187,147,72978,1,8,0:0:0:0:
187,147,73061,1,8,0:0:0:0:
187,147,73395,1,0,0:0:0:0:
187,147,73561,1,8,0:0:0:0:
187,147,73728,1,0,0:0:0:0:
187,147,73895,1,0,0:0:0:0:
187,147,74061,1,8,0:0:0:0:
187,147,74395,1,0,0:0:0:0:
187,147,74728,1,8,0:0:0:0:
187,147,74895,1,8,0:0:0:0:
187,147,75061,1,0,0:0:0:0:
187,147,75228,1,8,0:0:0:0:
187,147,75395,1,0,0:0:0:0:
187,147,75561,1,0,0:0:0:0:
187,147,75645,1,0,0:0:0:0:
187,147,75728,1,0,0:0:0:0:
187,147,76228,1,0,0:0:0:0:
187,147,76395,1,0,0:0:0:0:
187,147,76561,1,8,0:0:0:0:
187,147,76645,1,8,0:0:0:0:
187,147,76728,1,8,0:0:0:0:
187,147,76895,1,0,0:0:0:0:
187,147,77061,1,12,0:0:0:0:
187,147,77395,1,0,0:0:0:0:
187,147,77561,1,0,0:0:0:0:
187,147,77728,1,8,0:0:0:0:
187,147,77895,1,0,0:0:0:0:
187,147,78061,1,8,0:0:0:0:
187,147,78395,1,8,0:0:0:0:
187,147,78561,1,0,0:0:0:0:
187,147,78728,1,8,0:0:0:0:
187,147,78895,1,0,0:0:0:0:
187,147,79061,1,0,0:0:0:0:
187,147,79228,1,8,0:0:0:0:
187,147,79395,1,8,0:0:0:0:
187,147,79561,1,8,0:0:0:0:
187,147,79728,1,4,0:0:0:0:
187,147,80061,1,8,0:0:0:0:
187,147,80228,1,0,0:0:0:0:
187,147,80395,1,0,0:0:0:0:
187,147,80728,1,0,0:0:0:0:
187,147,80895,1,0,0:0:0:0:
187,147,81061,1,0,0:0:0:0:
187,147,81228,1,8,0:0:0:0:
187,147,81728,1,8,0:0:0:0:
187,147,82061,1,0,0:0:0:0:
187,147,82145,1,0,0:0:0:0:
187,147,82228,1,0,0:0:0:0:
187,147,82395,1,12,0:0:0:0:
187,147,82728,1,0,0:0:0:0:
187,147,82895,1,0,0:0:0:0:
187,147,83061,1,8,0:0:0:0:
187,147,83228,1,8,0:0:0:0:
187,147,83395,1,8,0:0:0:0:
187,147,83561,1,0,0:0:0:0:
187,147,83728,1,8,0:0:0:0:
187,147,84061,1,0,0:0:0:0:
187,147,84395,1,8,0:0:0:0:
187,147,84728,1,0,0:0:0:0:
187,147,84895,1,0,0:0:0:0:
187,147,85061,1,12,0:0:0:0:
187,147,85395,1,0,0:0:0:0:
187,147,85561,1,0,0:0:0:0:
187,147,85728,1,0,0:0:0:0:
187,147,85895,1,0,0:0:0:0:
187,147,86061,1,0,0:0:0:0:
187,147,86228,1,0,0:0:0:0:
187,147,86395,1,12,0:0:0:0:
187,147,87228,1,0,0:0:0:0:
187,147,87395,1,8,0:0:0:0:
256,192,87728,12,0,90061,0:0:0:0:
