osu file format v14

[General]
AudioFilename: idols.mp3
AudioLeadIn: 0
PreviewTime: 65645
Countdown: 0
SampleSet: Normal
StackLeniency: 0.7
Mode: 1
LetterboxInBreaks: 0
WidescreenStoryboard: 1

[Editor]
DistanceSpacing: 0.5
BeatDivisor: 4
GridSize: 4
TimelineZoom: 1

[Metadata]
Title:Watashitachi no STARTRAIL (TV Size)
TitleUnicode:私たちのSTARTRAIL (TV Size)
Artist:Lapis Re:LiGHTs Stars
ArtistUnicode:ラピスリライツ・スターズ
Creator:Chitanda Eru
Version:Futsuu
Source:Lapis Re:LiGHTs
Tags:j-pop Pop jpop Anime japanese idol 松原さらり OPテーマソング opening theme song 南田健吾
BeatmapID:2675271
BeatmapSetID:1288676

[Difficulty]
HPDrainRate:7
CircleSize:4
OverallDifficulty:4
ApproachRate:9
SliderMultiplier:1.4
SliderTickRate:1

[Events]
//Background and Video events
0,0,"relights upscaled.jpg",0,50
Video,416,"relights.mp4"
//Break Periods
//Storyboard Layer 0 (Background)
//Storyboard Layer 1 (Fail)
//Storyboard Layer 2 (Pass)
//Storyboard Layer 3 (Foreground)
//Storyboard Layer 4 (Overlay)
//Storyboard Sound Samples

[TimingPoints]
1062,333.333333333333,4,1,0,60,1,0
1062,-100,4,1,0,60,0,0
11728,-100,4,1,0,70,0,0
21061,-100,4,1,0,80,0,0
26728,-100,4,1,0,70,0,0
47728,-100,4,1,0,70,0,0
58395,-100,4,1,0,70,0,0
63728,-100,4,1,0,80,0,0
66395,-100,4,1,0,90,0,1
82395,-100,4,1,0,90,0,1
86395,-100,4,1,0,90,0,0
87228,-100,4,1,0,60,0,0

[HitObjects]
189,153,1062,5,0,0:0:0:0:
189,153,2395,1,0,0:0:0:0:
189,153,3728,1,8,0:0:0:0:
189,153,5061,1,0,0:0:0:0:
189,153,5395,1,0,0:0:0:0:
189,153,5728,1,8,0:0:0:0:
189,153,6395,1,8,0:0:0:0:
189,153,7728,1,8,0:0:0:0:
189,153,9061,1,0,0:0:0:0:
189,153,10395,1,0,0:0:0:0:
189,153,11061,1,0,0:0:0:0:
189,153,11395,1,0,0:0:0:0:
189,153,11728,1,8,0:0:0:0:
189,153,12228,1,0,0:0:0:0:
189,153,12728,1,8,0:0:0:0:
189,153,13061,1,0,0:0:0:0:
189,153,13228,1,0,0:0:0:0:
189,153,13728,1,8,0:0:0:0:
189,153,14061,1,8,0:0:0:0:
189,153,14395,1,0,0:0:0:0:
189,153,15061,1,8,0:0:0:0:
189,153,15395,1,0,0:0:0:0:
189,153,15561,1,0,0:0:0:0:
189,153,15895,1,8,0:0:0:0:
189,153,17061,1,12,0:0:0:0:
189,153,17561,1,8,0:0:0:0:
189,153,17728,1,8,0:0:0:0:
189,153,18061,1,0,0:0:0:0:
189,153,18395,1,4,0:0:0:0:
189,153,18895,1,0,0:0:0:0:
189,153,19061,1,0,0:0:0:0:
189,153,19395,1,0,0:0:0:0:
189,153,19728,1,8,0:0:0:0:
189,153,20728,1,8,0:0:0:0:
189,153,20895,1,8,0:0:0:0:
189,153,21061,1,4,0:0:0:0:
189,153,21395,1,8,0:0:0:0:
189,153,21728,1,8,0:0:0:0:
189,153,22061,1,8,0:0:0:0:
189,153,22228,1,8,0:0:0:0:
189,153,22561,1,0,0:0:0:0:
189,153,22895,1,8,0:0:0:0:
189,153,23228,1,8,0:0:0:0:
189,153,23728,1,4,0:0:0:0:
189,153,24061,1,8,0:0:0:0:
189,153,24228,1,4,0:0:0:0:
189,153,25061,1,12,0:0:0:0:
189,153,25395,1,0,0:0:0:0:
189,153,25561,1,12,0:0:0:0:
189,153,26395,1,12,0:0:0:0:
189,153,26728,1,0,0:0:0:0:
189,153,27061,1,0,0:0:0:0:
189,153,27228,1,0,0:0:0:0:
189,153,27561,1,8,0:0:0:0:
189,153,27895,1,8,0:0:0:0:
189,153,28061,1,0,0:0:0:0:
189,153,28395,1,0,0:0:0:0:
189,153,28728,1,0,0:0:0:0:
189,153,29061,1,8,0:0:0:0:
189,153,29395,1,8,0:0:0:0:
189,153,29728,1,0,0:0:0:0:
189,153,30061,1,0,0:0:0:0:
189,153,30228,1,0,0:0:0:0:
189,153,30395,1,8,0:0:0:0:
189,153,31061,1,0,0:0:0:0:
189,153,31728,1,8,0:0:0:0:
189,153,32061,1,0,0:0:0:0:
189,153,32395,1,8,0:0:0:0:
189,153,32561,1,8,0:0:0:0:
189,153,32895,1,0,0:0:0:0:
189,153,33228,1,0,0:0:0:0:
189,153,33395,1,8,0:0:0:0:
189,153,33728,1,8,0:0:0:0:
189,153,34061,1,0,0:0:0:0:
189,153,34395,1,0,0:0:0:0:
189,153,34728,1,8,0:0:0:0:
189,153,35061,1,8,0:0:0:0:
189,153,35395,1,8,0:0:0:0:
189,153,35561,1,8,0:0:0:0:
189,153,35728,1,0,0:0:0:0:
189,153,36395,1,0,0:0:0:0:
189,153,36728,1,8,0:0:0:0:
189,153,36895,1,0,0:0:0:0:
189,153,37061,1,12,0:0:0:0:
189,153,37395,1,8,0:0:0:0:
189,153,37728,1,0,0:0:0:0:
189,153,37895,1,0,0:0:0:0:
189,153,38061,1,8,0:0:0:0:
189,153,38395,1,8,0:0:0:0:
189,153,38728,1,0,0:0:0:0:
189,153,38895,1,8,0:0:0:0:
189,153,39728,1,8,0:0:0:0:
189,153,40061,1,0,0:0:0:0:
189,153,40395,1,8,0:0:0:0:
189,153,40561,1,0,0:0:0:0:
189,153,40728,1,0,0:0:0:0:
189,153,41061,1,8,0:0:0:0:
189,153,41395,1,0,0:0:0:0:
189,153,41561,1,8,0:0:0:0:
189,153,42395,1,12,0:0:0:0:
189,153,42728,1,0,0:0:0:0:
189,153,42895,1,8,0:0:0:0:
189,153,43228,1,8,0:0:0:0:
189,153,43395,1,0,0:0:0:0:
189,153,43728,1,8,0:0:0:0:
189,153,44395,1,0,0:0:0:0:
189,153,44728,1,0,0:0:0:0:
189,153,45061,1,12,0:0:0:0:
189,153,45395,1,8,0:0:0:0:
189,153,45561,1,0,0:0:0:0:
189,153,45895,1,0,0:0:0:0:
189,153,46061,1,8,0:0:0:0:
189,153,46395,1,4,0:0:0:0:
189,153,46728,1,4,0:0:0:0:
189,153,47061,1,8,0:0:0:0:
189,153,47228,1,0,0:0:0:0:
189,153,47395,1,0,0:0:0:0:
189,153,47728,1,4,0:0:0:0:
189,153,48395,1,8,0:0:0:0:
189,153,48728,1,0,0:0:0:0:
189,153,48895,1,0,0:0:0:0:
189,153,49395,1,8,0:0:0:0:
189,153,49728,1,0,0:0:0:0:
189,153,50061,1,0,0:0:0:0:
189,153,50395,1,8,0:0:0:0:
189,153,51061,1,0,0:0:0:0:
189,153,51395,1,8,0:0:0:0:
189,153,51561,1,8,0:0:0:0:
189,153,52061,1,8,0:0:0:0:
189,153,52395,1,8,0:0:0:0:
189,153,52728,1,8,0:0:0:0:
189,153,53061,1,4,0:0:0:0:
189,153,53728,1,8,0:0:0:0:
189,153,54061,1,0,0:0:0:0:
189,153,54228,1,0,0:0:0:0:
189,153,54561,1,8,0:0:0:0:
189,153,54728,1,8,0:0:0:0:
189,153,55061,1,0,0:0:0:0:
189,153,55395,1,0,0:0:0:0:
189,153,55728,1,12,0:0:0:0:
189,153,56395,1,0,0:0:0:0:
189,153,56728,1,8,0:0:0:0:
189,153,56895,1,0,0:0:0:0:
189,153,57228,1,8,0:0:0:0:
189,153,57395,1,0,0:0:0:0:
189,153,57561,1,0,0:0:0:0:
189,153,57728,1,8,0:0:0:0:
189,153,58061,1,0,0:0:0:0:
189,153,58228,1,0,0:0:0:0:
189,153,58395,1,12,0:0:0:0:
189,153,58895,1,0,0:0:0:0:
189,153,59395,1,0,0:0:0:0:
189,153,59561,1,0,0:0:0:0:
189,153,59728,1,12,0:0:0:0:
189,153,60228,1,8,0:0:0:0:
189,153,60561,1,0,0:0:0:0:
189,153,60728,1,0,0:0:0:0:
189,153,60895,1,12,0:0:0:0:
189,153,61395,1,8,0:0:0:0:
189,153,61561,1,0,0:0:0:0:
189,153,61728,1,0,0:0:0:0:
189,153,62061,1,8,0:0:0:0:
189,153,62228,1,0,0:0:0:0:
189,153,62395,1,8,0:0:0:0:
189,153,62728,1,0,0:0:0:0:
189,153,63061,1,0,0:0:0:0:
189,153,63395,1,0,0:0:0:0:
189,153,63728,1,12,0:0:0:0:
189,153,64395,1,0,0:0:0:0:
189,153,64728,1,8,0:0:0:0:
189,153,65061,1,0,0:0:0:0:
189,153,65228,1,0,0:0:0:0:
189,153,65395,1,0,0:0:0:0:
189,153,65561,1,8,0:0:0:0:
189,153,65728,1,8,0:0:0:0:
189,153,66395,1,4,0:0:0:0:
189,153,66728,1,8,0:0:0:0:
189,153,67061,1,0,0:0:0:0:
189,153,67228,1,0,0:0:0:0:
189,153,67395,1,8,0:0:0:0:
189,153,67728,1,0,0:0:0:0:
189,153,68061,1,0,0:0:0:0:
189,153,68395,1,8,0:0:0:0:
189,153,68561,1,8,0:0:0:0:
189,153,68728,1,0,0:0:0:0:
189,153,69061,1,8,0:0:0:0:
189,153,69395,1,0,0:0:0:0:
189,153,69561,1,8,0:0:0:0:
189,153,69895,1,0,0:0:0:0:
189,153,70228,1,8,0:0:0:0:
189,153,71061,1,0,0:0:0:0:
189,153,71228,1,0,0:0:0:0:
189,153,71395,1,8,0:0:0:0:
189,153,71728,1,12,0:0:0:0:
189,153,72061,1,0,0:0:0:0:
189,153,72395,1,8,0:0:0:0:
189,153,72561,1,8,0:0:0:0:
189,153,72728,1,0,0:0:0:0:
189,153,73061,1,0,0:0:0:0:
189,153,73395,1,8,0:0:0:0:
189,153,73728,1,0,0:0:0:0:
189,153,73895,1,0,0:0:0:0:
189,153,74061,1,8,0:0:0:0:
189,153,74395,1,0,0:0:0:0:
189,153,74728,1,8,0:0:0:0:
189,153,74895,1,8,0:0:0:0:
189,153,75228,1,8,0:0:0:0:
189,153,75561,1,0,0:0:0:0:
189,153,76228,1,0,0:0:0:0:
189,153,76561,1,8,0:0:0:0:
189,153,76728,1,0,0:0:0:0:
189,153,76895,1,0,0:0:0:0:
189,153,77061,1,12,0:0:0:0:
189,153,77395,1,0,0:0:0:0:
189,153,77561,1,0,0:0:0:0:
189,153,77895,1,0,0:0:0:0:
189,153,78061,1,8,0:0:0:0:
189,153,78395,1,8,0:0:0:0:
189,153,78561,1,0,0:0:0:0:
189,153,78895,1,0,0:0:0:0:
189,153,79061,1,0,0:0:0:0:
189,153,79395,1,8,0:0:0:0:
189,153,79561,1,8,0:0:0:0:
189,153,79728,1,4,0:0:0:0:
189,153,80061,1,8,0:0:0:0:
189,153,80228,1,0,0:0:0:0:
189,153,80395,1,0,0:0:0:0:
189,153,80728,1,0,0:0:0:0:
189,153,80895,1,0,0:0:0:0:
189,153,81228,1,8,0:0:0:0:
189,153,82061,1,0,0:0:0:0:
189,153,82228,1,0,0:0:0:0:
189,153,82395,1,12,0:0:0:0:
189,153,82728,1,0,0:0:0:0:
189,153,82895,1,0,0:0:0:0:
189,153,83061,1,8,0:0:0:0:
189,153,83395,1,8,0:0:0:0:
189,153,83561,1,0,0:0:0:0:
189,153,83728,1,8,0:0:0:0:
189,153,84061,1,0,0:0:0:0:
189,153,84395,1,8,0:0:0:0:
189,153,84728,1,0,0:0:0:0:
189,153,84895,1,0,0:0:0:0:
189,153,85061,1,12,0:0:0:0:
189,153,85395,1,0,0:0:0:0:
189,153,85728,1,0,0:0:0:0:
189,153,85895,1,0,0:0:0:0:
189,153,86061,1,0,0:0:0:0:
189,153,86228,1,0,0:0:0:0:
189,153,86395,1,12,0:0:0:0:
189,153,87228,1,0,0:0:0:0:
189,153,87395,1,8,0:0:0:0:
256,192,87728,12,0,90061,0:0:0:0:
