osu file format v14

[General]
AudioFilename: audio.mp3
AudioLeadIn: 0
PreviewTime: 65645
Countdown: 0
SampleSet: Soft
StackLeniency: 0.7
Mode: 0
LetterboxInBreaks: 0
WidescreenStoryboard: 0

[Editor]
DistanceSpacing: 1
BeatDivisor: 4
GridSize: 8
TimelineZoom: 1

[Metadata]
Title:Watashitachi no STARTRAIL (TV Size)
TitleUnicode:私たちのSTARTRAIL (TV Size)
Artist:Lapis Re:LiGHTs Stars
ArtistUnicode:ラピスリライツ・スターズ
Creator:Adinda
Version:Normal
Source:Lapis Re:LiGHTs
Tags:nevertary our star trail relights japanese pop jpop j-pop anime idols 安齋 由香里 Yukari Anzai Tiara 久保田 梨沙 Risa Lisa Kubota Rosetta Lavie Ribu Mukai 向井莉生 佐伯 伊織 Saeki Iori Ashley 山本 美月 Yamamoto Mizuki Lynette 星乃 葉月 篠原 侑 中山 瑶子 本泉 莉奈 鈴木 亜理沙 大野 柚布子 早瀬 雪未 広瀬 世華 赤尾 ひかる 雨宮 夕夏 松田 利冴 桜木 夕 奥 紗瑛子 伊藤 はるか 花澤 香菜 南條 愛 上坂 すみれ 佐倉 綾音 Hoshino Hazuki Mineuchi Tomomi Sasahara Yuu Nakayama Youko Rina Honnizumi Suzuki Arisa Oono Yuuko Hayase Yukimi Hirose Seika Akao Hikaru Amemiya Yuka Matsuda Risae Sakuragi Yuu Oku Saeko Itou Haruka Hanazawa Kana Nanjo Yoshino Uesaka Sumire Sakura Ayane
BeatmapID:2689847
BeatmapSetID:1292788

[Difficulty]
HPDrainRate:4
CircleSize:3.6
OverallDifficulty:4
ApproachRate:5.5
SliderMultiplier:1.1
SliderTickRate:1

[Events]
//Background and Video events
0,0,"a.jpg",0,0
//Break Periods
//Storyboard Layer 0 (Background)
//Storyboard Layer 1 (Fail)
//Storyboard Layer 2 (Pass)
//Storyboard Layer 3 (Foreground)
//Storyboard Layer 4 (Overlay)
//Storyboard Sound Samples

[TimingPoints]
1062,333.333333333333,4,2,1,40,1,0
1062,-142.857142857143,4,2,1,40,0,0
11728,-142.857142857143,4,2,1,50,0,0
17061,-111.111111111111,4,2,1,70,0,0
19728,-111.111111111111,4,2,1,50,0,0
20395,-105.263157894737,4,2,1,75,0,0
21061,-100,4,2,1,85,0,0
25561,-100,4,2,1,80,0,0
26395,-111.111111111111,4,2,1,70,0,0
47728,-117.647058823529,4,2,1,60,0,0
58395,-105.263157894737,4,2,1,75,0,0
65061,-105.263157894737,4,2,1,80,0,0
65395,-105.263157894737,4,2,1,85,0,0
65728,-105.263157894737,4,2,1,60,0,0
66395,-95.2380952380952,4,2,1,90,0,1
86395,-111.111111111111,4,2,1,85,0,0
87645,-111.111111111111,4,2,1,5,0,0
87728,-111.111111111111,4,2,1,85,0,0
87811,-111.111111111111,4,2,1,35,0,0

[Colours]
Combo1 : 192,192,192
Combo2 : 247,153,196
Combo3 : 172,133,245
Combo4 : 170,0,0
Combo5 : 0,128,192
Combo6 : 0,155,0

[HitObjects]
66,100,1062,70,0,P|99:87|147:94,1,76.9999976501466,2|0,0:0|0:0,0:0:0:0:
195,144,1728,2,0,L|184:228,1,76.9999976501466,2|0,0:0|0:0,0:0:0:0:
245,268,2395,2,0,B|340:246|303:291|407:273,1,153.999995300293,2|0,0:0|0:0,0:0:0:0:
444,214,3395,1,2,0:0:0:0:
396,153,3728,6,0,P|363:148|305:85,1,115.49999647522,2|0,0:0|0:0,0:0:0:0:
247,44,4561,1,2,0:0:0:0:
176,74,4895,2,0,P|123:153|166:250,1,192.499994125366,2|2,0:0|0:0,0:0:0:0:
233,369,6395,70,0,P|291:358|322:363,1,76.9999976501466,2|0,0:0|0:0,0:0:0:0:
317,283,7061,2,0,P|278:284|241:273,1,76.9999976501466,2|0,0:0|0:0,0:0:0:0:
193,213,7728,2,0,P|154:212|34:164,1,153.999995300293,2|0,0:0|0:0,0:0:0:0:
32,97,8728,1,2,0:0:0:0:
100,62,9061,6,0,L|217:46,1,115.49999647522,2|0,0:0|0:0,0:0:0:0:
287,20,9895,1,2,0:0:0:0:
320,89,10228,2,0,B|308:163|361:158|349:236,1,153.999995300293,2|2,0:0|0:0,0:0:0:0:
392,300,11228,1,2,0:0:0:0:
450,249,11561,1,2,0:0:0:0:
450,249,11728,70,0,P|453:204|421:128,1,115.49999647522,2|0,0:0|0:0,0:0:0:0:
318,103,12728,2,0,P|295:155|297:213,1,115.49999647522,2|0,0:0|0:0,0:0:0:0:
190,257,13728,2,0,L|106:240,1,76.9999976501466,2|0,0:0|0:0,0:0:0:0:
110,320,14395,6,0,L|185:335,1,76.9999976501466,2|0,0:0|0:0,0:0:0:0:
257,308,15061,2,0,P|301:294|309:229,1,115.49999647522,2|0,0:0|0:0,0:0:0:0:
242,194,15895,2,0,B|197:186|197:186|158:210|158:210|91:193,1,153.999995300293,2|2,0:0|0:0,0:0:0:0:
22,176,16895,1,2,0:0:0:0:
22,176,17061,6,0,P|13:115|111:33,1,197.99999395752,6|8,1:1|0:0,0:0:0:0:
206,40,18061,1,10,0:3:0:0:
241,127,18395,2,0,P|234:192|241:284,1,148.49999546814,6|4,1:1|0:3,0:0:0:0:
266,316,19061,2,0,L|366:307,1,98.9999969787599,10|6,0:3|0:3,0:0:0:0:
437,245,19728,5,2,0:2:0:0:
437,245,20395,70,0,P|424:210|433:187,1,52.2499986047745,6|8,1:1|0:2,0:0:0:0:
466,161,20728,2,0,P|479:126|470:103,1,52.2499986047745,8|8,0:2|0:2,0:0:0:0:
423,95,21061,22,0,B|342:84|400:74|298:71,1,110,6|8,1:1|0:2,0:0:0:0:
209,96,21728,2,8,P|206:121|223:156,1,55,2|0,1:1|1:1,0:0:0:0:
240,198,22061,1,10,0:2:0:0:
240,198,22228,2,0,B|283:206|283:206|301:224|301:224|351:237,1,110,2|2,1:1|1:1,0:0:0:0:
393,221,22728,1,8,0:2:0:0:
500,243,23061,2,0,L|477:293,1,55,8|10,0:3|0:2,0:0:0:0:
460,346,23395,1,8,0:2:0:0:
350,352,23728,6,0,L|286:324,1,55,6|2,1:1|0:2,0:0:0:0:
247,348,24061,1,10,0:2:0:0:
247,348,24228,2,0,B|136:358|199:311|77:326,1,165,6|10,1:1|0:3,0:0:0:0:
99,224,25061,2,0,L|87:149,1,55,6|2,1:1|0:2,0:0:0:0:
109,117,25395,1,10,0:2:0:0:
109,117,25561,2,0,B|189:104|189:104|228:122|228:122|336:102,1,220,6|8,1:1|0:3,0:0:0:0:
361,125,26395,37,4,1:1:0:0:
337,221,26728,2,0,P|324:256|336:327,1,98.9999969787599,10|2,0:2|0:2,0:0:0:0:
363,353,27228,1,2,1:1:0:0:
447,302,27561,1,2,0:2:0:0:
465,204,27895,1,2,0:2:0:0:
465,204,28061,2,0,P|479:157|471:108,1,98.9999969787599,10|2,0:2|0:2,0:0:0:0:
412,29,28728,1,10,0:2:0:0:
319,64,29061,6,0,B|272:57|275:42|211:41,1,98.9999969787599,2|10,1:1|0:2,0:0:0:0:
147,105,29728,2,0,B|100:98|103:83|39:82,1,98.9999969787599,2|10,0:2|0:2,0:0:0:0:
33,128,30228,2,0,P|19:233|219:272,1,346.49998942566,2|8,0:2|0:2,0:0:0:0:
272,200,31728,69,2,1:1:0:0:
366,230,32061,2,0,P|412:228|473:228,1,98.9999969787599,10|2,0:2|0:2,0:0:0:0:
494,267,32561,1,2,1:1:0:0:
434,346,32895,1,2,0:2:0:0:
335,353,33228,1,2,0:2:0:0:
335,353,33395,2,0,P|289:351|228:351,1,98.9999969787599,10|2,0:2|0:2,0:0:0:0:
142,317,34061,1,10,0:2:0:0:
127,218,34395,6,0,B|115:184|115:184|129:106,1,98.9999969787599,2|10,1:1|0:2,0:0:0:0:
221,97,35061,2,0,B|232:158|232:158|220:192,1,98.9999969787599,2|10,0:2|0:2,0:0:0:0:
249,233,35561,2,0,P|303:228|402:244,1,148.49999546814,2|8,0:2|0:2,0:0:0:0:
472,178,36395,1,2,0:2:0:0:
462,80,36728,2,0,L|468:26,1,49.4999984893799,10|8,0:2|0:2,0:0:0:0:
418,22,37061,70,0,B|380:18|380:18|355:27|355:27|311:20,1,98.9999969787599,6|10,1:1|0:2,0:0:0:0:
229,60,37728,2,0,L|130:86,1,98.9999969787599,2|10,0:2|0:2,0:0:0:0:
87,67,38228,1,2,0:2:0:0:
87,67,38395,2,0,P|68:118|79:180,1,98.9999969787599,2|10,1:1|0:2,0:0:0:0:
58,209,38895,2,0,B|39:244|39:244|69:360,1,148.49999546814,2|8,1:1|0:2,0:0:0:0:
159,315,39728,6,0,L|175:211,1,98.9999969787599,2|10,1:1|0:2,0:0:0:0:
223,131,40395,2,0,P|262:144|326:128,1,98.9999969787599,2|10,0:2|0:2,0:0:0:0:
361,109,40895,1,2,0:2:0:0:
361,109,41061,2,0,B|368:82|368:82|365:51|365:51|379:-2,1,98.9999969787599,2|10,1:1|0:2,0:0:0:0:
423,24,41561,2,0,P|455:64|454:122,1,98.9999969787599,2|0,1:1|1:1,0:0:0:0:
456,209,42228,1,2,0:2:0:0:
456,209,42395,70,0,B|421:240|422:269|422:269|446:313,1,98.9999969787599,6|10,1:1|0:2,0:0:0:0:
464,333,42895,1,2,0:2:0:0:
372,370,43228,1,2,1:1:0:0:
372,370,43395,2,0,L|312:351,1,49.4999984893799,10|0,0:2|0:0,0:0:0:0:
275,363,43728,2,0,B|226:365|227:336|159:345,1,98.9999969787599,2|8,1:1|0:2,0:0:0:0:
179,244,44395,1,2,0:2:0:0:
254,179,44728,1,10,0:2:0:0:
199,96,45061,6,0,B|163:84|163:84|141:62|141:62|95:47,1,98.9999969787599,6|10,1:1|0:2,0:0:0:0:
90,8,45561,1,2,0:2:0:0:
37,92,45895,1,2,1:1:0:0:
37,92,46061,2,0,L|29:144,1,49.4999984893799,10|0,0:2|0:2,0:0:0:0:
33,190,46395,2,0,P|20:222|59:288,1,98.9999969787599,6|12,1:1|0:2,0:0:0:0:
138,305,47061,2,0,L|204:294,1,49.4999984893799,14|8,0:2|0:3,0:0:0:0:
231,318,47395,1,4,0:3:0:0:
263,230,47728,38,0,P|250:186|289:44,1,187.000003566742,6|10,1:1|0:2,0:0:0:0:
415,6,48895,2,0,P|434:72|420:140,1,140.250002675057,2|2,1:1|1:1,0:0:0:0:
387,228,49728,2,0,P|425:227|498:231,1,93.500001783371,10|2,0:2|0:2,0:0:0:0:
448,317,50395,5,2,1:1:0:0:
448,317,50561,2,0,B|407:317|407:317|377:327|377:327|302:326,1,140.250002675057,8|10,0:2|0:2,0:0:0:0:
221,216,51561,2,0,P|217:183|218:105,1,93.500001783371,2|10,1:1|0:2,0:0:0:0:
260,106,52061,1,2,1:1:0:0:
198,35,52395,2,0,B|168:39|168:39|99:33,1,93.500001783371,14|10,0:2|0:3,0:0:0:0:
61,15,52895,1,4,0:3:0:0:
61,15,53061,69,6,1:1:0:0:
37,105,53395,2,0,P|35:149|37:203,1,93.500001783371,2|10,0:0|0:2,0:0:0:0:
94,271,54061,2,0,L|145:267,1,46.7500008916855,2|0,0:2|1:1,0:0:0:0:
183,287,54395,2,0,B|227:282|237:308|286:294,1,93.500001783371,2|2,0:2|1:1,0:0:0:0:
298,256,54895,2,0,P|280:226|339:153,1,140.250002675057,2|2,0:2|0:2,0:0:0:0:
406,213,55728,5,6,1:1:0:0:
475,150,56061,2,0,L|479:46,1,93.500001783371,2|10,0:0|0:2,0:0:0:0:
397,9,56728,1,2,0:2:0:0:
310,44,57061,2,0,P|265:49|212:38,1,93.500001783371,2|2,0:2|1:1,0:0:0:0:
179,66,57561,2,0,B|166:148|213:118|200:217,1,140.250002675057,10|8,0:2|0:2,0:0:0:0:
291,255,58395,6,0,P|331:253|398:258,1,104.499997209549,6|10,1:1|0:2,0:0:0:0:
441,232,58895,1,2,1:1:0:0:
360,366,59394,2,0,L|294:356,1,52.2499986047745,10|10,0:2|0:3,0:0:0:0:
256,366,59728,2,0,B|217:362|217:362|186:340|186:340|146:337,1,104.499997209549,6|10,1:1|0:2,0:0:0:0:
111,360,60228,1,2,1:1:0:0:
93,257,60561,2,0,L|83:200,1,52.2499986047745,10|10,0:2|0:3,0:0:0:0:
60,158,60895,6,0,B|225:130|225:130|302:178|302:178|524:134,1,470.249987442971,6|8,1:1|0:2,0:0:0:0:
428,71,62728,1,10,0:2:0:0:
325,52,63061,1,10,0:2:0:0:
221,40,63395,1,10,0:3:0:0:
117,26,63728,70,0,P|86:51|8:53,1,104.499997209549,6|10,1:1|1:2,0:0:0:0:
60,158,64395,2,0,P|91:183|169:185,1,104.499997209549,10|10,1:2|1:2,0:0:0:0:
257,179,65061,2,0,P|250:208|259:248,1,52.2499986047745,10|10,1:2|0:2,0:0:0:0:
279,275,65395,2,0,P|272:304|281:344,1,52.2499986047745,10|10,1:2|0:2,0:0:0:0:
302,370,65728,1,2,0:2:0:0:
302,370,66395,21,6,1:1:0:0:
189,344,66728,1,10,0:2:0:0:
75,362,67061,2,0,P|50:339|49:256,1,115.49999647522,2|10,1:1|0:2,0:0:0:0:
111,166,67728,1,2,1:1:0:0:
222,197,68061,1,10,0:2:0:0:
317,134,68395,2,0,P|361:131|443:127,1,115.49999647522,2|10,1:1|0:2,0:0:0:0:
382,23,69061,6,0,P|338:20|255:17,1,115.49999647522,6|10,1:1|0:2,0:0:0:0:
215,43,69561,2,0,P|183:47|146:55,1,57.7499982376099,2|0,0:2|1:1,0:0:0:0:
100,43,69895,2,0,P|68:39|33:33,1,57.7499982376099,2|8,1:1|0:2,0:0:0:0:
17,86,70228,2,0,P|7:171|215:277,1,346.49998942566,2|0,0:2|1:1,0:0:0:0:
261,266,71395,1,8,0:2:0:0:
320,167,71728,69,6,1:1:0:0:
391,257,72061,1,10,0:2:0:0:
453,159,72395,2,0,P|458:125|436:29,1,115.49999647522,2|10,1:1|0:2,0:0:0:0:
329,32,73061,1,2,1:1:0:0:
264,127,73395,1,10,0:2:0:0:
312,231,73728,2,0,P|329:288|324:348,1,115.49999647522,2|10,1:1|0:2,0:0:0:0:
209,337,74395,6,0,B|130:331|175:316|84:314,1,115.49999647522,6|10,1:1|0:2,0:0:0:0:
59,270,74895,2,0,L|52:208,1,57.7499982376099,2|0,0:2|1:1,0:0:0:0:
24,162,75228,2,0,L|36:103,1,57.7499982376099,2|8,1:1|0:2,0:0:0:0:
65,55,75561,2,0,B|186:33|133:75|242:49,1,173.24999471283,10|10,0:2|0:2,0:0:0:0:
289,25,76228,1,10,0:2:0:0:
304,139,76561,1,10,0:2:0:0:
304,139,76728,2,0,P|302:171|310:202,1,57.7499982376099,10|10,0:2|0:3,0:0:0:0:
341,242,77061,70,0,P|336:272|352:360,1,115.49999647522,6|10,1:1|0:2,0:0:0:0:
403,377,77561,1,2,0:2:0:0:
439,269,77895,1,2,1:1:0:0:
439,269,78061,1,10,0:0:0:0:
469,160,78395,1,2,1:1:0:0:
469,160,78561,1,2,0:2:0:0:
388,85,78895,1,2,0:2:0:0:
388,85,79061,2,0,L|311:85,1,57.7499982376099,2|2,1:1|1:1,0:0:0:0:
273,71,79395,1,10,0:2:0:0:
161,102,79728,6,0,B|140:142|140:142|158:222,1,115.49999647522,6|8,1:1|0:2,0:0:0:0:
193,255,80228,1,2,0:2:0:0:
193,255,80395,1,2,1:1:0:0:
305,230,80728,1,10,0:2:0:0:
305,230,80895,2,0,P|342:226|380:233,1,57.7499982376099,2|0,0:2|1:1,0:0:0:0:
413,201,81228,2,0,P|457:237|451:313,1,115.49999647522,2|0,1:1|1:1,0:0:0:0:
459,350,81728,1,12,0:2:0:0:
351,354,82061,1,8,0:0:0:0:
351,354,82228,1,8,0:3:0:0:
351,354,82395,69,6,1:1:0:0:
241,316,82728,2,0,L|230:258,1,57.7499982376099,10|2,0:2|1:1,0:0:0:0:
176,237,83061,2,0,L|184:178,1,57.7499982376099,10|2,0:2|1:1,0:0:0:0:
158,127,83395,2,0,L|146:68,1,57.7499982376099,10|2,0:2|1:1,0:0:0:0:
164,11,83728,2,0,B|215:17|215:17|236:26|236:26|286:32,1,115.49999647522,10|10,0:2|0:2,0:0:0:0:
262,152,84395,1,10,0:0:0:0:
262,152,84561,1,0,1:0:0:0:
262,152,84728,1,10,0:0:0:0:
239,259,85061,5,6,1:1:0:0:
354,261,85395,2,0,L|429:260,1,57.7499982376099,8|10,0:2|0:2,0:0:0:0:
434,207,85728,2,0,L|447:143,1,57.7499982376099,10|8,0:2|0:2,0:0:0:0:
415,101,86061,2,0,L|402:44,1,57.7499982376099,8|10,0:2|0:2,0:0:0:0:
359,14,86395,1,10,0:2:0:0:
114,51,87228,1,0,1:1:0:0:
114,51,87395,2,0,L|106:108,1,49.4999984893799,10|0,0:2|0:0,0:0:0:0:
83,143,87728,37,4,1:1:0:0:
256,192,87811,12,0,90061,0:2:0:0:
