osu file format v14

[General]
AudioFilename: audio.mp3
AudioLeadIn: 0
PreviewTime: 65645
Countdown: 0
SampleSet: Soft
StackLeniency: 0.7
Mode: 0
LetterboxInBreaks: 0
WidescreenStoryboard: 0

[Editor]
DistanceSpacing: 1.1
BeatDivisor: 4
GridSize: 8
TimelineZoom: 1

[Metadata]
Title:Watashitachi no STARTRAIL (TV Size)
TitleUnicode:私たちのSTARTRAIL (TV Size)
Artist:Lapis Re:LiGHTs Stars
ArtistUnicode:ラピスリライツ・スターズ
Creator:Adinda
Version:Hard
Source:Lapis Re:LiGHTs
Tags:nevertary our star trail relights japanese pop jpop j-pop anime idols 安齋 由香里 Yukari Anzai Tiara 久保田 梨沙 Risa Lisa Kubota Rosetta Lavie Ribu Mukai 向井莉生 佐伯 伊織 Saeki Iori Ashley 山本 美月 Yamamoto Mizuki Lynette 星乃 葉月 篠原 侑 中山 瑶子 本泉 莉奈 鈴木 亜理沙 大野 柚布子 早瀬 雪未 広瀬 世華 赤尾 ひかる 雨宮 夕夏 松田 利冴 桜木 夕 奥 紗瑛子 伊藤 はるか 花澤 香菜 南條 愛 上坂 すみれ 佐倉 綾音 Hoshino Hazuki Mineuchi Tomomi Sasahara Yuu Nakayama Youko Rina Honnizumi Suzuki Arisa Oono Yuuko Hayase Yukimi Hirose Seika Akao Hikaru Amemiya Yuka Matsuda Risae Sakuragi Yuu Oku Saeko Itou Haruka Hanazawa Kana Nanjo Yoshino Uesaka Sumire Sakura Ayane
BeatmapID:2684563
BeatmapSetID:1292788

[Difficulty]
HPDrainRate:4.5
CircleSize:3.8
OverallDifficulty:7
ApproachRate:8
SliderMultiplier:1.4
SliderTickRate:1

[Events]
//Background and Video events
0,0,"a.jpg",0,0
//Break Periods
//Storyboard Layer 0 (Background)
//Storyboard Layer 1 (Fail)
//Storyboard Layer 2 (Pass)
//Storyboard Layer 3 (Foreground)
//Storyboard Layer 4 (Overlay)
//Storyboard Sound Samples

[TimingPoints]
1062,333.333333333333,4,2,1,40,1,0
1062,-133.333333333333,4,2,1,40,0,0
11728,-133.333333333333,4,2,1,50,0,0
17061,-111.111111111111,4,2,1,70,0,0
19728,-111.111111111111,4,2,1,50,0,0
20395,-105.263157894737,4,2,1,75,0,0
21061,-100,4,2,1,85,0,0
22478,-100,4,2,1,5,0,0
22561,-100,4,2,1,85,0,0
25561,-100,4,2,1,80,0,0
26395,-111.111111111111,4,2,1,70,0,0
47728,-117.647058823529,4,2,1,60,0,0
58395,-105.263157894737,4,2,1,75,0,0
65061,-105.263157894737,4,2,1,80,0,0
65395,-105.263157894737,4,2,1,85,0,0
65728,-105.263157894737,4,2,1,60,0,0
66395,-90.9090909090909,4,2,1,90,0,1
68978,-90.9090909090909,4,2,1,5,0,1
69061,-90.9090909090909,4,2,1,90,0,1
71645,-90.9090909090909,4,2,1,5,0,1
71728,-90.9090909090909,4,2,1,90,0,1
74311,-90.9090909090909,4,2,1,5,0,1
74394,-90.9090909090909,4,2,1,90,0,1
86395,-90.9090909090909,4,2,1,85,0,0
87645,-90.9090909090909,4,2,1,5,0,0
87728,-90.9090909090909,4,2,1,85,0,0
87811,-90.9090909090909,4,2,1,35,0,0

[Colours]
Combo1 : 192,192,192
Combo2 : 247,153,196
Combo3 : 172,133,245
Combo4 : 170,0,0
Combo5 : 0,128,192
Combo6 : 0,155,0

[HitObjects]
13,168,1062,70,0,P|10:111|32:67,2,105.000004005432,2|0|0,0:0|0:0|0:0,0:0:0:0:
108,232,2061,1,2,0:0:0:0:
198,160,2395,2,0,L|315:142,1,105.000004005432,2|0,0:0|0:0,0:0:0:0:
378,229,3061,2,0,L|274:244,1,105.000004005432,2|0,0:0|0:0,0:0:0:0:
207,338,3728,6,0,P|172:329|92:318,1,105.000004005432,2|0,0:0|0:0,0:0:0:0:
51,294,4228,1,2,0:0:0:0:
74,180,4561,2,0,P|109:171|189:160,1,105.000004005432,2|0,0:0|0:0,0:0:0:0:
233,174,5061,70,0,P|268:183|348:194,2,105.000004005432,2|0|2,0:0|0:0|0:0,0:0:0:0:
452,246,6395,6,0,L|424:121,2,105.000004005432,2|0|0,0:0|0:0|0:0,0:0:0:0:
367,325,7395,1,2,0:0:0:0:
268,264,7728,2,0,L|296:139,1,105.000004005432,2|0,0:0|0:0,0:0:0:0:
208,80,8395,2,0,L|185:182,1,105.000004005432,2|0,0:0|0:0,0:0:0:0:
82,236,9061,70,0,P|99:276|113:346,1,105.000004005432,2|0,0:0|0:0,0:0:0:0:
163,362,9561,2,0,P|173:310|193:262,1,105.000004005432,2|0,0:0|0:0,0:0:0:0:
260,168,10228,2,0,B|332:156|332:156|366:196|366:196|474:182,1,210.000008010865,2|2,0:0|0:0,0:0:0:0:
484,300,11228,1,2,0:0:0:0:
484,300,11395,2,0,P|501:325|505:360,1,52.5000020027161,2|0,0:0|0:0,0:0:0:0:
450,364,11728,6,0,L|334:339,1,105.000004005432,2|0,0:0|0:0,0:0:0:0:
295,315,12228,1,2,0:0:0:0:
232,224,12561,1,2,0:0:0:0:
232,224,12728,2,0,L|348:199,1,105.000004005432,2|0,0:0|0:0,0:0:0:0:
361,150,13228,1,2,0:0:0:0:
264,97,13561,1,2,0:0:0:0:
264,97,13728,2,0,P|229:94|201:80,1,52.5000020027161,2|0,0:0|0:0,0:0:0:0:
158,67,14061,2,0,L|143:128,1,52.5000020027161,2|0,0:0|0:0,0:0:0:0:
110,164,14395,70,0,P|99:218|144:272,1,105.000004005432,2|0,0:0|0:0,0:0:0:0:
215,327,15061,2,0,P|239:281|227:231,1,105.000004005432,2|0,0:0|0:0,0:0:0:0:
221,173,15561,1,2,0:0:0:0:
110,164,15895,2,0,P|102:229|10:251,1,157.500006008148,2|0,0:0|0:0,0:0:0:0:
8,200,16561,2,0,P|-6:150|4:94,1,105.000004005432,2|2,0:0|0:0,0:0:0:0:
58,26,17061,22,0,B|191:11|124:61|251:48,1,188.999994232178,6|8,1:1|0:2,0:0:0:0:
262,135,17728,2,0,P|252:176|258:198,1,62.9999980773926,10|0,0:2|0:0,0:0:0:0:
288,271,18061,1,10,0:3:0:0:
375,132,18395,6,0,P|354:107|454:25,1,188.999994232178,6|4,1:1|0:3,0:0:0:0:
487,77,19061,2,0,L|474:211,1,125.999996154785,10|6,0:3|0:3,0:0:0:0:
494,365,19728,1,2,0:2:0:0:
494,365,20395,69,6,1:1:0:0:
410,343,20561,1,8,0:2:0:0:
410,343,20645,1,8,0:2:0:0:
410,343,20728,2,0,L|367:329,3,33.2499991121292,8|8|8|8,0:2|0:2|0:2|0:0,0:0:0:0:
343,361,21061,22,0,B|246:351|283:377|185:367,2,140,6|8|2,1:1|0:2|1:1,0:0:0:0:
357,270,21895,2,0,P|375:249|363:209,1,70,0|10,1:1|0:2,0:0:0:0:
314,135,22228,6,0,B|270:130|286:106|212:101,1,105,2|0,1:1|0:2,0:0:0:0:
171,94,22561,2,0,L|157:16,1,70,2|8,1:1|0:2,0:0:0:0:
75,63,22895,1,10,0:2:0:0:
75,63,22978,1,8,0:2:0:0:
75,63,23061,2,0,L|62:131,1,70,8|10,0:3|0:2,0:0:0:0:
20,213,23395,1,8,0:2:0:0:
20,213,23478,1,8,0:2:0:0:
20,213,23561,1,8,0:3:0:0:
58,295,23728,69,6,1:1:0:0:
130,239,23895,1,2,0:2:0:0:
162,323,24061,1,10,0:2:0:0:
236,270,24228,2,0,B|291:265|291:265|321:275|321:275|394:269,1,140,6|10,1:1|0:2,0:0:0:0:
359,180,24728,2,0,B|350:144|350:144|363:100,1,70,10|6,0:3|0:3,0:0:0:0:
450,107,25061,5,6,1:1:0:0:
482,192,25228,1,2,0:2:0:0:
458,280,25395,1,10,0:2:0:0:
498,361,25561,2,0,B|439:345|373:376|373:376|296:344,1,210,6|0,1:1|0:2,0:0:0:0:
214,306,26228,37,8,0:3:0:0:
214,306,26311,1,8,0:3:0:0:
214,306,26395,2,0,B|186:377|186:377|136:354,1,125.999996154785,4|10,1:1|0:2,0:0:0:0:
54,217,27061,1,2,0:2:0:0:
54,217,27228,2,0,P|44:183|23:144,1,62.9999980773926,2|8,1:1|0:2,0:0:0:0:
24,76,27561,6,0,B|84:64|68:94|158:69,1,125.999996154785,2|2,0:2|0:2,0:0:0:0:
217,115,28061,2,0,L|195:182,1,62.9999980773926,10|0,0:2|1:0,0:0:0:0:
279,174,28395,2,0,L|298:114,1,62.9999980773926,2|0,0:2|1:1,0:0:0:0:
274,35,28728,1,10,0:2:0:0:
437,28,29061,70,0,B|409:66|409:66|439:140,1,125.999996154785,2|10,1:1|0:2,0:0:0:0:
448,220,29561,1,0,0:2:0:0:
448,220,29728,2,0,B|476:258|476:258|446:332,1,125.999996154785,2|10,0:2|0:2,0:0:0:0:
370,359,30228,6,0,P|315:336|302:110,1,314.999990386963,2|2,0:2|0:2,0:0:0:0:
236,59,31228,1,0,1:1:0:0:
170,108,31395,1,8,0:2:0:0:
170,108,31728,70,0,B|110:107|129:80|28:91,1,125.999996154785,2|10,1:1|0:2,0:0:0:0:
29,252,32395,1,2,0:2:0:0:
29,252,32561,2,0,P|21:286|23:323,1,62.9999980773926,2|8,1:1|0:2,0:0:0:0:
94,352,32895,6,0,B|142:355|142:355|166:364|166:364|235:364,1,125.999996154785,2|2,0:2|0:2,0:0:0:0:
236,283,33395,2,0,B|229:254|229:254|241:221,1,62.9999980773926,10|0,0:2|1:0,0:0:0:0:
174,168,33728,2,0,B|181:139|181:139|169:106,1,62.9999980773926,2|0,0:2|1:1,0:0:0:0:
108,53,34061,1,10,0:2:0:0:
270,27,34395,70,0,B|319:24|341:36|341:36|370:31|392:0,1,125.999996154785,2|10,1:1|0:2,0:0:0:0:
430,77,34895,1,0,0:2:0:0:
430,77,35061,2,0,P|413:128|442:212,1,125.999996154785,2|10,0:2|0:2,0:0:0:0:
437,278,35561,6,0,B|327:277|381:329|230:324,1,188.999994232178,2|8,0:2|0:2,0:0:0:0:
185,283,36228,1,0,1:1:0:0:
119,331,36395,2,0,P|67:329|58:257,1,125.999996154785,2|10,0:2|0:2,0:0:0:0:
90,193,36895,69,8,0:2:0:0:
90,193,36978,1,8,0:2:0:0:
90,193,37061,2,0,B|80:128|80:128|89:67,1,125.999996154785,6|10,1:1|0:2,0:0:0:0:
252,84,37728,2,0,L|225:153,1,62.9999980773926,2|2,0:2|1:1,0:0:0:0:
298,186,38061,2,0,L|320:127,1,62.9999980773926,10|2,0:2|0:2,0:0:0:0:
400,104,38395,6,0,B|437:95|437:95|458:98|458:98|492:91|512:53,1,125.999996154785,2|10,1:1|0:2,0:0:0:0:
438,15,38895,2,0,L|300:-1,1,125.999996154785,2|0,1:1|1:1,0:0:0:0:
231,12,39395,1,8,0:2:0:0:
73,54,39728,70,0,P|59:96|61:131,1,62.9999980773926,2|0,1:1|0:0,0:0:0:0:
12,182,40061,1,10,0:2:0:0:
12,182,40228,1,2,0:2:0:0:
82,223,40395,2,0,L|153:204,1,62.9999980773926,2|2,0:2|1:1,0:0:0:0:
222,186,40728,2,0,L|293:205,1,62.9999980773926,10|2,0:2|0:2,0:0:0:0:
358,170,41061,6,0,B|381:200|383:235|383:235|357:294,1,125.999996154785,2|10,1:1|0:2,0:0:0:0:
325,359,41561,2,0,B|275:351|270:369|188:357,1,125.999996154785,2|0,1:1|1:1,0:0:0:0:
148,294,42061,2,0,B|159:265|159:265|142:227,1,62.9999980773926,8|2,0:2|0:2,0:0:0:0:
147,153,42395,70,0,B|197:146|197:146|221:148|221:148|286:135,1,125.999996154785,6|10,1:1|0:2,0:0:0:0:
303,213,42895,2,0,P|290:250|316:335,1,125.999996154785,2|2,0:2|1:1,0:0:0:0:
391,354,43395,2,0,L|403:284,1,62.9999980773926,10|0,0:2|0:0,0:0:0:0:
457,231,43728,6,0,B|466:191|466:191|438:141|438:141|450:110,1,125.999996154785,2|8,1:1|0:2,0:0:0:0:
463,34,44228,1,0,1:1:0:0:
386,62,44395,2,0,P|356:55|336:25,1,62.9999980773926,2|0,0:2|1:1,0:0:0:0:
284,93,44728,2,0,L|277:166,1,62.9999980773926,10|0,0:2|0:2,0:0:0:0:
240,228,45061,70,0,P|267:266|246:347,1,125.999996154785,6|10,1:1|0:2,0:0:0:0:
181,299,45561,2,0,P|154:261|175:180,1,125.999996154785,2|2,0:2|1:1,0:0:0:0:
141,109,46061,2,0,L|211:102,1,62.9999980773926,10|0,0:2|0:2,0:0:0:0:
180,23,46395,6,0,B|137:21|137:21|92:42|92:42|47:40,1,125.999996154785,6|12,1:1|0:2,0:0:0:0:
40,203,47061,1,14,0:2:0:0:
65,281,47228,1,8,0:3:0:0:
48,361,47395,1,4,0:3:0:0:
202,353,47728,38,0,B|287:342|270:371|388:355,1,178.500003404617,6|0,1:1|1:1,0:0:0:0:
365,279,48395,2,0,P|379:233|343:102,1,178.500003404617,10|2,0:2|1:1,0:0:0:0:
218,27,49228,5,10,0:2:0:0:
218,27,49395,2,0,L|208:93,1,59.5000011348725,2|0,1:1|0:2,0:0:0:0:
246,155,49728,2,0,P|278:123|356:111,1,119.000002269745,10|2,0:2|0:2,0:0:0:0:
464,211,50395,69,2,1:1:0:0:
464,211,50561,2,0,L|448:338,1,119.000002269745,8|0,0:2|1:1,0:0:0:0:
378,361,51061,2,0,B|261:359|332:325|191:321,1,178.500003404617,10|2,0:2|1:1,0:0:0:0:
54,349,51895,5,10,0:2:0:0:
54,349,52061,2,0,L|43:279,1,59.5000011348725,2|0,1:1|0:2,0:0:0:0:
2,224,52395,1,14,0:2:0:0:
154,198,52728,2,0,L|165:128,1,59.5000011348725,10|4,0:3|0:3,0:0:0:0:
209,76,53061,70,0,B|257:75|257:75|282:88|282:88|345:84,1,119.000002269745,6|2,1:1|0:0,0:0:0:0:
384,134,53561,1,0,1:1:0:0:
384,134,53728,2,0,P|379:168|393:205,1,59.5000011348725,10|0,0:2|0:2,0:0:0:0:
462,183,54061,2,0,P|468:154|463:125,1,59.5000011348725,2|0,0:2|1:1,0:0:0:0:
485,50,54395,6,0,L|357:18,1,119.000002269745,2|2,0:2|1:1,0:0:0:0:
292,32,54895,1,2,0:2:0:0:
292,32,55061,2,0,L|164:64,1,119.000002269745,10|2,0:2|0:2,0:0:0:0:
164,215,55728,69,6,1:1:0:0:
164,215,55895,2,0,B|147:251|147:251|167:338,1,119.000002269745,8|0,0:2|1:1,0:0:0:0:
240,311,56395,2,0,L|312:289,1,59.5000011348725,10|0,0:2|0:0,0:0:0:0:
288,216,56728,2,0,L|360:194,1,59.5000011348725,2|0,0:2|1:1,0:0:0:0:
419,176,57061,6,0,P|437:218|425:305,1,119.000002269745,2|2,0:2|1:1,0:0:0:0:
402,361,57561,1,8,0:2:0:0:
402,361,57728,2,0,P|363:360|333:364,1,59.5000011348725,14|8,0:0|0:3,0:0:0:0:
287,308,58061,1,8,0:2:0:0:
287,308,58145,1,8,0:2:0:0:
287,308,58228,1,8,0:3:0:0:
222,365,58395,6,0,P|180:371|129:292,1,132.999996448517,6|10,1:1|0:2,0:0:0:0:
118,220,58895,2,0,P|149:164|212:162,1,132.999996448517,2|0,1:1|1:1,0:0:0:0:
288,204,59395,1,10,0:2:0:0:
365,165,59561,5,10,0:3:0:0:
365,165,59645,1,4,0:3:0:0:
365,165,59728,2,0,B|375:101|375:101|354:28,1,132.999996448517,6|10,1:1|0:2,0:0:0:0:
269,40,60228,2,0,B|210:33|222:15|131:17,1,132.999996448517,2|10,1:1|0:2,0:0:0:0:
53,4,60728,1,10,0:3:0:0:
50,90,60895,70,0,P|36:162|34:237,1,132.999996448517,6|8,1:1|0:2,0:0:0:0:
119,209,61395,2,0,L|203:191,1,66.4999982242585,8|8,0:2|0:2,0:0:0:0:
258,239,61728,2,0,L|342:221,1,66.4999982242585,8|8,0:2|0:2,0:0:0:0:
405,251,62061,2,0,L|489:233,1,66.4999982242585,8|8,0:2|0:2,0:0:0:0:
494,320,62395,5,8,0:2:0:0:
331,377,62728,2,0,P|333:348|317:309,1,66.4999982242585,10|0,0:2|0:2,0:0:0:0:
233,319,63061,2,0,P|220:349|222:382,1,66.4999982242585,10|8,0:2|0:2,0:0:0:0:
142,348,63395,2,0,L|105:337,3,33.2499991121292,10|8|4|4,0:3|0:3|0:3|0:3,0:0:0:0:
87,301,63728,70,0,B|78:255|95:220|95:220|76:168,1,132.999996448517,6|10,1:1|1:2,0:0:0:0:
90,87,64228,1,8,0:2:0:0:
90,87,64311,1,8,0:2:0:0:
90,87,64395,2,0,L|90:10,1,66.4999982242585,10|8,1:2|0:2,0:0:0:0:
175,36,64728,2,0,L|175:102,1,66.4999982242585,10|8,1:2|0:2,0:0:0:0:
244,154,65061,6,0,L|285:154,3,33.2499991121292,10|10|10|10,1:2|0:2|0:2|0:2,0:0:0:0:
317,136,65395,2,0,L|358:136,3,33.2499991121292,10|10|10|10,1:2|0:2|0:2|0:2,0:0:0:0:
392,128,65728,1,2,0:2:0:0:
392,128,66395,6,0,B|310:126|341:93|228:93,1,154.000004699707,6|10,1:1|0:2,0:0:0:0:
155,141,66895,1,0,0:0:0:0:
86,213,67061,2,0,L|90:302,1,77.0000023498536,2|0,1:1|1:1,0:0:0:0:
190,293,67395,2,0,L|193:216,1,77.0000023498536,10|0,0:2|0:0,0:0:0:0:
287,180,67728,6,0,P|299:228|401:266,1,154.000004699707,2|10,1:1|0:2,0:0:0:0:
451,191,68228,1,0,0:2:0:0:
501,277,68395,2,0,L|504:369,1,77.0000023498536,2|0,1:1|1:1,0:0:0:0:
404,367,68728,2,0,P|336:362|276:369,1,115.50000352478,10|0,0:2|0:0,0:0:0:0:
243,345,69061,70,0,B|181:337|199:310|72:304,1,154.000004699707,6|10,1:1|0:2,0:0:0:0:
147,219,69561,2,0,B|152:184|152:184|137:126,1,77.0000023498536,2|0,0:2|1:1,0:0:0:0:
40,140,69895,2,0,B|35:105|35:105|50:47,1,77.0000023498536,2|8,1:1|0:2,0:0:0:0:
129,10,70228,1,2,0:2:0:0:
224,40,70395,6,0,B|280:36|280:36|312:45|312:45|381:38,2,154.000004699707,6|8|0,1:1|0:2|1:1,0:0:0:0:
227,140,71228,1,0,1:1:0:0:
238,239,71395,2,0,P|232:289|275:343,1,115.50000352478,8|0,0:2|0:2,0:0:0:0:
317,331,71728,70,0,B|365:324|365:324|420:340|486:324,1,154.000004699707,6|10,1:1|0:2,0:0:0:0:
475,227,72228,1,0,0:0:0:0:
390,173,72395,2,0,P|382:133|409:96,1,77.0000023498536,2|0,1:1|1:1,0:0:0:0:
326,34,72728,2,0,P|281:33|247:24,1,77.0000023498536,10|0,0:2|0:0,0:0:0:0:
160,70,73061,6,0,B|137:115|170:155|170:155|132:224,1,154.000004699707,2|10,1:1|0:2,0:0:0:0:
40,195,73561,1,0,0:2:0:0:
2,287,73728,2,0,L|19:369,1,77.0000023498536,2|0,1:1|1:1,0:0:0:0:
116,343,74061,2,0,B|163:332|166:354|241:335,1,115.50000352478,10|0,0:2|0:0,0:0:0:0:
273,311,74395,70,0,B|251:260|251:260|303:169,1,154.000004699707,6|10,1:1|0:2,0:0:0:0:
255,84,74895,2,0,L|246:2,1,77.0000023498536,2|0,0:2|1:1,0:0:0:0:
346,19,75228,2,0,L|354:95,1,77.0000023498536,2|8,1:1|0:2,0:0:0:0:
448,131,75561,1,10,0:2:0:0:
490,221,75728,6,0,B|508:269|494:333|494:333|448:353,1,154.000004699707,4|10,1:1|0:2,0:0:0:0:
358,370,76228,1,10,0:2:0:0:
358,370,76311,1,8,0:0:0:0:
358,370,76395,1,0,1:1:0:0:
281,306,76561,1,10,0:2:0:0:
281,306,76645,1,8,0:2:0:0:
281,306,76728,2,0,L|272:251,3,38.5000011749268,10|8|10|4,0:2|0:2|0:3|0:3,0:0:0:0:
249,224,77061,70,0,B|239:180|266:150|266:150|276:111|235:81,1,154.000004699707,6|10,1:1|0:2,0:0:0:0:
146,122,77561,2,0,L|139:205,1,77.0000023498536,2|0,0:2|1:0,0:0:0:0:
99,291,77895,1,2,1:1:0:0:
42,208,78061,6,0,L|20:35,1,154.000004699707,10|2,0:2|1:1,0:0:0:0:
110,5,78561,2,0,P|150:21|205:19,1,77.0000023498536,2|8,0:2|0:2,0:0:0:0:
282,2,78895,1,2,0:2:0:0:
377,30,79061,1,2,1:1:0:0:
313,107,79228,1,2,1:1:0:0:
409,134,79395,1,10,0:2:0:0:
409,134,79561,1,2,0:2:0:0:
353,217,79728,70,0,B|340:300|379:284|351:383,1,154.000004699707,6|8,1:1|0:2,0:0:0:0:
453,352,80228,1,2,0:2:0:0:
493,260,80395,2,0,P|499:220|493:174,1,77.0000023498536,2|0,1:1|1:1,0:0:0:0:
409,134,80728,1,10,0:2:0:0:
317,92,80895,6,0,P|311:52|317:6,1,77.0000023498536,2|0,0:2|1:1,0:0:0:0:
219,47,81228,1,2,1:1:0:0:
127,89,81395,2,0,L|57:48,1,77.0000023498536,8|0,0:2|1:1,0:0:0:0:
31,146,81728,2,0,L|97:184,1,77.0000023498536,12|8,0:2|0:3,0:0:0:0:
195,162,82061,1,10,0:2:0:0:
195,162,82145,1,8,0:2:0:0:
195,162,82228,1,8,0:3:0:0:
207,261,82395,69,6,1:1:0:0:
353,125,82728,5,10,0:2:0:0:
353,125,82895,1,2,1:1:0:0:
440,77,83061,69,10,0:2:0:0:
440,77,83228,1,2,1:1:0:0:
471,172,83395,5,10,0:2:0:0:
471,172,83561,1,2,1:1:0:0:
379,212,83728,70,0,B|375:253|375:253|397:298,1,77.0000023498536,10|0,0:2|0:2,0:0:0:0:
290,276,84061,2,0,B|294:317|294:317|272:362,1,77.0000023498536,10|0,0:2|1:1,0:0:0:0:
196,289,84395,2,0,L|185:207,1,77.0000023498536,10|0,0:2|1:1,0:0:0:0:
86,225,84728,2,0,L|97:143,1,77.0000023498536,10|0,0:2|1:1,0:0:0:0:
66,52,85061,6,0,B|124:40|124:40|154:51|154:51|221:34,1,154.000004699707,6|8,1:1|0:2,0:0:0:0:
313,16,85561,1,10,0:2:0:0:
299,115,85728,1,10,0:2:0:0:
299,115,85895,1,8,0:2:0:0:
390,75,86061,1,8,0:2:0:0:
390,75,86228,1,10,0:2:0:0:
374,174,86395,69,10,0:2:0:0:
374,174,87228,53,0,1:1:0:0:
307,249,87395,2,0,B|303:297|325:332|325:332|362:315,1,115.50000352478,10|0,0:2|0:2,0:0:0:0:
401,325,87728,5,4,1:1:0:0:
256,192,87811,12,0,90061,0:2:0:0:
