osu file format v14

[General]
AudioFilename: audio.mp3
AudioLeadIn: 0
PreviewTime: 65645
Countdown: 0
SampleSet: Soft
StackLeniency: 0.7
Mode: 0
LetterboxInBreaks: 0
WidescreenStoryboard: 0

[Editor]
DistanceSpacing: 1.1
BeatDivisor: 4
GridSize: 16
TimelineZoom: 1

[Metadata]
Title:Watashitachi no STARTRAIL (TV Size)
TitleUnicode:私たちのSTARTRAIL (TV Size)
Artist:Lapis Re:LiGHTs Stars
ArtistUnicode:ラピスリライツ・スターズ
Creator:Adinda
Version:Expert
Source:Lapis Re:LiGHTs
Tags:nevertary our star trail relights japanese pop jpop j-pop anime idols 安齋 由香里 Yukari Anzai Tiara 久保田 梨沙 Risa Lisa Kubota Rosetta Lavie Ribu Mukai 向井莉生 佐伯 伊織 Saeki Iori Ashley 山本 美月 Yamamoto Mizuki Lynette 星乃 葉月 篠原 侑 中山 瑶子 本泉 莉奈 鈴木 亜理沙 大野 柚布子 早瀬 雪未 広瀬 世華 赤尾 ひかる 雨宮 夕夏 松田 利冴 桜木 夕 奥 紗瑛子 伊藤 はるか 花澤 香菜 南條 愛 上坂 すみれ 佐倉 綾音 Hoshino Hazuki Mineuchi Tomomi Sasahara Yuu Nakayama Youko Rina Honnizumi Suzuki Arisa Oono Yuuko Hayase Yukimi Hirose Seika Akao Hikaru Amemiya Yuka Matsuda Risae Sakuragi Yuu Oku Saeko Itou Haruka Hanazawa Kana Nanjo Yoshino Uesaka Sumire Sakura Ayane
BeatmapID:2682875
BeatmapSetID:1292788

[Difficulty]
HPDrainRate:5.5
CircleSize:4
OverallDifficulty:8.5
ApproachRate:9.2
SliderMultiplier:2
SliderTickRate:1

[Events]
//Background and Video events
0,0,"a.jpg",0,0
//Break Periods
//Storyboard Layer 0 (Background)
//Storyboard Layer 1 (Fail)
//Storyboard Layer 2 (Pass)
//Storyboard Layer 3 (Foreground)
//Storyboard Layer 4 (Overlay)
//Storyboard Sound Samples

[TimingPoints]
1062,333.333333333333,4,2,1,40,1,0
1062,-200,4,2,1,40,0,0
11728,-200,4,2,1,50,0,0
17061,-181.818181818181,4,2,1,70,0,0
19728,-181.818181818181,4,2,1,50,0,0
20395,-181.818181818181,4,2,1,75,0,0
21061,-83.3333333333333,4,2,1,85,0,0
21311,-83.3333333333333,4,2,1,5,0,0
21395,-83.3333333333333,4,2,1,85,0,0
22478,-83.3333333333333,4,2,1,5,0,0
22562,-83.3333333333333,4,2,1,85,0,0
24478,-83.3333333333333,4,2,1,5,0,0
24562,-83.3333333333333,4,2,1,85,0,0
25561,-133.333333333333,4,2,1,80,0,0
26395,-117.647058823529,4,2,1,70,0,0
26645,-117.647058823529,4,2,1,5,0,0
26728,-117.647058823529,4,2,1,70,0,0
28311,-117.647058823529,4,2,1,5,0,0
28394,-117.647058823529,4,2,1,70,0,0
28978,-117.647058823529,4,2,1,5,0,0
29061,-117.647058823529,4,2,1,70,0,0
31978,-117.647058823529,4,2,1,5,0,0
32061,-117.647058823529,4,2,1,70,0,0
33645,-117.647058823529,4,2,1,5,0,0
33728,-117.647058823529,4,2,1,70,0,0
34311,-117.647058823529,4,2,1,5,0,0
34394,-117.647058823529,4,2,1,70,0,0
46645,-117.647058823529,4,2,1,5,0,0
46728,-117.647058823529,4,2,1,70,0,0
47728,-142.857142857143,4,2,1,60,0,0
52395,-117.647058823529,4,2,1,60,0,0
52645,-117.647058823529,4,2,1,5,0,0
52728,-117.647058823529,4,2,1,60,0,0
53061,-142.857142857143,4,2,1,60,0,0
58395,-100,4,2,1,75,0,0
58645,-100,4,2,1,5,0,0
58728,-100,4,2,1,75,0,0
59978,-100,4,2,1,5,0,0
60061,-100,4,2,1,75,0,0
65061,-100,4,2,1,80,0,0
65395,-100,4,2,1,85,0,0
65728,-181.818181818181,4,2,1,60,0,0
66395,-66.6666666666667,4,2,1,90,0,1
66978,-66.6666666666667,4,2,1,5,0,1
67061,-66.6666666666667,4,2,1,90,0,1
67645,-66.6666666666667,4,2,1,5,0,1
67728,-66.6666666666667,4,2,1,90,0,1
70228,-55.5555555555556,4,2,1,90,0,1
71395,-100,4,2,1,90,0,1
71645,-100,4,2,1,5,0,1
71728,-66.6666666666667,4,2,1,90,0,1
72311,-66.6666666666667,4,2,1,5,0,1
72394,-66.6666666666667,4,2,1,90,0,1
72978,-66.6666666666667,4,2,1,5,0,1
73061,-66.6666666666667,4,2,1,90,0,1
77311,-66.6666666666667,4,2,1,5,0,1
77394,-66.6666666666667,4,2,1,90,0,1
77811,-66.6666666666667,4,2,1,5,0,1
77894,-66.6666666666667,4,2,1,90,0,1
82645,-66.6666666666667,4,2,1,5,0,1
82728,-66.6666666666667,4,2,1,90,0,1
85311,-66.6666666666667,4,2,1,5,0,1
85394,-66.6666666666667,4,2,1,90,0,1
86395,-76.9230769230769,4,2,1,85,0,0
87645,-76.9230769230769,4,2,1,5,0,0
87728,-76.9230769230769,4,2,1,85,0,0
87811,-76.9230769230769,4,2,1,35,0,0

[Colours]
Combo1 : 192,192,192
Combo2 : 247,153,196
Combo3 : 172,133,245
Combo4 : 170,0,0
Combo5 : 0,128,192
Combo6 : 0,155,0

[HitObjects]
100,0,1062,70,0,P|31:15|6:46,1,100,2|0,0:0|0:0,0:0:0:0:
53,218,1728,2,0,P|14:277|19:316,1,100,2|0,0:0|0:0,0:0:0:0:
160,78,2395,6,0,P|229:93|254:124,1,100,2|0,0:0|0:0,0:0:0:0:
221,295,3061,2,0,P|259:354|254:393,1,100,2|0,0:0|0:0,0:0:0:0:
443,249,3728,70,0,P|437:208|440:148,1,100,2|0,0:0|0:0,0:0:0:0:
423,268,4228,2,0,P|417:227|420:167,1,100,2|0,0:0|0:0,0:0:0:0:
164,15,4895,5,2,0:0:0:0:
164,15,4978,1,2,0:0:0:0:
164,15,5061,2,0,B|202:13|202:13|214:24|214:24|273:20,1,100,2|0,0:0|0:0,0:0:0:0:
214,223,5728,2,0,P|215:269|117:275,1,150,2|0,0:0|0:0,0:0:0:0:
58,322,6395,70,0,P|52:356|106:380,1,100,2|0,0:0|0:0,0:0:0:0:
259,281,7061,2,0,P|265:247|211:223,1,100,2|0,0:0|0:0,0:0:0:0:
512,121,7728,6,0,P|518:155|464:179,1,100,2|0,0:0|0:0,0:0:0:0:
311,80,8394,2,0,P|305:46|359:22,1,100,2|0,0:0|0:0,0:0:0:0:
125,129,9061,70,0,L|23:100,1,100,2|0,0:0|0:0,0:0:0:0:
152,124,9561,2,0,L|50:95,1,100,2|0,0:0|0:0,0:0:0:0:
33,358,10228,6,0,B|147:357|73:289|240:300,1,200,2|2,0:0|0:0,0:0:0:0:
382,121,11228,1,2,0:0:0:0:
382,121,11395,2,0,L|362:169,1,50,2|0,0:0|0:0,0:0:0:0:
406,261,11728,70,0,P|444:288|459:357,1,100,2|0,0:0|0:0,0:0:0:0:
420,243,12228,2,0,P|459:272|475:318,1,100,2|0,0:0|0:0,0:0:0:0:
349,349,12728,6,0,P|292:343|246:349,1,100,2|0,0:0|0:0,0:0:0:0:
362,331,13228,2,0,P|305:325|259:331,1,100,2|0,0:0|0:0,0:0:0:0:
170,277,13728,2,0,L|189:230,1,50,2|0,0:0|0:0,0:0:0:0:
83,256,14061,2,0,L|63:302,1,50,2|0,0:0|0:0,0:0:0:0:
117,162,14395,70,0,P|86:128|139:43,1,150,2|0,0:0|0:0,0:0:0:0:
215,82,15061,2,0,P|272:76|318:82,1,100,2|0,0:0|0:0,0:0:0:0:
404,55,15561,6,0,L|423:8,1,50,2|0,0:0|0:0,0:0:0:0:
314,81,15895,2,0,L|272:188,1,100,2|0,0:0|0:0,0:0:0:0:
281,276,16395,2,0,B|301:288|325:286|325:286|297:339|238:330,1,150,2|2,0:0|0:0,0:0:0:0:
4,364,17061,6,0,B|45:349|77:369|77:369|135:365|136:310,1,165.000005035401,6|8,1:1|0:2,0:0:0:0:
38,161,17728,2,0,P|31:132|42:98,1,55.0000016784668,10|0,0:2|0:0,0:0:0:0:
199,205,18061,2,0,P|204:231|197:258,1,55.0000016784668,10|0,0:3|0:0,0:0:0:0:
345,316,18395,6,0,B|244:306|305:259|187:258,1,165.000005035401,6|4,1:1|0:3,0:0:0:0:
305,191,19061,1,10,0:3:0:0:
285,384,19395,1,6,0:3:0:0:
197,258,19728,1,2,0:2:0:0:
214,82,20395,69,6,1:1:0:0:
136,10,20561,5,8,0:2:0:0:
136,10,20645,1,8,0:2:0:0:
136,10,20728,1,8,0:2:0:0:
136,10,20811,1,8,0:2:0:0:
136,10,20895,2,0,L|99:-4,1,27.5000008392334,8|8,0:2|0:0,0:0:0:0:
37,108,21061,6,0,B|108:96|108:96|124:97|124:97|216:82,1,179.999994506836,6|0,1:1|0:2,0:0:0:0:
232,96,21395,2,0,P|221:144|260:204,1,119.999996337891,8|0,0:2|0:2,0:0:0:0:
232,96,21728,5,2,1:1:0:0:
145,227,21895,1,0,1:1:0:0:
217,4,22061,1,10,0:2:0:0:
419,148,22228,70,0,B|356:135|368:63|368:63|435:7,1,179.999994506836,2|0,1:1|0:2,0:0:0:0:
436,60,22561,2,0,L|492:198,1,119.999996337891,2|8,1:1|0:2,0:0:0:0:
478,358,22895,1,10,0:2:0:0:
478,358,22978,1,8,0:2:0:0:
478,358,23061,1,8,0:3:0:0:
347,271,23228,5,10,0:2:0:0:
353,300,23311,1,8,0:2:0:0:
351,330,23394,1,8,0:2:0:0:
342,358,23477,1,8,0:2:0:0:
326,383,23561,1,8,0:3:0:0:
198,168,23728,69,6,1:1:0:0:
99,300,23895,1,2,0:2:0:0:
275,138,24061,1,10,0:2:0:0:
121,16,24228,6,0,B|110:68|110:68|41:99|32:180,1,179.999994506836,6|0,1:1|0:0,0:0:0:0:
35,216,24561,69,10,0:2:0:0:
121,16,24728,1,10,0:3:0:0:
275,138,24895,1,6,0:3:0:0:
336,30,25061,5,6,1:1:0:0:
250,230,25228,1,2,0:2:0:0:
233,8,25395,1,10,0:2:0:0:
373,271,25561,70,0,B|357:225|357:225|390:127|390:127|427:205,1,225.000008583069,6|0,1:1|0:2,0:0:0:0:
198,168,26228,53,8,0:3:0:0:
198,168,26311,1,8,0:3:0:0:
198,168,26395,2,0,B|168:192|168:192|150:155|150:155|104:129,1,127.50000243187,4|0,1:1|0:0,0:0:0:0:
85,161,26728,2,0,P|65:196|105:199,1,85.0000016212464,10|0,0:2|0:2,0:0:0:0:
97,205,27061,1,2,0:2:0:0:
37,362,27228,2,0,L|129:337,1,85.0000016212464,2|8,1:1|0:2,0:0:0:0:
332,321,27561,6,0,B|263:300|263:300|248:301|248:301|154:271,1,170.000003242493,2|2,0:2|0:2,0:0:0:0:
393,224,28061,2,0,B|345:217|345:217|392:149,1,127.50000243187,10|0,0:2|0:0,0:0:0:0:
395,126,28395,2,0,B|432:123|432:123|445:128|445:128|485:124,1,85.0000016212464,2|0,0:2|1:1,0:0:0:0:
319,13,28728,2,0,P|319:71|254:78,1,127.50000243187,10|0,0:2|0:0,0:0:0:0:
213,78,29061,70,0,B|170:71|143:103|143:103|106:3,1,170.000003242493,2|10,1:1|0:2,0:0:0:0:
111,16,29561,1,0,0:2:0:0:
9,78,29728,2,0,B|52:71|79:103|79:103|116:3,1,170.000003242493,2|10,0:2|0:2,0:0:0:0:
14,203,30228,6,0,B|144:220|144:220|246:322|246:322|418:342,1,425.000008106232,2|2,0:2|0:2,0:0:0:0:
452,242,31228,1,0,1:1:0:0:
496,374,31395,1,8,0:2:0:0:
300,145,31728,70,0,B|217:145|256:113|177:116,1,127.50000243187,2|0,1:1|0:0,0:0:0:0:
156,127,32061,2,0,P|131:117|163:89,1,85.0000016212464,10|0,0:2|0:2,0:0:0:0:
160,87,32395,1,2,0:2:0:0:
159,291,32561,2,0,L|195:208,1,85.0000016212464,2|8,1:1|0:2,0:0:0:0:
274,347,32895,6,0,B|232:338|198:362|198:362|146:339|159:289,1,170.000003242493,2|2,0:2|0:2,0:0:0:0:
35,165,33395,2,0,B|17:201|17:201|41:244|41:244|65:207,1,127.50000243187,10|0,0:2|0:0,0:0:0:0:
90,195,33728,2,0,B|54:193|54:193|38:196|38:196|-1:193,1,85.0000016212464,2|0,0:2|1:1,0:0:0:0:
130,9,34061,2,0,B|119:57|119:57|195:80,1,127.50000243187,10|0,0:2|0:0,0:0:0:0:
228,92,34395,70,0,B|351:108|257:48|412:63,1,170.000003242493,2|10,1:1|0:2,0:0:0:0:
388,61,34895,1,0,0:2:0:0:
255,167,35061,2,0,L|398:53,1,170.000003242493,2|10,0:2|0:2,0:0:0:0:
468,231,35561,6,0,P|475:299|316:291,1,255.000004863739,2|8,0:2|0:2,0:0:0:0:
327,318,36228,1,0,1:1:0:0:
254,167,36395,2,0,L|223:246,1,85.0000016212464,2|0,0:2|1:1,0:0:0:0:
112,175,36728,2,0,L|81:96,1,85.0000016212464,10|8,0:2|0:2,0:0:0:0:
14,151,36978,1,8,0:2:0:0:
17,166,37061,70,0,B|4:211|31:240|31:240|43:298|-4:330,2,170.000003242493,6|10|2,1:1|0:2|0:2,0:0:0:0:
112,175,37895,1,2,1:1:0:0:
17,166,38061,1,10,0:2:0:0:
135,261,38228,1,2,0:2:0:0:
254,167,38395,6,0,B|242:132|242:132|265:98|265:98|272:100|272:100|303:59|303:59|288:23,1,170.000003242493,2|10,1:1|0:2,0:0:0:0:
325,227,38895,2,0,B|390:240|390:240|405:250|405:250|501:273,1,170.000003242493,2|0,1:1|1:1,1:1:0:0:
397,151,39395,2,0,P|415:138|396:83,1,85.0000016212464,8|0,0:2|0:0,0:0:0:0:
258,101,39728,70,0,P|240:114|259:169,1,85.0000016212464,2|0,1:1|0:0,0:0:0:0:
325,227,40061,1,10,0:2:0:0:
253,166,40228,1,2,0:2:0:0:
172,339,40395,5,2,0:2:0:0:
188,238,40561,1,2,1:1:0:0:
266,313,40728,1,10,0:2:0:0:
95,263,40895,1,2,0:2:0:0:
103,128,41061,70,0,B|107:88|107:88|80:33|80:33|23:78,1,170.000003242493,2|10,1:1|0:2,0:0:0:0:
95,263,41561,2,0,B|133:280|133:280|274:266,1,170.000003242493,2|0,1:1|1:1,1:1:0:0:
269,185,42061,1,8,0:2:0:0:
365,360,42228,5,2,0:2:0:0:
356,133,42395,2,0,B|376:82|338:30|338:30|305:52|313:86,1,170.000003242493,6|10,1:1|0:2,0:0:0:0:
437,258,42895,2,0,B|480:251|502:210|502:210|480:168|430:167,1,170.000003242493,2|2,0:2|1:1,0:0:0:0:
365,360,43395,2,0,B|404:357|404:357|417:362|417:362|451:358,1,85.0000016212464,10|0,0:2|0:0,0:0:0:0:
259,319,43728,70,0,B|211:312|180:335|180:335|124:325|133:273,1,170.000003242493,2|8,1:1|0:2,0:0:0:0:
132,274,44228,1,0,1:1:0:0:
174,130,44395,2,0,L|201:218,1,85.0000016212464,2|0,0:2|1:1,0:0:0:0:
54,92,44728,2,0,L|27:180,1,85.0000016212464,10|0,0:2|0:2,0:0:0:0:
148,10,45061,6,0,B|214:6|214:6|239:17|239:17|320:9,1,170.000003242493,6|10,1:1|0:2,0:0:0:0:
174,130,45561,2,0,B|171:176|171:176|213:227|213:227|230:153,1,170.000003242493,2|2,0:2|1:1,0:0:0:0:
297,284,46061,2,0,P|283:333|314:365,1,85.0000016212464,10|0,0:2|0:2,0:0:0:0:
489,230,46395,70,0,B|413:208|468:184|380:167,1,127.50000243187,6|0,1:1|0:0,0:0:0:0:
403,92,46728,2,0,L|490:71,1,85.0000016212464,12|0,0:2|0:2,0:0:0:0:
239,2,47061,5,14,0:2:0:0:
195,161,47228,1,8,0:3:0:0:
67,76,47395,1,4,0:3:0:0:
21,236,47728,38,0,B|86:207|152:254|152:254|102:320,1,209.999993591309,6|0,1:1|1:1,0:0:0:0:
193,375,48395,2,0,B|246:350|246:350|294:371|294:371|399:367,1,209.999993591309,10|2,0:2|1:1,0:0:0:0:
398,97,49228,5,10,0:2:0:0:
377,147,49395,2,0,P|404:129|397:96,1,69.9999978637696,2|0,1:1|0:2,0:0:0:0:
421,222,49728,70,0,L|501:195,1,69.9999978637696,10|0,0:2|0:2,0:0:0:0:
331,74,50061,2,0,L|411:101,1,69.9999978637696,2|0,0:2|0:3,0:0:0:0:
186,101,50395,5,2,1:1:0:0:
244,153,50561,2,0,B|150:144|225:115|88:113,1,139.999995727539,8|2,0:2|1:1,0:0:0:0:
48,6,51061,2,0,B|25:79|75:153|75:153|120:105,1,209.999993591309,10|2,0:2|1:1,0:0:0:0:
72,366,51895,69,10,0:2:0:0:
57,297,52061,2,0,L|73:374,1,69.9999978637696,2|0,1:1|0:2,0:0:0:0:
254,301,52395,6,0,B|210:308|181:277|181:277|179:302|195:326,1,127.50000243187,14|0,0:2|0:2,0:0:0:0:
180,346,52728,69,10,0:3:0:0:
266,193,52895,1,4,0:3:0:0:
387,358,53061,6,0,B|387:300|387:300|430:240|430:240|450:329,1,209.999993591309,6|0,1:1|1:1,0:0:0:0:
266,193,53728,2,0,L|251:125,1,69.9999978637696,10|0,0:2|0:2,0:0:0:0:
174,117,54061,2,0,L|189:49,1,69.9999978637696,2|0,0:2|1:1,0:0:0:0:
383,81,54395,70,0,B|302:119|334:83|242:128,1,139.999995727539,2|2,0:2|1:1,0:0:0:0:
22,197,54895,1,2,0:2:0:0:
77,259,55061,2,0,P|117:238|117:208,1,69.9999978637696,10|0,0:2|0:2,0:0:0:0:
159,330,55395,2,0,P|169:362|201:372,1,69.9999978637696,2|0,0:2|0:2,0:0:0:0:
382,257,55728,5,6,1:1:0:0:
345,334,55895,2,0,P|339:292|345:189,1,139.999995727539,8|0,0:2|1:1,0:0:0:0:
417,142,56395,2,0,L|481:186,1,69.9999978637696,10|0,0:2|0:0,0:0:0:0:
432,39,56728,2,0,L|496:83,1,69.9999978637696,2|0,0:2|1:1,0:0:0:0:
306,66,57061,70,0,B|266:45|234:56|234:56|283:-2,1,139.999995727539,2|2,0:2|1:1,0:0:0:0:
276,6,57561,1,8,0:2:0:0:
115,106,57728,5,14,0:0:0:0:
208,160,57895,1,8,0:3:0:0:
194,323,58061,69,8,0:2:0:0:
194,323,58145,1,8,0:2:0:0:
194,323,58228,2,0,L|180:290,1,34.9999989318848,8|8,0:3|0:3,0:0:0:0:
101,289,58395,22,0,B|145:271|145:271|183:295|183:295|256:291,1,150,6|0,1:1|0:0,0:0:0:0:
286,308,58728,1,10,0:2:0:0:
461,274,58895,2,0,B|421:286|421:286|375:263|375:263|306:256|279:320,1,200,2|0,1:1|1:1,1:1:0:0:
464,169,59395,1,10,0:2:0:0:
354,115,59561,5,10,0:3:0:0:
354,115,59645,1,4,0:3:0:0:
354,115,59728,2,0,B|333:69|333:69|363:3|363:3|390:37,1,150,6|0,1:1|0:0,0:0:0:0:
407,52,60061,1,10,0:2:0:0:
311,22,60228,2,0,L|416:54,1,100,2|0,1:1|0:2,0:0:0:0:
61,116,60561,1,10,0:2:0:0:
156,86,60728,69,10,0:3:0:0:
156,86,60811,1,8,0:3:0:0:
156,86,60895,2,0,L|51:118,1,100,6|0,1:1|0:0,0:0:0:0:
71,21,61228,5,8,0:2:0:0:
209,165,61395,1,8,0:2:0:0:
82,273,61561,1,8,0:2:0:0:
82,273,61645,1,8,0:2:0:0:
82,273,61728,1,8,0:2:0:0:
209,165,61895,69,8,0:2:0:0:
327,276,62061,1,8,0:2:0:0:
311,22,62228,1,8,0:2:0:0:
453,147,62395,6,0,B|415:144|415:144|396:149|396:149|350:147,1,100,8|0,0:2|0:2,0:0:0:0:
327,276,62728,2,0,P|321:336|291:372,1,100,10|0,0:2|0:2,0:0:0:0:
58,368,63061,69,10,0:2:0:0:
64,343,63144,1,8,0:2:0:0:
71,319,63227,1,8,0:2:0:0:
78,295,63311,1,8,0:2:0:0:
82,273,63395,5,10,0:3:0:0:
42,243,63478,1,8,0:3:0:0:
27,197,63561,1,4,0:3:0:0:
43,150,63645,1,4,0:3:0:0:
83,122,63728,70,0,B|133:157|133:157|122:111,1,100,6|8,1:1|0:2,0:0:0:0:
226,0,64061,5,10,1:2:0:0:
230,24,64144,1,8,0:2:0:0:
235,49,64227,1,8,0:2:0:0:
240,73,64311,1,8,0:2:0:0:
268,110,64395,69,10,1:2:0:0:
263,134,64478,1,8,0:2:0:0:
258,159,64561,1,8,0:2:0:0:
253,183,64645,1,8,0:2:0:0:
230,218,64728,5,10,1:2:0:0:
234,242,64811,1,8,0:2:0:0:
239,267,64894,1,8,0:2:0:0:
244,291,64978,1,8,0:2:0:0:
275,328,65061,69,10,1:2:0:0:
262,271,65144,1,10,0:2:0:0:
295,222,65227,1,10,0:2:0:0:
352,213,65311,1,10,0:2:0:0:
399,250,65395,5,10,1:2:0:0:
470,261,65478,1,10,0:2:0:0:
512,208,65561,1,10,0:2:0:0:
500,138,65645,1,10,0:2:0:0:
432,115,65728,70,0,B|368:97|408:86|334:68,1,110.000003356934,2|2,0:2|0:0,0:0:0:0:
335,68,66395,22,0,L|308:221,1,150.000005722046,6|0,1:1|0:0,0:0:0:0:
312,1,66728,2,0,B|296:45|296:45|328:168|328:168|306:222,1,225.000008583069,10|0,0:2|0:0,0:0:0:0:
230,289,67061,2,0,P|165:262|81:281,1,150.000005722046,2|0,1:1|1:1,1:1:0:0:
294,298,67395,2,0,B|239:318|239:318|183:244|74:282,1,225.000008583069,10|0,0:2|0:0,0:0:0:0:
53,180,67728,6,0,B|54:139|28:107|28:107|30:59|74:53,1,150.000005722046,2|0,1:1|0:2,0:0:0:0:
169,7,68061,2,0,B|168:48|194:80|194:80|192:128|148:134,1,150.000005722046,10|0,0:2|0:2,0:0:0:0:
459,180,68395,70,0,B|458:139|484:107|484:107|482:59|438:53,1,150.000005722046,2|0,1:1|1:1,1:1:0:0:
343,7,68728,2,0,B|344:48|318:80|318:80|320:128|364:134,1,150.000005722046,10|0,0:2|0:2,0:0:0:0:
225,356,69061,6,0,B|407:300|407:300|467:318|460:383,1,300.000011444092,6|10,1:1|0:2,0:0:0:0:
324,312,69561,2,0,L|468:382,1,150.000005722046,2|0,0:2|1:1,0:0:0:0:
275,170,69895,2,0,L|327:321,1,150.000005722046,2|8,1:1|0:2,0:0:0:0:
145,27,70228,69,2,0:2:0:0:
145,27,70311,1,2,0:2:0:0:
145,27,70395,2,0,B|94:47|87:86|87:86|141:146|123:214|123:214|59:257|42:330,2,359.999989013672,6|8|0,1:1|0:2|1:1,0:0:0:0:
145,27,71228,1,0,1:1:0:0:
275,170,71395,6,0,B|334:167|334:167|361:180|361:180|437:173,1,150,8|0,0:2|0:2,0:0:0:0:
438,97,71728,70,0,L|287:64,1,150.000005722046,6|0,1:1|0:2,0:0:0:0:
476,0,72061,2,0,B|480:47|433:64|433:64|287:66,1,225.000008583069,10|0,0:2|0:2,0:0:0:0:
202,117,72395,2,0,P|156:152|203:227,1,150.000005722046,2|0,1:1|1:1,1:1:0:0:
145,27,72728,2,0,B|140:85|185:106|185:106|235:152|190:223,1,225.000008583069,10|0,0:2|0:0,0:0:0:0:
112,211,73061,6,0,B|74:191|38:205|38:205|41:161|89:149,1,150.000005722046,2|0,1:1|0:2,0:0:0:0:
108,301,73395,2,0,B|70:321|34:307|34:307|37:351|85:363,1,150.000005722046,10|0,0:2|0:2,0:0:0:0:
400,211,73728,70,0,B|438:191|474:205|474:205|471:161|423:149,1,150.000005722046,2|0,1:1|1:1,1:1:0:0:
404,301,74062,2,0,B|442:321|478:307|478:307|475:351|427:363,1,150.000005722046,10|0,0:2|0:0,0:0:0:0:
317,220,74395,6,0,B|276:245|260:285|260:285|145:217|237:91,1,300.000011444092,6|10,1:1|0:2,0:0:0:0:
263,4,74895,2,0,P|281:80|210:99,1,150.000005722046,2|0,0:2|1:1,0:0:0:0:
369,3,75228,2,0,P|346:77|275:58,1,150.000005722046,2|8,1:1|0:2,0:0:0:0:
90,338,75561,69,10,0:2:0:0:
90,338,75645,1,8,0:2:0:0:
90,338,75728,2,0,B|124:156|-42:296|1:81,1,300.000011444092,4|10,1:1|0:2,0:0:0:0:
81,17,76228,1,10,0:2:0:0:
81,17,76311,1,8,0:0:0:0:
81,17,76395,1,0,1:1:0:0:
150,160,76561,6,0,L|228:128,1,75.0000028610231,10|8,0:2|0:2,0:0:0:0:
236,213,76728,2,0,L|314:181,1,75.0000028610231,10|8,0:2|0:2,0:0:0:0:
321,266,76895,2,0,L|399:234,1,75.0000028610231,10|4,0:3|0:3,0:0:0:0:
512,321,77061,70,0,B|474:316|443:344|443:344|491:192,1,225.000008583069,6|0,1:1|0:2,0:0:0:0:
497,180,77395,1,10,0:2:0:0:
408,6,77561,2,0,B|421:79|421:79|268:29,1,225.000008583069,2|0,0:2|0:0,0:0:0:0:
257,36,77895,5,2,1:1:0:0:
233,145,78061,2,0,P|203:101|264:35,1,150.000005722046,10|0,0:2|0:2,0:0:0:0:
26,201,78395,69,2,1:1:0:0:
66,345,78561,2,0,L|21:186,1,150.000005722046,2|8,0:2|0:2,0:0:0:0:
401,224,78895,5,2,0:2:0:0:
233,145,79061,1,2,1:1:0:0:
391,249,79228,1,2,1:1:0:0:
223,170,79394,1,10,0:2:0:0:
292,341,79561,1,2,0:2:0:0:
343,81,79728,70,0,B|418:25|418:25|479:235,1,300.000011444092,6|8,1:1|0:2,0:0:0:0:
292,341,80228,1,2,0:2:0:0:
292,341,80311,1,2,0:0:0:0:
292,341,80395,2,0,B|240:338|240:338|206:353|206:353|145:351,1,150.000005722046,2|0,1:1|1:1,1:0:0:0:
83,121,80728,5,10,0:2:0:0:
28,180,80895,2,0,P|20:229|108:249,1,150.000005722046,2|0,0:2|1:1,0:0:0:0:
343,81,81228,69,2,1:1:0:0:
224,170,81395,2,0,L|189:12,1,150.000005722046,8|0,0:2|1:1,0:0:0:0:
310,227,81728,2,0,L|345:69,1,150.000005722046,12|8,0:2|0:3,0:0:0:0:
28,180,82061,5,10,0:2:0:0:
6,226,82144,1,8,0:2:0:0:
18,276,82227,1,8,0:3:0:0:
60,306,82310,1,4,0:3:0:0:
111,305,82395,70,0,B|180:306|180:306|249:340|249:340|337:338,1,225.000008583069,6|0,1:1|0:2,0:0:0:0:
368,355,82728,5,10,0:2:0:0:
445,153,82895,1,2,1:1:0:0:
488,279,83061,69,10,0:2:0:0:
411,77,83228,1,2,1:1:0:0:
369,209,83395,5,10,0:2:0:0:
446,7,83562,1,2,1:1:0:0:
359,220,83728,70,0,B|287:251|287:251|240:195,1,150.000005722046,10|0,0:2|0:2,0:0:0:0:
213,37,84061,2,0,B|141:68|141:68|94:12,1,150.000005722046,10|0,0:2|1:1,0:0:0:0:
23,212,84395,6,0,L|8:52,1,150.000005722046,10|0,0:2|1:1,0:0:0:0:
359,220,84728,2,0,L|344:369,1,150.000005722046,10|0,0:2|1:1,0:0:0:0:
323,53,85061,70,0,B|337:62|366:65|366:65|393:101|389:130|389:130|444:183|478:124,1,225.000008583069,6|0,1:1|0:2,0:0:0:0:
475,76,85395,5,8,0:2:0:0:
359,220,85561,1,10,0:2:0:0:
298,291,85728,69,10,0:2:0:0:
119,149,85894,1,8,0:2:0:0:
177,75,86061,5,8,0:2:0:0:
0,290,86227,1,10,0:2:0:0:
235,186,86395,1,10,0:2:0:0:
235,186,87228,37,0,1:1:0:0:
151,268,87395,2,0,P|140:335|253:330,1,194.999991073609,10|0,0:2|0:2,0:0:0:0:
298,291,87728,5,4,1:1:0:0:
256,192,87811,12,0,90061,0:2:0:0:
