osu file format v14

[General]
AudioFilename: audio.mp3
AudioLeadIn: 0
PreviewTime: 65660
Countdown: 0
SampleSet: Soft
StackLeniency: 0.7
Mode: 0
LetterboxInBreaks: 0
WidescreenStoryboard: 1

[Editor]
Bookmarks: 17715,21048,26382,47715,90048
DistanceSpacing: 0.5
BeatDivisor: 4
GridSize: 4
TimelineZoom: 1.9

[Metadata]
Title:Watashitachi no STARTRAIL (TV Size)
TitleUnicode:私たちのSTARTRAIL (TV Size)
Artist:Lapis Re:LiGHTs Stars
ArtistUnicode:ラピスリライツ・スターズ
Creator:Nao Tomori
Version:Normal
Source:Lapis Re:LiGHTs
Tags:our star trail relights japanese anime elayue lasse idols mobile game 安齋 由香里 Yukari Anzai Tiara 久保田 梨沙 Risa Lisa Kubota Rosetta Lavie Ribu Mukai 向井莉生 佐伯 伊織 Saeki Iori Ashley 山本 美月 Yamamoto Mizuki Lynette
BeatmapID:2542140
BeatmapSetID:1222166

[Difficulty]
HPDrainRate:2.5
CircleSize:3
OverallDifficulty:4
ApproachRate:5.5
SliderMultiplier:1.05
SliderTickRate:1

[Events]
//Background and Video events
0,0,"relights upscaled.jpg",0,0
Video,416,"relights_op.mp4"
//Break Periods
//Storyboard Layer 0 (Background)
//Storyboard Layer 1 (Fail)
//Storyboard Layer 2 (Pass)
//Storyboard Layer 3 (Foreground)
//Storyboard Layer 4 (Overlay)
//Storyboard Sound Samples

[TimingPoints]
1062,333.333333333333,4,2,1,52,1,0
1062,-200,4,2,1,52,0,0
17061,-133.333333333333,4,2,1,62,0,0
18395,-114.285714285714,4,2,1,62,0,0
19061,-133.333333333333,4,2,1,62,0,0
20395,-100,4,2,1,67,0,0
25561,-153.846153846154,4,2,1,67,0,0
26395,-111.111111111111,4,2,1,67,0,0
45061,-100,4,2,1,67,0,0
47395,-86.9565217391304,4,2,1,72,0,0
47728,-133.333333333333,4,2,1,52,0,0
58395,-111.111111111111,4,2,1,67,0,0
63728,-100,4,2,1,72,0,0
66395,-90.9090909090909,4,2,1,77,0,1
79728,-90.9090909090909,4,2,1,77,0,1
80395,-90.9090909090909,4,2,1,77,0,1
83728,-90.9090909090909,4,2,1,77,0,1
87395,-100,4,2,1,77,0,1
87728,-434.782608695652,4,2,1,67,0,0
87811,-434.782608695652,4,2,0,27,0,0

[Colours]
Combo1 : 248,165,52
Combo2 : 247,153,196
Combo3 : 172,133,245
Combo4 : 166,242,227

[HitObjects]
116,166,1062,6,0,L|106:104,2,52.5,2|0|2,0:2|0:2|0:2,0:0:0:0:
83,213,2061,1,0,0:2:0:0:
41,253,2395,2,0,P|33:278|32:310,1,52.5,2|0,0:2|0:2,0:0:0:0:
70,346,3061,2,0,P|96:347|121:355,1,52.5,2|0,0:2|0:2,0:0:0:0:
168,322,3728,6,0,L|246:299,1,78.75,2|2,0:2|0:2,0:0:0:0:
300,308,4561,1,0,0:2:0:0:
300,308,4895,2,0,P|340:301|400:366,1,131.25,2|2,0:2|0:2,0:0:0:0:
472,270,6395,6,0,L|476:213,2,52.5,2|0|2,0:2|0:2|0:2,0:0:0:0:
429,309,7395,1,0,0:2:0:0:
385,271,7728,2,0,L|332:267,1,52.5,2|0,0:2|0:2,0:0:0:0:
281,293,8395,2,0,L|228:289,1,52.5,2|0,0:2|0:2,0:0:0:0:
182,323,9061,6,0,P|143:355|58:346,1,131.25,2|2,0:2|0:2,0:0:0:0:
25,309,10228,1,2,0:2:0:0:
86,210,10895,6,0,L|79:124,1,78.75,2|2,0:2|0:2,0:0:0:0:
105,79,11728,2,0,P|138:57|185:53,1,78.75,2|2,0:2|0:2,0:0:0:0:
234,115,12728,2,0,P|267:137|314:141,1,78.75,2|2,0:2|0:2,0:0:0:0:
381,96,13728,5,2,0:2:0:0:
381,96,14061,1,2,0:2:0:0:
381,96,14395,2,0,L|395:207,1,105,2|2,0:2|0:2,0:0:0:0:
315,284,15728,2,0,P|289:303|275:380,1,105,2|0,0:0|0:2,0:0:0:0:
167,298,17061,6,0,L|84:288,1,78.7500030040742,6|0,3:2|0:0,0:0:0:0:
88,201,17728,2,0,L|171:211,1,78.7500030040742,8|8,0:2|0:3,0:0:0:0:
263,174,18395,1,6,3:2:0:0:
263,174,18728,1,0,0:0:0:0:
340,135,19061,2,0,L|347:53,2,78.7500030040742,10|2|2,0:2|3:2|0:2,0:0:0:0:
441,306,20395,5,6,3:2:0:0:
441,306,20561,2,0,P|397:305|355:353,1,105,8|8,0:2|0:2,0:0:0:0:
300,332,21061,6,0,P|258:364|195:347,1,105,6|8,3:2|0:2,0:0:0:0:
138,265,21728,2,0,L|144:202,2,52.5,2|0|8,3:2|3:2|0:2,0:0:0:0:
96,305,22228,2,0,B|51:288|51:288|-12:302,2,105,2|2|8,3:2|0:2|0:2,0:0:0:0:
138,343,23061,1,8,0:3:0:0:
259,330,23395,1,8,0:2:0:0:
259,330,23561,1,8,0:3:0:0:
259,330,23728,6,0,P|264:279|269:220,1,105,6|8,3:2|0:2,0:0:0:0:
322,203,24228,2,0,P|327:152|332:93,1,105,6|8,3:2|0:2,0:0:0:0:
301,48,24728,1,8,0:3:0:0:
205,112,25061,6,0,P|155:125|108:99,1,105,6|8,3:2|0:2,0:0:0:0:
80,77,25561,2,0,P|105:119|75:235,1,170.624992189408,6|6,3:2|3:2,0:0:0:0:
163,292,26728,5,10,0:2:0:0:
237,220,27061,1,2,3:2:0:0:
237,220,27228,2,0,L|346:218,2,94.499997116089,2|2|2,3:2|0:2|0:2,0:0:0:0:
198,185,28061,1,10,0:2:0:0:
250,95,28395,2,0,L|359:93,1,94.499997116089,2|10,3:2|0:2,0:0:0:0:
424,27,29061,5,2,3:2:0:0:
495,103,29395,1,10,0:2:0:0:
422,177,29728,2,0,P|405:224|398:282,1,94.499997116089,2|10,3:2|0:2,0:0:0:0:
412,318,30228,1,0,3:2:0:0:
412,318,30395,2,0,P|368:299|315:296,1,94.499997116089,2|8,3:2|0:2,0:0:0:0:
227,338,31061,2,0,P|183:357|130:360,1,94.499997116089,0|8,3:2|0:2,0:0:0:0:
46,308,31728,1,2,3:2:0:0:
84,211,32061,5,10,0:2:0:0:
121,116,32395,1,2,3:2:0:0:
121,116,32561,2,0,P|83:89|28:91,2,94.499997116089,2|2|2,3:2|0:2|0:2,0:0:0:0:
170,98,33395,2,0,L|272:80,1,94.499997116089,10|2,0:2|2:2,0:0:0:0:
345,144,34061,1,10,0:2:0:0:
434,90,34395,6,0,P|445:68|430:0,1,94.499997116089,2|10,3:2|0:2,0:0:0:0:
342,56,35061,2,0,P|331:78|346:146,1,94.499997116089,2|10,3:2|0:2,0:0:0:0:
392,176,35561,1,0,3:2:0:0:
392,176,35728,2,0,L|409:270,1,94.499997116089,2|10,3:2|0:2,0:0:0:0:
325,331,36395,1,2,3:2:0:0:
233,282,36728,1,10,0:2:0:0:
149,343,37061,5,6,3:2:0:0:
54,299,37395,1,10,0:2:0:0:
108,210,37728,2,0,L|94:155,2,47.2499985580445,2|2|10,3:2|3:2|0:2,0:0:0:0:
157,225,38228,2,0,P|200:232|259:200,1,94.499997116089,2|0,3:2|0:2,0:0:0:0:
267,165,38728,1,10,0:2:0:0:
267,165,38895,2,0,P|288:132|386:131,1,141.749995674133,2|8,0:2|0:2,0:0:0:0:
474,79,39728,5,2,3:2:0:0:
389,18,40061,2,0,L|283:35,1,94.499997116089,10|2,0:2|3:2,0:0:0:0:
247,12,40561,1,2,3:2:0:0:
247,12,40728,1,10,0:2:0:0:
197,103,41061,2,0,B|162:120|162:120|90:96,1,94.499997116089,2|10,3:2|0:2,0:0:0:0:
65,129,41561,2,0,P|46:160|66:273,1,141.749995674133,2|8,0:2|0:2,0:0:0:0:
99,290,42228,1,2,0:2:0:0:
99,290,42395,6,0,P|141:276|192:295,1,94.499997116089,6|8,3:2|0:2,0:0:0:0:
229,321,42895,2,0,P|271:335|322:316,1,94.499997116089,2|2,0:2|3:2,0:0:0:0:
348,278,43395,1,10,0:2:0:0:
434,335,43728,2,0,L|444:135,1,188.999994232178,2|2,3:2|0:2,0:0:0:0:
504,62,44728,1,10,0:2:0:0:
397,17,45061,6,0,P|352:5|291:28,1,105,6|10,3:2|0:2,0:0:0:0:
268,72,45561,2,0,L|286:182,1,105,2|2,0:2|3:2,0:0:0:0:
292,232,46061,1,10,0:2:0:0:
217,320,46395,1,6,3:2:0:0:
127,246,46728,1,14,0:2:0:0:
38,322,47061,2,0,L|33:379,2,52.5,14|8|4,0:2|0:2|0:3,0:0:0:0:
0,214,47728,6,0,P|-8:165|33:103,1,118.125004506111,6|0,3:2|3:2,0:0:0:0:
65,91,48395,2,0,L|150:104,1,78.7500030040742,10|0,0:2|0:2,0:0:0:0:
181,82,48895,2,0,L|266:95,1,78.7500030040742,2|10,3:2|2:2,0:0:0:0:
289,124,49395,1,2,3:2:0:0:
364,81,49728,5,10,3:2:0:0:
434,130,50061,1,2,3:2:0:0:
434,130,50395,2,0,P|418:174|396:254,1,118.125004506111,4|0,0:3|3:2,0:0:0:0:
406,285,51061,2,0,P|355:310|326:302,1,78.7500030040742,10|0,0:2|0:2,0:0:0:0:
301,279,51561,2,0,P|250:254|221:262,1,78.7500030040742,2|10,3:2|0:2,0:0:0:0:
193,280,52061,1,2,3:2:0:0:
123,331,52395,5,6,3:2:0:0:
43,296,52728,1,8,0:3:0:0:
43,296,53061,2,0,P|28:246|64:193,1,118.125004506111,6|2,3:2|3:2,0:0:0:0:
103,180,53728,2,0,L|94:96,1,78.7500030040742,10|2,0:2|0:2,0:0:0:0:
175,69,54395,2,0,L|184:153,1,78.7500030040742,2|2,0:2|3:2,0:0:0:0:
258,190,55061,5,8,2:2:0:0:
328,139,55395,1,2,3:2:0:0:
380,207,55728,2,0,B|406:245|406:245|380:277|389:325,1,118.125004506111,6|0,3:2|0:2,0:0:0:0:
358,344,56395,2,0,P|327:332|267:332,1,78.7500030040742,10|0,2:2|0:2,0:0:0:0:
201,361,57061,2,0,L|187:277,1,78.7500030040742,2|2,0:2|3:2,0:0:0:0:
157,252,57561,1,8,0:2:0:0:
157,252,57728,2,0,L|169:174,1,78.7500030040742,6|8,3:2|0:2,0:0:0:0:
228,88,58395,5,6,3:2:0:0:
150,19,58728,1,8,0:2:0:0:
150,19,58895,2,0,P|86:10|36:78,1,141.749995674133,2|10,3:2|0:2,0:0:0:0:
61,108,59561,1,8,0:3:0:0:
61,108,59728,2,0,L|38:217,1,94.499997116089,6|8,3:2|0:2,0:0:0:0:
8,240,60228,2,0,L|29:340,1,94.499997116089,2|2,3:2|3:2,0:0:0:0:
127,361,60895,6,0,B|176:346|176:346|209:364|209:364|274:345,1,141.749995674133,6|8,3:2|0:2,0:0:0:0:
361,371,61728,1,0,3:2:0:0:
432,295,62061,1,8,0:2:0:0:
371,210,62395,1,0,3:2:0:0:
279,259,62728,6,0,L|221:253,1,47.2499985580445,10|8,0:2|0:2,0:0:0:0:
191,221,63061,2,0,L|133:215,1,47.2499985580445,10|8,2:2|2:2,0:0:0:0:
102,184,63395,2,0,L|43:175,1,47.2499985580445,8|4,0:3|0:3,0:0:0:0:
16,134,63728,6,0,B|-21:75|73:-12|156:29|166:122|228:158|297:120,1,367.5,6|8,3:2|0:2,0:0:0:0:
338,89,65061,1,0,3:2:0:0:
422,167,65395,1,8,0:2:0:0:
508,90,65728,5,2,2:2:0:0:
460,305,66395,6,0,P|401:291|345:320,1,115.50000352478,6|10,3:2|0:2,0:0:0:0:
237,259,67061,1,2,3:2:0:0:
134,334,67395,1,10,0:2:0:0:
27,264,67728,2,0,L|17:142,1,115.50000352478,2|10,3:2|0:2,0:0:0:0:
119,72,68395,2,0,L|129:194,1,115.50000352478,2|10,3:2|0:2,0:0:0:0:
243,240,69061,5,6,3:2:0:0:
335,152,69395,1,10,0:2:0:0:
335,152,69561,2,8,P|392:127|450:142,1,115.50000352478,2|2,0:2|2:2,0:0:0:0:
457,11,70228,2,0,P|404:65|302:38,1,173.250005287171,2|8,2:2|0:2,0:0:0:0:
217,132,71061,2,0,L|224:202,2,57.7500017623902,0|0|8,3:2|3:2|0:2,0:0:0:0:
126,42,71728,5,6,3:2:0:0:
28,122,72061,1,10,0:2:0:0:
102,225,72395,2,0,P|155:201|219:208,1,115.50000352478,2|10,3:2|0:2,0:0:0:0:
305,289,73061,2,0,P|358:313|422:306,1,115.50000352478,2|10,3:2|0:2,0:0:0:0:
506,221,73728,1,2,3:2:0:0:
429,119,74061,1,10,0:2:0:0:
314,173,74395,6,0,L|303:303,1,115.50000352478,6|10,3:2|0:2,0:0:0:0:
260,334,74895,1,2,0:2:0:0:
150,269,75228,1,2,0:2:0:0:
47,344,75561,2,0,B|64:321|62:281|62:281|19:241|38:172,1,173.250005287171,2|10,2:2|0:2,0:0:0:0:
75,132,76228,2,0,B|109:130|141:117|141:117|158:145|187:170,1,115.50000352478,2|10,3:2|0:2,0:0:0:0:
225,185,76728,1,10,0:2:0:0:
330,115,77061,5,6,3:2:0:0:
405,217,77395,1,10,0:2:0:0:
405,217,77561,2,0,P|382:263|361:349,1,115.50000352478,2|2,0:2|3:2,0:0:0:0:
302,341,78061,2,8,P|273:298|209:236,1,115.50000352478,10|2,0:2|3:2,0:0:0:0:
245,190,78561,2,8,P|296:186|381:162,1,115.50000352478,2|2,0:2|0:2,0:0:0:0:
388,114,79061,1,2,3:2:0:0:
309,13,79395,1,8,0:2:0:0:
200,78,79728,6,0,L|64:74,1,115.50000352478,6|8,3:2|0:2,0:0:0:0:
40,120,80228,1,2,0:2:0:0:
40,120,80395,2,0,P|20:159|21:238,1,115.50000352478,2|10,3:2|0:2,0:0:0:0:
57,279,80895,6,8,P|114:277|166:300,1,115.50000352478,2|0,0:2|3:2,0:0:0:0:
226,279,81395,1,14,0:2:0:0:
331,349,81728,1,14,0:2:0:0:
441,285,82061,1,8,0:2:0:0:
352,193,82395,6,0,L|336:68,1,115.50000352478,6|10,3:2|0:2,0:0:0:0:
373,26,82895,1,2,3:2:0:0:
373,26,83061,2,0,P|414:12|441:17,1,57.7500017623902,10|2,0:2|3:2,0:0:0:0:
478,52,83395,2,8,P|492:93|487:120,1,57.7500017623902,10|2,0:2|3:2,0:0:0:0:
455,159,83728,5,10,2:2:0:0:
498,278,84061,1,10,0:2:0:0:
380,325,84395,1,10,2:2:0:0:
337,206,84728,1,14,0:2:0:0:
215,167,85061,6,0,P|153:153|82:245,1,173.250005287171,6|8,3:2|0:2,0:0:0:0:
59,284,85728,2,0,L|37:93,1,173.250005287171,8|4,0:3|0:3,0:0:0:0:
4,58,86395,5,14,0:2:0:0:
210,217,87228,5,0,3:2:0:0:
210,217,87395,2,0,B|263:203|263:203|317:239,1,105,8|6,0:2|3:2,0:0:0:0:
256,192,87895,12,0,90061,0:2:0:0:
