osu file format v14

[General]
AudioFilename: audio.mp3
AudioLeadIn: 0
PreviewTime: 0
Countdown: 0
SampleSet: Normal
StackLeniency: 0.7
Mode: 0
LetterboxInBreaks: 0
WidescreenStoryboard: 0

[Editor]
DistanceSpacing: 1
BeatDivisor: 4
GridSize: 8
TimelineZoom: 1.400009

[Metadata]
Title:Przebicie do srodmiescia
TitleUnicode:Przebicie do śródmieścia
Artist:Lao Che
ArtistUnicode:Lao Che
Creator:Dziuras
Version:Uprising
Source:
Tags:
BeatmapID:1785177
BeatmapSetID:854232

[Difficulty]
HPDrainRate:7
CircleSize:4
OverallDifficulty:9
ApproachRate:9.5
SliderMultiplier:2.2
SliderTickRate:1

[Events]
//Background and Video events
//Break Periods
//Storyboard Layer 0 (Background)
//Storyboard Layer 1 (Fail)
//Storyboard Layer 2 (Pass)
//Storyboard Layer 3 (Foreground)
//Storyboard Sound Samples

[TimingPoints]
200,882.352941176471,4,1,0,100,1,0
1082,645.161290322581,4,1,0,100,1,0
1727,230.769230769231,4,1,0,100,1,0
1957,400,4,1,0,100,1,0
2357,500,4,1,0,100,1,0
2857,166.666666666667,4,1,0,100,1,0
3023,333.333333333333,4,1,0,100,1,0
3023,-200,4,1,0,100,0,0
3356,315.789473684211,4,1,0,100,1,0
3356,-200,4,1,0,100,0,0
3671,324.324324324324,4,1,0,100,1,0
3671,-200,4,1,0,100,0,0
3995,342.857142857143,4,1,0,100,1,0
3995,-200,4,1,0,100,0,0
4679,324.324324324324,4,1,0,100,1,0
4679,-200,4,1,0,100,0,0
5003,342.857142857143,4,1,0,100,1,0
5003,-200,4,1,0,100,0,0
5345,333.333333333333,4,1,0,100,1,0
5345,-200,4,1,0,100,0,0
7024,187.5,4,1,0,100,1,0
7961,461.538461538462,4,1,0,100,1,0
8422,187.5,4,1,0,100,1,0
8609,75,4,1,0,100,1,0
8684,144.578313253012,4,1,0,100,1,0
8829,109.090909090909,4,1,0,100,1,0
8938,150,4,1,0,100,1,0
8938,-333.333333333333,4,1,0,100,0,0
9088,173.410404624277,4,1,0,100,1,0
9261,100,4,1,0,100,1,0
9361,150,4,1,0,100,1,0
9511,120,4,1,0,100,1,0
9631,171.428571428571,4,1,0,100,1,0
10145,200,4,1,0,100,1,0
10345,352.941176470588,4,1,0,100,1,0
10700,187.5,4,1,0,100,1,0
10887,187.5,4,1,0,100,1,0
11074,176.470588235294,4,1,0,100,1,0

[HitObjects]
231,202,200,6,0,P|231:137|364:134,1,220
357,124,1727,2,0,P|419:211|391:314,1,220
390,312,2357,2,0,P|319:310|231:190,1,220
241,70,3023,5,0,0:0:0:0:
216,58,3106,1,0,0:0:0:0:
189,55,3189,1,0,0:0:0:0:
188,123,3356,1,0,0:0:0:0:
176,147,3434,1,0,0:0:0:0:
178,174,3513,1,0,0:0:0:0:
256,157,3671,1,0,0:0:0:0:
280,168,3752,1,0,0:0:0:0:
307,165,3833,1,0,0:0:0:0:
343,93,3995,5,0,0:0:0:0:
364,76,4080,1,0,0:0:0:0:
391,71,4166,1,0,0:0:0:0:
401,139,4337,1,0,0:0:0:0:
419,158,4422,1,0,0:0:0:0:
422,185,4508,1,0,0:0:0:0:
346,170,4679,1,0,0:0:0:0:
328,190,4760,1,0,0:0:0:0:
302,196,4841,1,0,0:0:0:0:
206,133,5003,5,0,0:0:0:0:
183,117,5088,1,0,0:0:0:0:
156,113,5174,1,0,0:0:0:0:
165,186,5345,1,0,0:0:0:0:
158,212,5428,1,0,0:0:0:0:
163,239,5511,1,0,0:0:0:0:
237,201,5678,1,0,0:0:0:0:
263,208,5761,1,0,0:0:0:0:
288,198,5844,1,0,0:0:0:0:
311,108,6011,5,0,0:0:0:0:
308,80,6094,1,0,0:0:0:0:
291,59,6177,1,0,0:0:0:0:
233,109,6345,1,0,0:0:0:0:
206,102,6428,1,0,0:0:0:0:
179,106,6511,1,0,0:0:0:0:
208,179,6678,1,0,0:0:0:0:
217,204,6761,1,0,0:0:0:0:
241,216,6844,1,0,0:0:0:0:
325,159,7024,5,0,0:0:0:0:
141,162,7211,1,0,0:0:0:0:
376,114,7399,1,0,0:0:0:0:
98,107,7586,1,0,0:0:0:0:
430,58,7774,1,0,0:0:0:0:
57,53,7961,2,0,P|177:34|278:58,1,220
316,128,8609,5,0,0:0:0:0:
316,128,8684,1,0,0:0:0:0:
267,192,8829,1,0,0:0:0:0:
254,82,8938,2,0,B|210:137,1,65.9999979858399
178,73,9261,1,0,0:0:0:0:
184,72,9361,1,0,0:0:0:0:
92,129,9511,1,0,0:0:0:0:
92,129,9631,1,0,0:0:0:0:
106,259,9802,5,0,0:0:0:0:
167,163,9973,1,0,0:0:0:0:
216,162,10145,1,0,0:0:0:0:
341,265,10345,2,0,B|399:248|398:236|288:68|259:297|259:297,1,220
229,275,10887,5,0,0:0:0:0:
89,164,11074,1,0,0:0:0:0:
