osu file format v14

[General]
AudioFilename: audio.mp3
AudioLeadIn: 0
PreviewTime: -1
Countdown: 1
SampleSet: Normal
StackLeniency: 0.7
Mode: 0
LetterboxInBreaks: 0
WidescreenStoryboard: 0

[Editor]
DistanceSpacing: 2
BeatDivisor: 4
GridSize: 32
TimelineZoom: 2.4

[Metadata]
Title:Summertime Sadness
TitleUnicode:Summertime Sadness
Artist:Lana Del Rey vs Cedric Gervais
ArtistUnicode:Lana Del Rey vs Cedric Gervais
Creator:ITzunnamiI
Version:Happiness
Source:
Tags:
BeatmapID:1750406
BeatmapSetID:835792

[Difficulty]
HPDrainRate:5
CircleSize:4
OverallDifficulty:6
ApproachRate:9
SliderMultiplier:1.5
SliderTickRate:2

[Events]
//Background and Video events
0,0,"summertime_anime_by_metmietze-d7ljyf6.jpg",0,0
//Break Periods
2,79212,86246
2,103796,110080
2,120796,125913
//Storyboard Layer 0 (Background)
//Storyboard Layer 1 (Fail)
//Storyboard Layer 2 (Pass)
//Storyboard Layer 3 (Foreground)
//Storyboard Sound Samples

[TimingPoints]
10847,333.333333333333,4,1,0,100,1,0

[HitObjects]
66,214,11597,5,8,0:0:0:0:
234,46,11847,1,8,0:0:0:0:
416,241,12097,1,8,0:0:0:0:
71,100,12347,1,8,0:0:0:0:
383,116,12597,1,8,0:0:0:0:
218,325,12847,1,8,0:0:0:0:
216,253,13263,2,0,B|198:216|194:206|192:188|196:177|197:166|205:148|210:137|220:126|232:113|244:96|261:74|268:57|269:47|267:37|263:28|258:20|254:17,1,225
106,47,14013,1,0,0:0:0:0:
38,127,14263,2,0,B|24:168|26:187|31:205|37:227|45:243|58:256|76:261|93:261,1,150,4|0,0:0|0:0,0:0:0:0:
116,248,15180,5,2,0:0:0:0:
257,49,15430,1,2,0:0:0:0:
386,257,15680,1,2,0:0:0:0:
85,111,15930,1,2,0:0:0:0:
411,88,16180,2,0,B|409:137|402:157|383:184|368:203|342:219|308:225|296:225,1,187.5
232,259,16847,1,0,0:0:0:0:
196,271,16931,1,0,0:0:0:0:
166,265,17014,1,0,0:0:0:0:
140,241,17097,1,0,0:0:0:0:
18,36,17347,1,0,0:0:0:0:
316,63,17513,2,4,L|372:63,1,37.5
311,144,17763,2,0,L|361:140,1,37.5,4|0,0:0|0:0,0:0:0:0:
212,322,18013,1,8,0:0:0:0:
89,315,19013,5,0,0:0:0:0:
91,52,19263,1,0,0:0:0:0:
354,322,19513,1,0,0:0:0:0:
335,48,19763,1,0,0:0:0:0:
235,299,20013,2,0,B|233:190|231:135|230:96|279:56|314:46|380:42|421:50|460:68|461:69,1,412.5
461,185,21180,1,0,0:0:0:0:
252,183,21430,1,0,0:0:0:0:
8,197,21680,2,0,B|56:92|74:78,1,112.5
57,68,22846,2,0,L|100:68,1,37.5
52,148,23096,2,0,L|93:146,1,37.5
46,233,23346,2,0,L|90:232,1,37.5
36,318,23596,2,0,B|101:320|141:321|166:316,1,112.5
336,287,24680,1,0,0:0:0:0:
421,208,24930,1,0,0:0:0:0:
361,44,25180,1,0,0:0:0:0:
326,40,25430,2,0,B|276:46|250:52|223:60|171:83|126:142|117:162,1,225
121,278,27596,6,0,B|158:278|212:278|255:278|293:267|322:253|351:239,1,225
412,185,28346,1,0,0:0:0:0:
412,185,28430,1,0,0:0:0:0:
412,185,28513,2,0,B|395:137|376:110|362:92|335:78|305:70|279:68|256:67|248:66|242:66|241:66,1,225
227,57,29430,1,0,0:0:0:0:
59,212,29680,1,0,0:0:0:0:
386,206,29930,1,0,0:0:0:0:
233,308,30180,1,0,0:0:0:0:
233,52,30430,1,0,0:0:0:0:
236,142,30680,1,0,0:0:0:0:
235,229,30930,1,0,0:0:0:0:
233,325,31180,1,0,0:0:0:0:
233,325,31430,2,0,B|321:321|382:285|425:196,1,225
430,159,32096,1,0,0:0:0:0:
247,78,32346,1,0,0:0:0:0:
36,72,33013,6,0,L|93:72,1,37.5
32,151,33263,2,0,L|81:148,1,37.5
30,231,33513,2,0,L|80:228,1,37.5
27,309,33763,2,0,L|73:308,1,37.5
457,81,34013,6,0,L|411:79,1,37.5
461,162,34263,2,0,L|417:161,1,37.5
467,246,34513,2,0,L|411:245,1,37.5
469,327,34763,2,0,L|415:325,1,37.5
231,31,35013,2,0,L|231:75,1,37.5
229,94,35263,2,0,L|233:338,1,225
341,137,36096,5,0,0:0:0:0:
341,137,36179,1,0,0:0:0:0:
341,137,36262,1,0,0:0:0:0:
59,65,36846,1,0,0:0:0:0:
57,192,37096,1,0,0:0:0:0:
210,59,37346,1,0,0:0:0:0:
212,206,37596,1,0,0:0:0:0:
397,58,37846,1,0,0:0:0:0:
404,213,38096,1,0,0:0:0:0:
17,136,38513,6,0,L|76:113,1,37.5
76,113,38763,2,0,L|121:99,1,37.5
153,93,39013,2,0,B|226:76|296:57|337:56|356:63|378:70,1,225
510,222,39930,2,0,B|433:301|358:322|218:329|149:329|54:314|7:281|-28:225|-33:208|-33:207,1,600
120,246,42763,1,0,0:0:0:0:
242,59,43013,1,0,0:0:0:0:
366,261,43263,1,0,0:0:0:0:
241,66,43513,1,0,0:0:0:0:
95,282,43763,2,0,B|152:305|275:289|303:280,1,187.5
379,205,44430,1,0,0:0:0:0:
452,110,44680,1,0,0:0:0:0:
91,51,46513,5,0,0:0:0:0:
89,152,46763,1,0,0:0:0:0:
90,277,47013,2,0,B|149:287|198:281|250:269|253:269,1,150
351,197,47596,1,0,0:0:0:0:
465,97,47846,1,0,0:0:0:0:
289,46,48096,1,0,0:0:0:0:
146,99,48346,2,0,B|93:167|112:227|216:281|285:303|363:303,1,337.5
152,73,50430,1,0,0:0:0:0:
427,69,50680,1,0,0:0:0:0:
157,215,50930,1,0,0:0:0:0:
433,213,51180,1,0,0:0:0:0:
156,62,51430,2,0,L|331:62,1,150
488,243,52180,1,0,0:0:0:0:
105,74,54013,1,0,0:0:0:0:
99,272,54263,1,0,0:0:0:0:
444,59,54513,1,0,0:0:0:0:
461,289,54763,1,0,0:0:0:0:
249,51,55013,1,0,0:0:0:0:
250,87,55263,2,0,B|253:128|256:183|262:285|251:345|167:319|138:272|136:224|138:211,1,337.5
132,83,58263,5,0,0:0:0:0:
132,172,58513,1,0,0:0:0:0:
131,260,58763,1,0,0:0:0:0:
381,76,59013,1,0,0:0:0:0:
385,168,59263,1,0,0:0:0:0:
398,278,59513,2,0,L|166:272,1,225
173,272,60180,2,0,L|107:267,1,37.5
135,269,60430,2,0,L|90:268,1,37.5
139,81,60846,1,0,0:0:0:0:
381,79,61346,1,0,0:0:0:0:
279,69,62346,1,0,0:0:0:0:
278,109,62513,1,0,0:0:0:0:
274,323,62763,1,0,0:0:0:0:
55,106,63013,1,0,0:0:0:0:
463,87,63263,2,0,B|467:133|470:192|456:252|428:263|409:268,1,187.5
423,262,63846,2,0,L|381:280,1,37.5
388,276,64096,2,0,L|346:284,1,37.5
147,102,64596,1,0,0:0:0:0:
425,97,65096,1,0,0:0:0:0:
135,89,66346,5,0,0:0:0:0:
136,264,66596,2,0,L|191:257,1,37.5
221,249,66846,1,0,0:0:0:0:
242,240,66930,1,0,0:0:0:0:
261,230,67013,1,0,0:0:0:0:
282,219,67096,1,0,0:0:0:0:
294,213,67180,1,0,0:0:0:0:
311,206,67263,1,0,0:0:0:0:
333,198,67346,1,0,0:0:0:0:
352,179,67430,1,0,0:0:0:0:
372,151,67513,1,0,0:0:0:0:
379,114,67596,1,0,0:0:0:0:
354,70,67680,1,0,0:0:0:0:
317,53,67763,1,0,0:0:0:0:
262,48,67846,1,0,0:0:0:0:
209,54,67930,1,0,0:0:0:0:
154,68,68013,1,0,0:0:0:0:
96,88,68096,1,0,0:0:0:0:
39,126,68180,1,0,0:0:0:0:
16,195,68263,1,0,0:0:0:0:
30,278,68346,1,0,0:0:0:0:
101,327,68430,1,0,0:0:0:0:
179,298,68513,1,0,0:0:0:0:
248,251,68596,1,0,0:0:0:0:
306,190,68680,1,0,0:0:0:0:
333,108,68763,1,0,0:0:0:0:
272,42,68846,1,0,0:0:0:0:
186,44,68930,1,0,0:0:0:0:
120,103,69013,1,0,0:0:0:0:
98,181,69096,1,0,0:0:0:0:
132,254,69180,1,0,0:0:0:0:
391,68,69430,1,0,0:0:0:0:
386,245,70430,1,0,0:0:0:0:
244,91,70680,2,0,B|143:106|92:164|81:200|96:248|138:303|218:345|300:338|361:307|422:267|471:172|475:122|475:87|475:86,1,675
118,40,73180,5,0,0:0:0:0:
119,223,73346,1,0,0:0:0:0:
316,34,73513,1,0,0:0:0:0:
319,228,73680,1,0,0:0:0:0:
319,228,73846,5,0,0:0:0:0:
316,34,74013,1,0,0:0:0:0:
119,223,74180,1,0,0:0:0:0:
118,41,74346,1,0,0:0:0:0:
339,131,74513,5,0,0:0:0:0:
118,297,74680,1,0,0:0:0:0:
193,16,74846,1,0,0:0:0:0:
340,283,75013,1,0,0:0:0:0:
88,134,75180,1,0,0:0:0:0:
351,181,75346,5,0,0:0:0:0:
100,298,75513,1,0,0:0:0:0:
207,33,75680,1,0,0:0:0:0:
326,278,75846,1,0,0:0:0:0:
96,133,76013,1,0,0:0:0:0:
341,165,76180,1,0,0:0:0:0:
106,258,76346,5,0,0:0:0:0:
300,76,76513,1,0,0:0:0:0:
106,258,76680,1,0,0:0:0:0:
76,227,77013,6,0,B|45:154|47:97|86:36|199:11|288:11|397:22|465:37|540:127|568:220|550:303|491:355|424:372|354:346,1,900
128,62,86846,6,0,L|333:63,2,187.5
315,62,87930,1,0,0:0:0:0:
96,118,88513,5,0,0:0:0:0:
121,98,88596,1,0,0:0:0:0:
145,80,88680,1,0,0:0:0:0:
169,65,88763,1,0,0:0:0:0:
196,51,88846,1,0,0:0:0:0:
225,43,88930,1,0,0:0:0:0:
249,43,89013,1,0,0:0:0:0:
276,42,89096,1,0,0:0:0:0:
306,46,89180,1,0,0:0:0:0:
341,56,89263,2,0,L|377:73,1,37.5
403,88,89430,2,0,L|442:107,1,37.5
446,140,89596,1,0,0:0:0:0:
436,205,89680,1,0,0:0:0:0:
395,255,89763,1,0,0:0:0:0:
334,270,89846,1,0,0:0:0:0:
270,279,89930,1,0,0:0:0:0:
201,288,90013,1,0,0:0:0:0:
127,295,90096,1,0,0:0:0:0:
54,281,90180,1,0,0:0:0:0:
14,220,90263,1,0,0:0:0:0:
14,150,90346,1,0,0:0:0:0:
33,82,90430,5,0,0:0:0:0:
81,31,90513,1,0,0:0:0:0:
154,38,90596,2,0,L|195:44,1,37.5
234,48,90763,2,0,L|283:55,1,37.5
344,69,90930,1,0,0:0:0:0:
418,128,91013,1,0,0:0:0:0:
456,212,91096,1,0,0:0:0:0:
463,293,91180,1,0,0:0:0:0:
427,363,91263,1,0,0:0:0:0:
347,348,91346,5,0,0:0:0:0:
272,311,91430,1,0,0:0:0:0:
210,264,91513,1,0,0:0:0:0:
153,213,91596,1,0,0:0:0:0:
102,157,91680,1,0,0:0:0:0:
55,98,91763,1,0,0:0:0:0:
14,34,91846,1,0,0:0:0:0:
256,192,92096,12,0,93762,0:0:0:0:
143,47,94263,5,0,0:0:0:0:
313,47,94430,1,0,0:0:0:0:
141,154,94596,1,0,0:0:0:0:
315,152,94763,1,0,0:0:0:0:
141,246,94930,1,0,0:0:0:0:
318,242,95096,1,0,0:0:0:0:
141,330,95263,1,0,0:0:0:0:
316,329,95430,1,0,0:0:0:0:
324,329,95513,1,0,0:0:0:0:
339,330,95596,2,0,B|416:329|433:327|454:280|454:224|444:215|448:215,1,187.5
75,44,96180,5,0,0:0:0:0:
116,172,96346,1,0,0:0:0:0:
181,42,96513,1,0,0:0:0:0:
206,170,96680,1,0,0:0:0:0:
274,38,96846,1,0,0:0:0:0:
312,170,97013,1,0,0:0:0:0:
86,352,97180,5,0,0:0:0:0:
142,248,97346,1,0,0:0:0:0:
190,351,97513,1,0,0:0:0:0:
241,246,97680,1,0,0:0:0:0:
292,350,97846,1,0,0:0:0:0:
340,248,98013,1,0,0:0:0:0:
402,346,98180,1,0,0:0:0:0:
111,68,98346,5,0,0:0:0:0:
121,66,98430,1,0,0:0:0:0:
128,65,98513,1,0,0:0:0:0:
402,122,98763,1,0,0:0:0:0:
412,118,98846,1,0,0:0:0:0:
423,115,98930,1,0,0:0:0:0:
134,251,99180,1,0,0:0:0:0:
119,247,99263,1,0,0:0:0:0:
106,241,99346,1,0,0:0:0:0:
394,256,99596,1,0,0:0:0:0:
406,252,99680,1,0,0:0:0:0:
416,248,99763,1,0,0:0:0:0:
253,49,100013,1,0,0:0:0:0:
242,50,100096,1,0,0:0:0:0:
234,50,100180,1,0,0:0:0:0:
406,241,100430,5,0,0:0:0:0:
421,255,100513,1,0,0:0:0:0:
436,271,100596,1,0,0:0:0:0:
151,180,100846,1,0,0:0:0:0:
131,168,100930,1,0,0:0:0:0:
108,152,101013,1,0,0:0:0:0:
382,89,101263,1,0,0:0:0:0:
399,88,101346,1,0,0:0:0:0:
420,88,101430,1,0,0:0:0:0:
449,89,101513,1,0,0:0:0:0:
469,89,101596,1,0,0:0:0:0:
123,37,101846,6,0,L|123:133,1,75
335,36,102263,2,0,L|336:115,1,75
153,302,102680,2,0,L|153:220,1,75
338,298,103096,2,0,L|338:214,1,75
337,128,103596,1,0,0:0:0:0:
256,192,110680,12,0,111180,0:0:0:0:
106,54,111513,6,0,B|160:51|215:51|296:51|386:51|425:64|454:121|446:195|379:256|310:278|263:278|257:277,1,562.5
247,278,112846,1,0,0:0:0:0:
218,278,112930,1,0,0:0:0:0:
97,136,113180,1,0,0:0:0:0:
233,281,113430,1,0,0:0:0:0:
327,145,113680,1,0,0:0:0:0:
217,33,113930,1,0,0:0:0:0:
97,136,114180,1,0,0:0:0:0:
233,281,114430,1,0,0:0:0:0:
327,145,114680,1,0,0:0:0:0:
217,33,114930,1,0,0:0:0:0:
233,281,115180,5,0,0:0:0:0:
245,281,115263,1,0,0:0:0:0:
381,159,115513,1,0,0:0:0:0:
379,137,115596,1,0,0:0:0:0:
234,44,115846,1,0,0:0:0:0:
210,42,115930,1,0,0:0:0:0:
136,142,116180,1,0,0:0:0:0:
133,167,116263,1,0,0:0:0:0:
229,264,116513,5,0,0:0:0:0:
252,268,116596,1,0,0:0:0:0:
277,157,116846,1,0,0:0:0:0:
275,119,116930,1,0,0:0:0:0:
162,107,117180,1,0,0:0:0:0:
132,120,117263,1,0,0:0:0:0:
177,201,117513,1,0,0:0:0:0:
204,202,117596,1,0,0:0:0:0:
280,139,117763,5,0,0:0:0:0:
276,104,117846,1,0,0:0:0:0:
193,95,118013,1,0,0:0:0:0:
168,123,118096,1,0,0:0:0:0:
204,183,118263,1,0,0:0:0:0:
230,204,118346,1,0,0:0:0:0:
261,127,118513,1,0,0:0:0:0:
237,110,118596,5,0,0:0:0:0:
211,137,118680,5,0,0:0:0:0:
242,158,118763,5,0,0:0:0:0:
259,125,118846,5,0,0:0:0:0:
237,110,118930,5,0,0:0:0:0:
211,137,119013,5,0,0:0:0:0:
242,158,119096,5,0,0:0:0:0:
261,127,119180,5,0,0:0:0:0:
236,108,119263,5,0,0:0:0:0:
211,137,119346,5,0,0:0:0:0:
242,158,119430,5,0,0:0:0:0:
261,127,119513,5,0,0:0:0:0:
237,110,119596,5,0,0:0:0:0:
211,137,119680,5,0,0:0:0:0:
242,158,119763,5,0,0:0:0:0:
259,125,119846,5,0,0:0:0:0:
237,110,119930,5,0,0:0:0:0:
211,137,120013,5,0,0:0:0:0:
242,158,120096,5,0,0:0:0:0:
261,127,120180,5,0,0:0:0:0:
236,108,120263,5,0,0:0:0:0:
211,137,120346,5,0,0:0:0:0:
242,158,120430,5,0,0:0:0:0:
237,130,120596,5,0,0:0:0:0:
81,42,126513,6,0,B|258:43|251:46,1,150
85,164,127180,1,0,0:0:0:0:
191,164,127346,1,0,0:0:0:0:
351,45,127930,2,0,L|351:211,1,150
353,268,128596,1,0,0:0:0:0:
355,347,128763,5,0,0:0:0:0:
249,345,128930,1,0,0:0:0:0:
250,268,129096,1,0,0:0:0:0:
102,54,129263,5,0,0:0:0:0:
212,54,129430,1,0,0:0:0:0:
211,157,129596,1,0,0:0:0:0:
99,155,129763,1,0,0:0:0:0:
400,50,129930,5,0,0:0:0:0:
404,151,130096,1,0,0:0:0:0:
511,153,130263,1,0,0:0:0:0:
511,43,130430,2,0,B|459:22|424:14|360:7|276:12|197:17|137:42|91:69|109:62,1,412.5
109,49,131930,2,0,L|109:128,1,75
111,153,132180,2,0,L|111:240,1,75
110,258,132430,1,0,0:0:0:0:
110,287,132513,1,0,0:0:0:0:
110,317,132596,1,0,0:0:0:0:
257,324,132930,5,0,0:0:0:0:
349,164,133180,2,0,L|366:127,3,37.5
270,184,134180,2,0,B|315:181|355:186|366:177|376:137|372:109|349:62|321:48|280:40|230:34|177:34|137:31|76:31|43:33|43:44,1,450
1,131,135430,1,0,0:0:0:0:
59,251,135596,1,0,0:0:0:0:
217,265,135763,5,0,0:0:0:0:
315,180,135930,1,0,0:0:0:0:
254,73,136096,1,0,0:0:0:0:
143,48,136263,1,0,0:0:0:0:
42,85,136430,1,0,0:0:0:0:
25,182,136596,1,0,0:0:0:0:
105,255,136763,6,0,B|234:280|301:290|347:281|388:263|408:217|414:166,1,337.5
422,144,137680,1,0,0:0:0:0:
426,116,137763,1,0,0:0:0:0:
428,80,137846,1,0,0:0:0:0:
311,27,138013,1,0,0:0:0:0:
245,214,138180,1,0,0:0:0:0:
182,31,138346,1,0,0:0:0:0:
113,207,138513,1,0,0:0:0:0:
51,32,138680,1,0,0:0:0:0:
11,210,138846,1,0,0:0:0:0:
51,32,139013,5,0,0:0:0:0:
113,207,139180,1,0,0:0:0:0:
167,33,139346,1,0,0:0:0:0:
241,214,139513,2,0,L|398:216,3,150
106,51,141846,5,0,0:0:0:0:
241,216,142013,1,0,0:0:0:0:
237,52,142180,1,0,0:0:0:0:
118,215,142346,1,0,0:0:0:0:
118,215,142513,5,0,0:0:0:0:
237,52,142680,1,0,0:0:0:0:
240,221,142846,1,0,0:0:0:0:
107,54,143013,1,0,0:0:0:0:
118,215,143180,5,0,0:0:0:0:
246,43,143346,1,0,0:0:0:0:
389,221,143513,1,0,0:0:0:0:
118,215,143680,1,0,0:0:0:0:
417,83,143846,1,0,0:0:0:0:
65,82,144013,1,0,0:0:0:0:
253,333,144180,1,0,0:0:0:0:
247,162,144346,1,0,0:0:0:0:
246,147,144430,1,0,0:0:0:0:
94,61,145513,2,0,L|362:62,1,262.5
356,61,146263,5,0,0:0:0:0:
434,184,146513,1,0,0:0:0:0:
290,181,146763,1,0,0:0:0:0:
356,61,147013,1,0,0:0:0:0:
434,184,147263,1,0,0:0:0:0:
290,181,147513,1,0,0:0:0:0:
356,61,147763,1,0,0:0:0:0:
434,184,148013,1,0,0:0:0:0:
290,181,148263,1,0,0:0:0:0:
356,61,148513,1,0,0:0:0:0:
428,183,148763,1,0,0:0:0:0:
290,181,148930,5,0,0:0:0:0:
356,61,149096,1,0,0:0:0:0:
428,183,149263,1,0,0:0:0:0:
290,181,149430,1,0,0:0:0:0:
356,61,149596,1,0,0:0:0:0:
428,183,149763,1,0,0:0:0:0:
290,181,149930,1,0,0:0:0:0:
356,61,150096,1,0,0:0:0:0:
428,183,150263,1,0,0:0:0:0:
14,47,150430,5,0,0:0:0:0:
113,294,150596,1,0,0:0:0:0:
232,47,150763,1,0,0:0:0:0:
17,174,150930,1,0,0:0:0:0:
224,185,151096,1,0,0:0:0:0:
120,42,151263,1,0,0:0:0:0:
29,18,153013,1,0,0:0:0:0:
487,341,153180,1,0,0:0:0:0:
486,22,153346,1,0,0:0:0:0:
54,353,153513,1,0,0:0:0:0:
256,195,153680,1,0,0:0:0:0:
255,14,153846,1,0,0:0:0:0:
256,195,154013,1,0,0:0:0:0:
503,194,154180,1,0,0:0:0:0:
256,195,154346,1,0,0:0:0:0:
69,192,154513,1,0,0:0:0:0:
256,195,154680,1,0,0:0:0:0:
252,359,154846,1,0,0:0:0:0:
256,195,155013,1,0,0:0:0:0:
76,42,156846,6,0,B|156:42|215:35|284:30|340:30|414:49|450:104|462:143|462:203|431:256|426:280,1,525
424,285,158180,1,0,0:0:0:0:
412,318,158346,2,0,B|341:348|265:347|167:334|80:303|41:209|42:164|53:136|76:142,1,450
68,114,159513,1,0,0:0:0:0:
86,78,159680,1,0,0:0:0:0:
111,47,159846,1,0,0:0:0:0:
138,34,160013,1,0,0:0:0:0:
173,32,160180,1,0,0:0:0:0:
209,40,160346,1,0,0:0:0:0:
242,55,160513,6,0,B|336:66|382:73|447:120|461:186|434:265|428:283|392:301|391:297,1,375
376,308,161513,2,0,B|229:291|179:277|131:202|132:137|161:93|231:53|229:54,1,412.5
243,52,162596,1,0,0:0:0:0:
272,45,162680,1,0,0:0:0:0:
301,42,162763,1,0,0:0:0:0:
335,41,162846,1,0,0:0:0:0:
365,43,162930,1,0,0:0:0:0:
398,47,163013,1,0,0:0:0:0:
428,53,163096,1,0,0:0:0:0:
456,58,163180,1,0,0:0:0:0:
477,60,163263,1,0,0:0:0:0:
503,68,163346,1,0,0:0:0:0:
56,323,163513,5,0,0:0:0:0:
57,291,163596,1,0,0:0:0:0:
58,256,163679,1,0,0:0:0:0:
59,223,163763,1,0,0:0:0:0:
59,193,163846,1,0,0:0:0:0:
59,156,163930,1,0,0:0:0:0:
58,117,164013,1,0,0:0:0:0:
57,83,164096,1,0,0:0:0:0:
57,47,164180,1,0,0:0:0:0:
57,12,164263,1,0,0:0:0:0:
176,23,164596,6,0,L|229:24,1,37.5
243,27,164763,2,0,L|283:27,1,37.5
305,27,164930,2,0,L|347:27,1,37.5
369,28,165096,2,0,L|413:29,1,37.5
431,27,165263,2,0,L|478:27,1,37.5
503,50,165430,1,0,0:0:0:0:
507,87,165513,1,0,0:0:0:0:
507,131,165596,1,0,0:0:0:0:
506,170,165680,5,0,0:0:0:0:
488,203,165763,1,0,0:0:0:0:
455,229,165846,1,0,0:0:0:0:
414,225,165930,1,0,0:0:0:0:
376,197,166013,1,0,0:0:0:0:
351,167,166096,1,0,0:0:0:0:
338,121,166180,1,0,0:0:0:0:
333,80,166263,6,0,L|326:42,1,37.5
309,24,166430,2,0,L|265:23,1,37.5
246,25,166596,2,0,L|190:24,1,37.5
182,38,166763,2,0,L|161:74,1,37.5
156,99,166930,2,0,L|156:142,1,37.5
160,212,167096,5,0,0:0:0:0:
199,266,167180,1,0,0:0:0:0:
251,308,167263,1,0,0:0:0:0:
307,324,167346,1,0,0:0:0:0:
368,327,167430,1,0,0:0:0:0:
424,316,167513,1,0,0:0:0:0:
457,269,167596,1,0,0:0:0:0:
486,217,167680,1,0,0:0:0:0:
509,163,167763,1,0,0:0:0:0:
325,123,167930,1,0,0:0:0:0:
256,192,168263,12,0,170513,0:0:0:0:
141,274,172180,5,0,0:0:0:0:
244,54,172346,1,0,0:0:0:0:
333,279,172513,1,0,0:0:0:0:
107,137,172680,1,0,0:0:0:0:
358,130,172846,1,0,0:0:0:0:
99,310,173013,5,0,0:0:0:0:
226,16,173180,1,0,0:0:0:0:
388,319,173346,1,0,0:0:0:0:
97,147,173513,1,0,0:0:0:0:
386,136,173680,1,0,0:0:0:0:
151,260,173846,5,0,0:0:0:0:
241,95,174013,1,0,0:0:0:0:
328,267,174180,1,0,0:0:0:0:
136,165,174346,1,0,0:0:0:0:
338,160,174513,1,0,0:0:0:0:
130,31,174680,5,0,0:0:0:0:
136,346,174846,1,0,0:0:0:0:
325,29,175013,1,0,0:0:0:0:
341,348,175180,1,0,0:0:0:0:
46,242,175346,1,0,0:0:0:0:
385,253,175513,1,0,0:0:0:0:
62,57,175680,1,0,0:0:0:0:
341,58,175846,1,0,0:0:0:0:
136,335,176013,1,0,0:0:0:0:
151,24,176180,1,0,0:0:0:0:
331,348,176346,1,0,0:0:0:0:
320,26,176513,1,0,0:0:0:0:
66,127,176680,5,0,0:0:0:0:
404,121,176846,1,0,0:0:0:0:
78,260,177013,1,0,0:0:0:0:
402,265,177180,1,0,0:0:0:0:
249,36,177346,5,0,0:0:0:0:
250,180,177513,1,0,0:0:0:0:
66,176,177680,1,0,0:0:0:0:
250,180,177846,1,0,0:0:0:0:
254,310,178013,1,0,0:0:0:0:
250,180,178180,1,0,0:0:0:0:
437,184,178346,1,0,0:0:0:0:
250,180,178513,1,0,0:0:0:0:
100,51,178680,1,0,0:0:0:0:
250,180,178846,1,0,0:0:0:0:
96,46,179013,1,0,0:0:0:0:
250,180,179180,1,0,0:0:0:0:
100,51,179346,5,0,0:0:0:0:
348,49,179513,1,0,0:0:0:0:
100,51,179680,1,0,0:0:0:0:
348,49,179846,1,0,0:0:0:0:
362,297,180180,5,0,0:0:0:0:
100,51,180346,1,0,0:0:0:0:
381,314,180513,1,0,0:0:0:0:
74,28,180680,1,0,0:0:0:0:
406,335,180846,1,0,0:0:0:0:
43,2,181013,1,0,0:0:0:0:
145,265,181180,5,0,0:0:0:0:
306,111,181346,1,0,0:0:0:0:
121,281,181513,1,0,0:0:0:0:
333,87,181680,1,0,0:0:0:0:
85,305,181846,1,0,0:0:0:0:
361,60,182013,1,0,0:0:0:0:
55,329,182180,1,0,0:0:0:0:
398,27,182346,1,0,0:0:0:0:
251,182,182513,5,0,0:0:0:0:
251,182,182596,1,0,0:0:0:0:
251,182,182680,1,0,0:0:0:0:
251,182,182763,1,0,0:0:0:0:
251,182,182846,1,0,0:0:0:0:
251,182,182930,5,0,0:0:0:0:
264,202,183013,1,0,0:0:0:0:
280,224,183096,1,0,0:0:0:0:
296,246,183180,1,0,0:0:0:0:
318,272,183263,1,0,0:0:0:0:
334,292,183346,1,0,0:0:0:0:
349,310,183430,1,0,0:0:0:0:
365,332,183513,1,0,0:0:0:0:
384,349,183596,1,0,0:0:0:0:
413,354,183680,1,0,0:0:0:0:
438,355,183763,1,0,0:0:0:0:
466,356,183846,1,0,0:0:0:0:
492,323,183930,5,0,0:0:0:0:
498,282,184013,1,0,0:0:0:0:
502,241,184096,1,0,0:0:0:0:
503,197,184180,1,0,0:0:0:0:
502,158,184263,1,0,0:0:0:0:
500,112,184346,1,0,0:0:0:0:
497,66,184430,1,0,0:0:0:0:
491,25,184513,1,0,0:0:0:0:
453,20,184596,1,0,0:0:0:0:
413,18,184680,1,0,0:0:0:0:
367,21,184763,5,0,0:0:0:0:
320,21,184846,1,0,0:0:0:0:
267,22,184930,1,0,0:0:0:0:
212,22,185013,1,0,0:0:0:0:
161,22,185096,1,0,0:0:0:0:
106,25,185180,1,0,0:0:0:0:
54,27,185263,1,0,0:0:0:0:
8,29,185346,1,0,0:0:0:0:
2,81,185430,1,0,0:0:0:0:
2,117,185513,1,0,0:0:0:0:
37,182,185596,5,0,0:0:0:0:
101,232,185680,1,0,0:0:0:0:
175,275,185763,2,0,B|233:280|283:280|332:278|392:268|450:234|483:141|486:106|478:70|467:45|466:37|464:32|426:12|419:22,1,487.5
333,32,187013,5,0,0:0:0:0:
56,112,187180,1,0,0:0:0:0:
332,163,187346,1,0,0:0:0:0:
59,218,187513,1,0,0:0:0:0:
337,259,187680,1,0,0:0:0:0:
56,319,187846,1,0,0:0:0:0:
329,352,188013,1,0,0:0:0:0:
206,37,188180,1,0,0:0:0:0:
65,338,188346,1,0,0:0:0:0:
348,122,188513,1,0,0:0:0:0:
57,118,188680,1,0,0:0:0:0:
211,325,188846,1,0,0:0:0:0:
208,154,189013,1,0,0:0:0:0:
44,322,189180,5,0,0:0:0:0:
53,22,189346,1,0,0:0:0:0:
266,339,189513,1,0,0:0:0:0:
257,23,189680,1,0,0:0:0:0:
12,237,189846,1,0,0:0:0:0:
377,231,190013,1,0,0:0:0:0:
21,106,190180,1,0,0:0:0:0:
373,104,190346,1,0,0:0:0:0:
51,329,190513,1,0,0:0:0:0:
78,14,190680,1,0,0:0:0:0:
278,345,190846,1,0,0:0:0:0:
84,327,191013,5,0,0:0:0:0:
199,19,191180,1,0,0:0:0:0:
344,337,191346,1,0,0:0:0:0:
49,142,191513,1,0,0:0:0:0:
355,147,191680,1,0,0:0:0:0:
467,21,191846,5,0,0:0:0:0:
466,204,192013,1,0,0:0:0:0:
467,21,192180,1,0,0:0:0:0:
466,204,192346,1,0,0:0:0:0:
337,28,192513,1,0,0:0:0:0:
341,204,192680,1,0,0:0:0:0:
337,28,192846,1,0,0:0:0:0:
341,204,193013,1,0,0:0:0:0:
224,32,193180,1,0,0:0:0:0:
226,205,193346,1,0,0:0:0:0:
224,32,193513,1,0,0:0:0:0:
226,205,193680,1,0,0:0:0:0:
66,37,193846,1,0,0:0:0:0:
1,188,194013,1,0,0:0:0:0:
60,39,194180,1,0,0:0:0:0:
1,188,194346,1,0,0:0:0:0:
106,327,194513,1,0,0:0:0:0:
237,229,194680,1,0,0:0:0:0:
106,327,194846,1,0,0:0:0:0:
237,229,195013,1,0,0:0:0:0:
373,330,195180,1,0,0:0:0:0:
453,174,195346,1,0,0:0:0:0:
385,317,195513,1,0,0:0:0:0:
453,174,195680,1,0,0:0:0:0:
365,60,195846,5,0,0:0:0:0:
340,52,195930,1,0,0:0:0:0:
304,41,196013,1,0,0:0:0:0:
95,51,196180,1,0,0:0:0:0:
75,79,196263,1,0,0:0:0:0:
57,112,196346,1,0,0:0:0:0:
92,265,196513,1,0,0:0:0:0:
111,288,196596,1,0,0:0:0:0:
145,313,196680,1,0,0:0:0:0:
294,249,196846,1,0,0:0:0:0:
320,231,196930,1,0,0:0:0:0:
344,206,197013,1,0,0:0:0:0:
233,68,197180,5,0,0:0:0:0:
129,226,197346,1,0,0:0:0:0:
340,230,197513,1,0,0:0:0:0:
233,68,197680,1,0,0:0:0:0:
21,65,197846,1,0,0:0:0:0:
129,226,198013,1,0,0:0:0:0:
233,68,198180,1,0,0:0:0:0:
340,230,198346,1,0,0:0:0:0:
426,65,198513,1,0,0:0:0:0:
233,68,198680,1,0,0:0:0:0:
231,50,202346,5,0,0:0:0:0:
229,140,202513,1,0,0:0:0:0:
229,227,202680,1,0,0:0:0:0:
231,306,202846,1,0,0:0:0:0:
318,305,203013,1,0,0:0:0:0:
313,223,203180,1,0,0:0:0:0:
311,141,203346,1,0,0:0:0:0:
305,59,203513,1,0,0:0:0:0:
434,56,203680,6,0,B|476:80|495:129|498:201|473:255|446:301|386:352|337:351|307:326|297:311|285:298|283:303,1,412.5
245,269,204680,1,0,0:0:0:0:
196,223,204763,2,0,B|152:154|147:108|163:58|182:28|231:3|343:2|379:19|423:44|412:51,1,412.5
448,75,205763,1,0,0:0:0:0:
470,108,205846,2,0,B|491:174|484:155,1,37.5
489,177,206013,2,0,L|494:222,1,37.5
485,246,206180,2,0,L|444:274,1,37.5
420,283,206346,2,0,L|361:284,1,37.5
344,281,206513,2,0,L|302:257,1,37.5
72,48,206846,6,0,L|71:109,1,37.5
245,266,207013,2,0,L|245:201,1,37.5
368,37,207180,2,0,L|369:86,1,37.5
196,149,207346,2,0,L|200:91,1,37.5
387,142,207513,2,0,L|332:177,1,37.5
39,182,207680,2,0,L|98:171,1,37.5
106,170,207846,1,0,0:0:0:0:
127,190,207930,1,0,0:0:0:0:
148,223,208013,1,0,0:0:0:0:
165,261,208096,1,0,0:0:0:0:
184,298,208180,5,0,0:0:0:0:
196,330,208263,1,0,0:0:0:0:
211,365,208346,1,0,0:0:0:0:
246,368,208430,1,0,0:0:0:0:
397,120,208513,1,0,0:0:0:0:
377,63,208596,1,0,0:0:0:0:
324,32,208680,1,0,0:0:0:0:
263,28,208763,1,0,0:0:0:0:
204,33,208846,1,0,0:0:0:0:
149,39,208930,1,0,0:0:0:0:
114,75,209013,6,0,L|90:107,1,37.5
69,139,209180,2,0,L|51:174,1,37.5
23,236,209346,1,0,0:0:0:0:
5,305,209430,1,0,0:0:0:0:
46,362,209513,1,0,0:0:0:0:
99,313,209596,1,0,0:0:0:0:
128,250,209680,1,0,0:0:0:0:
158,187,209763,1,0,0:0:0:0:
194,124,209846,1,0,0:0:0:0:
232,62,209930,1,0,0:0:0:0:
301,86,210013,6,0,L|360:122,1,37.5
395,140,210180,2,0,L|432:167,1,37.5
486,214,210346,1,0,0:0:0:0:
501,293,210430,1,0,0:0:0:0:
418,297,210513,1,0,0:0:0:0:
342,250,210596,1,0,0:0:0:0:
269,196,210680,1,0,0:0:0:0:
199,147,210763,1,0,0:0:0:0:
112,87,210846,1,0,0:0:0:0:
31,33,210930,1,0,0:0:0:0:
27,139,211013,5,0,0:0:0:0:
31,246,211096,1,0,0:0:0:0:
32,336,211180,1,0,0:0:0:0:
124,336,211263,1,0,0:0:0:0:
221,335,211346,1,0,0:0:0:0:
315,335,211430,1,0,0:0:0:0:
407,334,211513,1,0,0:0:0:0:
493,334,211596,1,0,0:0:0:0:
490,239,211680,1,0,0:0:0:0:
485,156,211763,1,0,0:0:0:0:
481,71,211846,1,0,0:0:0:0:
420,4,211930,1,0,0:0:0:0:
320,6,212013,1,0,0:0:0:0:
236,6,212096,1,0,0:0:0:0:
152,8,212180,1,0,0:0:0:0:
71,8,212263,1,0,0:0:0:0:
17,61,212346,1,0,0:0:0:0:
18,136,212430,1,0,0:0:0:0:
63,186,212513,6,0,B|111:219|145:244|185:285|262:310|336:316|392:310|446:233|461:179|457:106|437:99,1,525
428,55,213763,1,0,0:0:0:0:
396,35,213846,1,0,0:0:0:0:
346,22,213930,1,0,0:0:0:0:
296,23,214013,1,0,0:0:0:0:
253,26,214096,1,0,0:0:0:0:
210,29,214180,1,0,0:0:0:0:
170,31,214263,1,0,0:0:0:0:
124,35,214346,1,0,0:0:0:0:
79,39,214430,1,0,0:0:0:0:
25,93,214513,5,0,0:0:0:0:
21,167,214596,1,0,0:0:0:0:
31,241,214680,1,0,0:0:0:0:
78,298,214763,1,0,0:0:0:0:
151,277,214846,1,0,0:0:0:0:
196,218,214930,1,0,0:0:0:0:
228,152,215013,1,0,0:0:0:0:
249,82,215096,1,0,0:0:0:0:
267,8,215180,1,0,0:0:0:0:
342,11,215263,1,0,0:0:0:0:
411,47,215346,1,0,0:0:0:0:
479,123,215430,5,0,0:0:0:0:
497,226,215513,1,0,0:0:0:0:
479,323,215596,1,0,0:0:0:0:
373,324,215680,1,0,0:0:0:0:
273,320,215763,1,0,0:0:0:0:
300,222,215846,1,0,0:0:0:0:
334,125,215930,1,0,0:0:0:0:
416,55,216013,1,0,0:0:0:0:
256,192,216846,12,0,218513,0:0:0:0:
