osu file format v14

[General]
AudioFilename: audio.mp3
AudioLeadIn: 0
PreviewTime: 60688
Countdown: 0
SampleSet: Soft
StackLeniency: 0.7
Mode: 0
LetterboxInBreaks: 0
WidescreenStoryboard: 0

[Editor]
Bookmarks: 356,24659,61115,97571,121874,158330,194786,285923,286018,286113,286208,286303,286398,286493,286588,286683,286778,286873,286968,287062,287157,287252,287347,287442,287537,287632,287727,287822,287917,288012,288107,288202,288297,288392,288487,288581,288676,288771,288866,288961,289056,289151,289246,289341,289436,289531,289626,289721,289816,289911,290006,290100,290195,290290,290385,290480,290575,290670,290765,290860,290955,291050,291145,291240,291335,291430,291524,291619,291714,291809,291904,291999,292094,292189,292284,292379,292474,292569,292664,292759,292854,292949,293043,293138,293233,293328,293423,293518,293613,293708,293803,293898,293993,294088,294183,294278,294373,294468,294562,294657,294752,294847,294942,295037
DistanceSpacing: 1
BeatDivisor: 1
GridSize: 16
TimelineZoom: 1.2

[Metadata]
Title:The greatest
TitleUnicode:The greatest
Artist:Lana Del Rey
ArtistUnicode:Lana Del Rey
Creator:JamDodger
Version:Norman Fucking Rockwell!
Source:
Tags:elizabeth grant nfr norman fucking rockwell f***ing english western alt pop indie
BeatmapID:4547025
BeatmapSetID:2156968

[Difficulty]
HPDrainRate:4.5
CircleSize:4.8
OverallDifficulty:6.2
ApproachRate:7.8
SliderMultiplier:2
SliderTickRate:1

[Events]
//Background and Video events
0,0,"dalle.crf20.jpg",0,0
//Break Periods
//Storyboard Layer 0 (Background)
//Storyboard Layer 1 (Fail)
//Storyboard Layer 2 (Pass)
//Storyboard Layer 3 (Foreground)
//Storyboard Layer 4 (Overlay)
//Storyboard Sound Samples

[TimingPoints]
356,759.493670886076,4,2,2,45,1,0
356,-166.666666666667,4,2,2,45,0,0
1874,-142.857142857143,4,2,2,45,0,0
2634,-125,4,2,2,45,0,0
3393,-333.333333333333,4,2,2,45,0,0
5672,-111.111111111111,4,2,2,45,0,0
6305,-111.111111111111,4,2,2,5,0,0
6431,-333.333333333333,4,2,2,45,0,0
7950,-400,4,2,2,45,0,0
9469,-250,4,2,2,45,0,0
10229,-200,4,2,2,45,0,0
10988,-166.666666666667,4,2,2,45,0,0
11748,-142.857142857143,4,2,2,45,0,0
12507,-111.111111111111,4,2,2,45,0,0
16305,-166.666666666667,4,2,2,45,0,0
17064,-222.222222222222,4,2,2,45,0,0
17824,-142.857142857143,4,2,2,45,0,0
18457,-142.857142857143,4,2,2,5,0,0
18583,-333.333333333333,4,2,2,45,0,0
19976,-333.333333333333,4,2,2,5,0,0
20102,-400,4,2,2,45,0,0
21495,-400,4,2,2,5,0,0
21621,-666.666666666667,4,2,2,45,0,0
26178,-222.222222222222,4,2,2,45,0,0
27318,-142.857142857143,4,2,2,45,0,0
33014,-222.222222222222,4,2,2,45,0,0
37571,-142.857142857143,4,2,2,45,0,0
48204,-133.333333333333,4,2,2,45,0,0
48963,-100,4,2,2,45,0,0
50102,-200,4,2,2,45,0,0
50482,-105.263157894737,4,2,2,45,0,0
51368,-208.333333333333,4,2,2,45,0,0
52001,-111.111111111111,4,2,2,45,0,0
56178,-100,4,2,2,45,0,0
58077,-100,4,2,2,45,0,1
61115,-76.9230769230769,4,2,2,45,0,0
61685,-76.9230769230769,4,2,2,5,0,0
61874,-125,4,2,2,45,0,0
62254,-117.647058823529,4,2,2,45,0,0
62634,-111.111111111111,4,2,2,45,0,0
63014,-105.263157894737,4,2,2,45,0,0
63393,-100,4,2,2,45,0,0
63773,-95.2380952380952,4,2,2,45,0,0
64153,-76.9230769230769,4,2,2,45,0,0
66431,-90.9090909090909,4,2,2,45,0,0
67001,-90.9090909090909,4,2,2,5,0,0
67191,-76.9230769230769,4,2,2,45,0,0
69469,-90.9090909090909,4,2,2,45,0,0
70039,-90.9090909090909,4,2,2,5,0,0
70229,-76.9230769230769,4,2,2,45,0,0
70988,-76.9230769230769,4,2,2,45,0,1
72887,-142.857142857143,4,2,2,45,0,0
73172,-142.857142857143,4,2,2,5,0,0
73267,-125,4,2,2,45,0,0
73773,-117.647058823529,4,2,2,45,0,0
74280,-111.111111111111,4,2,2,45,0,0
74786,-105.263157894737,4,2,2,45,0,0
75166,-76.9230769230769,4,2,2,45,0,0
76305,-90.9090909090909,4,2,2,45,0,0
79153,-90.9090909090909,4,2,2,5,0,0
79343,-76.9230769230769,4,2,2,45,0,0
80862,-90.9090909090909,4,2,2,45,0,0
86178,-142.857142857143,4,2,2,45,0,0
96052,-100,4,2,2,45,0,1
96431,-100,4,2,2,45,0,0
96811,-125,4,2,2,45,0,1
97191,-125,4,2,2,45,0,0
97571,-90.9090909090909,4,2,2,45,0,0
99090,-125,4,2,2,45,0,0
99849,-100,4,2,2,45,0,0
100609,-90.9090909090909,4,2,2,45,0,0
102128,-142.857142857143,4,2,2,45,0,0
102887,-83.3333333333333,4,2,2,45,0,0
103457,-83.3333333333333,4,2,2,5,0,0
103647,-95.2380952380952,4,2,2,45,0,0
104596,-142.857142857143,4,2,2,45,0,0
105925,-100,4,2,2,45,0,0
106685,-100,4,2,2,45,0,1
109343,-166.666666666667,4,2,2,45,0,0
109628,-166.666666666667,4,2,2,5,0,0
109723,-76.9230769230769,4,2,2,45,0,0
111242,-100,4,2,2,45,0,0
112001,-83.3333333333333,4,2,2,45,0,0
112761,-76.9230769230769,4,2,2,45,0,0
113425,-76.9230769230769,4,2,2,5,0,0
113520,-111.111111111111,4,2,2,45,0,0
115039,-125,4,2,2,45,0,0
115799,-142.857142857143,4,2,2,45,0,0
117507,-90.9090909090909,4,2,2,45,0,0
122634,-142.857142857143,4,2,2,45,0,0
129469,-166.666666666667,4,2,2,45,0,0
130988,-222.222222222222,4,2,2,45,0,0
134786,-142.857142857143,4,2,2,45,0,0
139343,-222.222222222222,4,2,2,45,0,0
143900,-90.9090909090909,4,2,2,45,0,0
146178,-83.3333333333333,4,2,2,45,0,0
147697,-90.9090909090909,4,2,2,45,0,0
149216,-100,4,2,2,45,0,0
152254,-71.4285714285714,4,2,2,45,0,0
154153,-100,4,2,2,45,0,0
156811,-100,4,2,2,45,0,1
157191,-100,4,2,2,45,0,0
157571,-100,4,2,2,45,0,1
158330,-76.9230769230769,4,2,2,45,0,0
159090,-125,4,2,2,45,0,0
159469,-117.647058823529,4,2,2,45,0,0
159849,-111.111111111111,4,2,2,45,0,0
160229,-105.263157894737,4,2,2,45,0,0
160609,-100,4,2,2,45,0,0
160988,-95.2380952380952,4,2,2,45,0,0
161368,-76.9230769230769,4,2,2,45,0,0
162887,-90.9090909090909,4,2,2,45,0,0
163647,-100,4,2,2,45,0,0
164406,-83.3333333333333,4,2,2,45,0,0
167444,-83.3333333333333,4,2,2,45,0,1
169723,-100,4,2,2,45,0,1
170482,-125,4,2,2,45,0,0
170862,-117.647058823529,4,2,2,45,0,0
171242,-111.111111111111,4,2,2,45,0,0
171621,-105.263157894737,4,2,2,45,0,0
172001,-90.9090909090909,4,2,2,45,0,0
172571,-90.9090909090909,4,2,2,5,0,0
172761,-90.9090909090909,4,2,2,45,0,0
173520,-76.9230769230769,4,2,2,45,0,0
174280,-90.9090909090909,4,2,2,45,0,0
176368,-90.9090909090909,4,2,2,5,0,0
176558,-76.9230769230769,4,2,2,45,0,0
178077,-90.9090909090909,4,2,2,45,0,0
182634,-142.857142857143,4,2,2,45,0,0
194786,-333.333333333333,4,2,2,45,0,0
196115,-333.333333333333,4,2,2,5,0,0
196305,-400,4,2,2,45,0,0
197634,-400,4,2,2,5,0,0
197824,-666.666666666667,4,2,2,45,0,0
200672,-666.666666666667,4,2,2,5,0,0
200862,-333.333333333333,4,2,2,45,0,0
202191,-333.333333333333,4,2,2,5,0,0
202381,-400,4,2,2,45,0,0
203710,-400,4,2,2,5,0,0
203900,-666.666666666667,4,2,2,45,0,0
206748,-666.666666666667,4,2,2,5,0,0
206938,-333.333333333333,4,2,2,45,0,0
208267,-333.333333333333,4,2,2,5,0,0
208457,-400,4,2,2,45,0,0
209786,-400,4,2,2,5,0,0
209976,-666.666666666667,4,2,2,45,0,0
212824,-666.666666666667,4,2,2,5,0,0
213014,-333.333333333333,4,2,2,45,0,0
214343,-333.333333333333,4,2,2,5,0,0
214533,-400,4,2,2,45,0,0
215862,-400,4,2,2,5,0,0
216052,-666.666666666667,4,2,2,45,0,0
218900,-666.666666666667,4,2,2,5,0,0
219090,-333.333333333333,4,2,2,45,0,0
220419,-333.333333333333,4,2,2,5,0,0
220609,-400,4,2,2,45,0,0
221938,-400,4,2,2,5,0,0
222128,-666.666666666667,4,2,2,45,0,0
224976,-666.666666666667,4,2,2,5,0,0
225166,-333.333333333333,4,2,2,45,0,0
226495,-333.333333333333,4,2,2,5,0,0
226685,-400,4,2,2,45,0,0
228014,-400,4,2,2,5,0,0
228204,-666.666666666667,4,2,2,45,0,0
231052,-333.333333333333,4,2,2,5,0,0
231242,-333.333333333333,4,2,2,45,0,0
232571,-333.333333333333,4,2,2,5,0,0
232761,-400,4,2,2,45,0,0
234090,-400,4,2,2,5,0,0
234280,-666.666666666667,4,2,2,45,0,0
236368,-666.666666666667,4,2,2,5,0,0
236558,-200,4,2,2,45,0,0
237318,-333.333333333333,4,2,2,45,0,0
238647,-333.333333333333,4,2,2,5,0,0
238837,-400,4,2,2,45,0,0
240166,-400,4,2,2,5,0,0
240356,-666.666666666667,4,2,2,45,0,0
242444,-666.666666666667,4,2,2,5,0,0
242634,-200,4,2,2,45,0,0
243393,-333.333333333333,4,2,2,45,0,0
244723,-333.333333333333,4,2,2,5,0,0
244912,-400,4,2,2,45,0,0
246242,-400,4,2,2,5,0,0
246431,-666.666666666667,4,2,2,45,0,0
248520,-666.666666666667,4,2,2,5,0,0
248710,937.5,4,2,2,45,1,0
248710,-200,4,2,2,45,0,0
249647,670.391061452514,4,2,2,45,1,0
249647,-333.333333333333,4,2,2,45,0,0
250820,-333.333333333333,4,2,2,5,0,0
250988,759.493670886076,4,2,2,45,1,0
250988,-400,4,2,2,45,0,0
252317,-400,4,2,2,5,0,0
252506,759.493670886076,4,2,2,45,1,0
252506,-666.666666666667,4,2,2,45,0,0
254594,-666.666666666667,4,2,2,5,0,0
254784,-200,4,2,2,45,0,0
255543,-333.333333333333,4,2,2,45,0,0
256873,-333.333333333333,4,2,2,5,0,0
257062,-400,4,2,2,45,0,0
258392,-400,4,2,2,5,0,0
258581,-666.666666666667,4,2,2,45,0,0
260670,-666.666666666667,4,2,2,5,0,0
260860,-200,4,2,2,45,0,0
261619,-333.333333333333,4,2,2,45,0,0
262949,-333.333333333333,4,2,2,5,0,0
263138,-400,4,2,2,45,0,0
264657,-666.666666666667,4,2,2,45,0,0
266746,-666.666666666667,4,2,2,5,0,0
266936,-200,4,2,2,45,0,0
267695,-333.333333333333,4,2,2,45,0,0
269024,-333.333333333333,4,2,2,5,0,0
269214,-400,4,2,2,45,0,0
271113,-666.666666666667,4,2,2,45,0,0
272822,-666.666666666667,4,2,2,5,0,0
273012,-200,4,2,2,45,0,0
273771,-333.333333333333,4,2,2,45,0,0
275100,-333.333333333333,4,2,2,5,0,0
275290,-285.714285714286,4,2,2,45,0,0
276366,-200,4,2,2,45,0,0
276809,-666.666666666667,4,2,2,45,0,0
278898,-666.666666666667,4,2,2,5,0,0
279088,-200,4,2,2,45,0,0
279847,-333.333333333333,4,2,2,45,0,0
281176,-333.333333333333,4,2,2,5,0,0
281366,-400,4,2,2,45,0,0
282885,-666.666666666667,4,2,2,45,0,0
284974,-666.666666666667,4,2,2,5,0,0
285164,-200,4,2,2,45,0,0
285923,-236.406619385343,4,2,2,45,0,0
287442,-236.406619385343,4,2,2,40,0,0
288961,-236.406619385343,4,2,2,35,0,0
290480,-236.406619385343,4,2,2,30,0,0
291999,-236.406619385343,4,2,2,25,0,0
293518,-236.406619385343,4,2,2,20,0,0
295037,-236.406619385343,4,2,2,5,0,0

[Colours]
Combo1 : 251,184,111
Combo2 : 37,150,190
Combo3 : 46,75,120
Combo4 : 139,221,104

[HitObjects]
169,297,356,6,0,P|227:295|260:346,1,119.999996337891,2|0,2:2|0:0,0:0:0:0:
259,341,1495,1,0,0:0:0:0:
383,238,1874,2,0,P|373:270|383:309,1,69.9999978637696,2|0,2:2|0:0,0:0:0:0:
291,193,2634,2,0,P|289:234|310:273,1,80,2|0,2:2|0:0,0:0:0:0:
208,132,3393,2,0,L|201:195,2,59.9999981689454,2|0|0,2:2|0:0|0:0,0:0:0:0:
217,144,5672,2,0,P|269:145|382:184,1,149.999995422363,10|0,2:2|0:0,0:0:0:0:
362,173,6431,6,0,L|376:236,1,59.9999981689454,10|0,2:2|0:0,0:0:0:0:
461,143,7950,2,0,L|449:193,1,50,2|0,2:2|0:0,0:0:0:0:
394,87,9469,2,0,L|403:128,1,40,2|0,2:2|0:0,0:0:0:0:
303,48,10229,2,0,L|327:92,1,50,2|0,2:2|0:0,0:0:0:0:
190,29,10988,2,0,L|230:72,1,59.9999981689454,2|0,2:2|0:0,0:0:0:0:
59,21,11748,2,0,L|119:58,1,69.9999978637696,2|0,2:2|0:0,0:0:0:0:
0,148,12507,6,0,L|15:243,1,89.9999972534181,10|0,2:2|0:0,0:0:0:0:
86,111,13267,2,0,P|133:133|178:133,1,89.9999972534181
91,228,14026,1,2,2:2:0:0:
91,228,14406,1,0,0:0:0:0:
207,274,14786,2,0,P|164:303|141:342,1,89.9999972534181
172,221,15545,2,0,L|281:237,1,89.9999972534181,6|0,2:2|0:0,0:0:0:0:
319,348,16305,2,0,P|326:314|327:278,1,59.9999981689454,2|0,2:2|0:0,0:0:0:0:
430,366,17064,2,0,P|424:342|423:318,1,44.999998626709
472,131,17824,2,0,B|438:122|415:139|420:164|394:183|356:169,1,116.666663106283,10|0,2:2|0:0,0:0:0:0:
371,173,18583,6,0,L|391:282,1,109.999996643066,10|0,2:2|0:0,0:0:0:0:
317,229,20102,2,0,L|300:324,1,91.6666666666667,2|0,2:2|0:0,0:0:0:0:
224,271,21621,2,0,L|239:353,1,82.4999974822999,2|0,2:2|0:0,0:0:0:0:
237,358,23900,1,2,2:2:0:0:
167,336,24280,1,2,2:2:0:0:
91,384,24659,5,2,2:2:0:0:
91,384,25419,1,2,2:2:0:0:
22,329,26178,2,0,P|52:283|51:242,1,89.9999972534181,2|2,2:2|2:2,0:0:0:0:
52,248,27318,2,0,L|126:265,1,69.9999978637696,0|2,0:0|2:2,0:0:0:0:
166,326,28077,1,0,0:0:0:0:
237,286,28457,1,2,2:2:0:0:
237,286,29216,1,2,2:2:0:0:
237,286,29976,2,0,L|256:356,1,69.9999978637696,2|0,2:2|0:0,0:0:0:0:
315,221,30735,5,2,2:2:0:0:
315,221,31495,1,2,2:2:0:0:
315,221,31874,2,0,L|388:238,1,69.9999978637696,0|2,0:0|2:2,0:0:0:0:
402,272,32444,2,0,L|476:261,1,69.9999978637696
471,262,33014,2,0,P|468:295|469:314,1,44.999998626709,2|0,2:2|0:0,0:0:0:0:
496,384,33773,1,2,2:2:0:0:
496,384,34533,1,2,2:2:0:0:
496,384,35292,1,2,2:2:0:0:
496,384,36052,1,2,2:2:0:0:
427,344,36431,1,0,0:0:0:0:
341,374,36811,5,2,2:2:0:0:
341,374,37571,2,0,L|270:366,1,69.9999978637696,2|0,2:2|0:0,0:0:0:0:
178,384,38330,1,2,2:2:0:0:
147,272,38710,2,0,P|138:306|110:332,1,69.9999978637696,0|2,0:0|2:2,0:0:0:0:
218,290,39469,1,0,0:0:0:0:
304,320,39849,1,2,2:2:0:0:
304,320,40609,1,2,2:2:0:0:
304,320,41368,2,0,B|336:314|376:330|359:352|398:370|432:358,1,139.999995727539,2|2,2:2|2:2,0:0:0:0:
405,272,42507,1,0,0:0:0:0:
453,191,42887,5,2,2:2:0:0:
453,191,43647,1,2,2:2:0:0:
453,191,44406,2,0,L|377:199,1,69.9999978637696,2|0,2:2|0:0,0:0:0:0:
346,93,45356,2,0,P|339:129|333:141,1,34.9999989318848
284,214,45925,1,2,2:2:0:0:
284,214,46305,1,0,0:0:0:0:
284,214,46685,2,0,P|243:186|161:218,1,139.999995727539,2|2,2:2|2:2,0:0:0:0:
104,72,48204,2,0,P|97:115|91:149,1,75.0000028610231,2|0,2:2|0:0,0:0:0:0:
15,253,48773,1,0,0:0:0:0:
15,253,48868,1,0,0:0:0:0:
15,253,48963,6,0,B|39:248|56:226|56:226|50:286|70:323,1,150.000005722046,10|0,2:2|0:0,0:0:0:0:
85,341,49723,1,2,2:2:0:0:
170,301,50102,2,0,L|180:332,1,25
177,324,50482,2,0,P|161:280|239:229,1,126.666663284302,6|0,2:2|0:0,0:0:0:0:
254,241,51242,1,2,2:2:0:0:
254,241,51368,2,0,L|288:242,1,32.00000078125
349,268,51874,1,0,0:0:0:0:
349,268,52001,6,0,B|364:227|344:194|322:203|302:172|311:135,1,134.999995880127,10|0,2:2|0:0,0:0:0:0:
321,136,52761,2,0,L|409:141,2,59.9999981689454,2|0|0,2:2|0:0|0:0,0:0:0:0:
226,101,53520,2,0,L|138:106,2,59.9999981689454,6|0|0,2:2|0:0|0:0,0:0:0:0:
319,62,54280,1,2,2:2:0:0:
389,27,54659,1,0,0:0:0:0:
474,89,55039,6,0,B|452:151|474:166|474:166|483:212|451:237,1,149.999995422363,10|0,2:2|0:0,0:0:0:0:
456,238,55799,1,2,2:2:0:0:
370,178,56178,2,0,L|302:190,1,66.6666666666667
246,244,56558,2,0,P|209:242|161:279,1,100,6|0,2:2|0:0,0:0:0:0:
156,303,57064,1,0,0:0:0:0:
90,250,57318,2,0,L|26:268,1,66.6666666666667,2|0,2:2|0:0,0:0:0:0:
19,289,57697,1,0,0:0:0:0:
2,207,58077,5,10,2:2:0:0:
48,150,58457,1,4,2:2:0:0:
116,218,58837,1,8,2:2:0:0:
173,129,59216,1,4,2:2:0:0:
240,235,59596,1,8,2:2:0:0:
329,100,59976,1,4,2:2:0:0:
403,245,60356,1,8,2:2:0:0:
462,75,60735,1,4,2:2:0:0:
403,245,61115,6,0,B|355:231|315:260|331:284|274:313|220:294,1,194.999991073609,10|0,2:2|0:0,0:0:0:0:
334,341,61874,2,0,L|369:383,1,40,4|0,2:2|0:0,0:0:0:0:
267,337,62254,2,0,L|296:387,1,42.5000008106232
195,321,62634,2,0,L|213:372,1,44.999998626709,2|0,2:2|0:0,0:0:0:0:
127,290,63014,2,0,L|136:347,1,47.4999987316132
66,231,63393,2,0,L|65:285,1,50,6|0,2:2|0:0,0:0:0:0:
16,175,63773,2,0,L|6:232,1,52.4999983978272
85,109,64153,6,0,P|90:188|47:302,1,194.999991073609,10|0,2:2|0:0,0:0:0:0:
86,367,64912,1,6,2:2:0:0:
86,367,65672,1,2,2:2:0:0:
86,367,66431,2,0,P|142:337|121:242,1,165.000005035401,6|0,2:2|0:0,0:0:0:0:
128,247,67191,6,0,B|186:223|231:258|210:278|263:311|325:282,1,194.999991073609,10|0,2:2|0:0,0:0:0:0:
364,243,67950,5,4,2:2:0:0:
336,176,68204,5,0,0:0:0:0:
308,109,68457,5,0,0:0:0:0:
280,42,68710,6,0,L|181:64,1,86.6666626993817,2|0,2:2|0:0,0:0:0:0:
129,128,69216,5,0,0:0:0:0:
30,74,69469,2,0,P|53:182|15:237,1,165.000005035401,4|0,2:2|0:0,0:0:0:0:
28,224,70229,6,0,B|156:213|156:213|128:241|148:287,1,194.999991073609,10|0,2:2|0:0,0:0:0:0:
181,332,70988,1,8,2:2:0:0:
225,258,71368,1,4,2:2:0:0:
276,347,71748,1,8,2:2:0:0:
329,236,72128,1,4,2:2:0:0:
384,358,72507,1,8,2:2:0:0:
454,218,72887,2,0,P|456:243|473:267,1,52.4999983978272,4|0,2:2|0:0,0:0:0:0:
472,266,73267,6,0,L|509:310,1,53.3333333333333,10|0,2:2|0:0,0:0:0:0:
367,256,73773,2,0,L|397:308,1,56.6666677474976,0|4,0:0|2:2,0:0:0:0:
239,234,74280,2,0,L|267:315,1,59.9999981689454
88,191,74786,2,0,L|104:279,1,63.3333316421509,2|0,2:2|0:0,0:0:0:0:
99,253,75166,2,0,P|133:207|213:165,1,129.999994049073,0|6,0:0|2:2,0:0:0:0:
294,188,75925,1,0,0:0:0:0:
365,107,76305,6,0,P|367:165|402:204,1,110.000003356934,10|0,2:2|0:0,0:0:0:0:
289,118,77064,2,0,L|169:139,1,110.000003356934,6|0,2:2|0:0,0:0:0:0:
114,199,77824,1,0,0:0:0:0:
114,199,78204,1,0,0:0:0:0:
114,199,78583,2,0,P|117:257|47:341,1,165.000005035401,6|0,2:2|0:0,0:0:0:0:
53,337,79343,6,0,P|79:301|199:370,1,194.999991073609,10|0,2:2|0:0,0:0:0:0:
208,384,80102,1,4,2:2:0:0:
251,295,80482,1,0,0:0:0:0:
314,368,80862,2,0,L|423:384,1,110.000003356934,2|0,2:2|0:0,0:0:0:0:
496,335,81621,1,6,2:2:0:0:
512,319,81874,2,0,P|522:265|509:212,1,110.000003356934
489,201,82381,6,0,P|445:167|334:215,1,183.333338928223,10|0,2:2|0:0,0:0:0:0:
331,228,83140,1,4,2:2:0:0:
331,228,83900,1,0,0:0:0:0:
331,228,84659,1,6,2:2:0:0:
240,183,85039,1,2,2:2:0:0:
173,254,85419,5,10,2:2:0:0:
173,254,86178,2,0,L|98:275,1,69.9999978637696,6|0,2:2|0:0,0:0:0:0:
105,272,86748,2,0,P|112:300|115:319,1,34.9999989318848,0|2,0:0|2:2,0:0:0:0:
32,191,87507,1,0,0:0:0:0:
32,191,87697,2,0,P|81:168|106:175,1,69.9999978637696,6|0,2:2|0:0,0:0:0:0:
163,91,88267,1,0,0:0:0:0:
163,91,88457,2,0,P|159:153|158:199,1,104.999996795654,10|0,2:2|0:0,0:0:0:0:
165,222,89216,1,6,2:2:0:0:
176,228,89976,1,2,2:2:0:0:
176,228,90735,1,6,2:2:0:0:
258,174,91115,1,2,0:0:0:0:
338,241,91495,5,10,2:2:0:0:
338,241,92001,2,0,L|292:248,1,46.6666652425131,0|4,0:0|2:2,0:0:0:0:
266,276,92507,1,0,0:0:0:0:
211,203,93014,1,2,0:0:0:0:
146,242,93393,2,0,L|67:239,1,69.9999978637696,0|6,0:0|2:2,0:0:0:0:
93,155,94153,1,0,0:0:0:0:
52,76,94533,1,10,2:2:0:0:
52,76,95292,1,0,0:0:0:0:
51,77,96052,5,12,2:2:0:0:
67,105,96178,5,8,2:2:0:0:
70,138,96305,5,8,2:2:0:0:
63,170,96431,5,8,2:2:0:0:
35,161,96811,5,12,2:2:0:0:
27,185,96937,5,8,2:2:0:0:
23,211,97064,5,8,2:2:0:0:
27,237,97191,5,8,2:2:0:0:
29,350,97571,2,0,B|145:365|108:278|230:287,1,220.000006713867,10|6,2:2|2:2,0:0:0:0:
301,357,98710,1,0,0:0:0:0:
296,229,99090,2,0,P|330:231|376:221,1,80,2|0,2:2|0:0,0:0:0:0:
193,229,99849,2,0,P|233:246|294:254,1,100,6|0,2:2|0:0,0:0:0:0:
165,148,100609,6,0,B|103:156|85:218|85:218|67:157|-6:144,1,220.000006713867,10|6,2:2|2:2,0:0:0:0:
11,148,102128,2,0,L|19:224,1,69.9999978637696,2|0,2:2|0:0,0:0:0:0:
58,287,102887,2,0,B|115:306|150:267|138:248|186:210|240:232,1,179.999994506836,6|0,2:2|0:0,0:0:0:0:
213,270,103647,6,0,P|123:217|21:172,1,209.999993591309,10|6,2:2|2:2,0:0:0:0:
26,174,104596,2,0,P|42:158|50:143,1,34.9999989318848
43,267,105166,1,2,2:2:0:0:
43,267,105925,2,0,L|143:275,1,100,6|0,2:2|0:0,0:0:0:0:
45,364,106685,5,10,2:2:0:0:
70,306,107065,1,4,2:2:0:0:
141,347,107445,1,8,2:2:0:0:
169,260,107824,1,4,2:2:0:0:
249,333,108204,1,8,2:2:0:0:
293,201,108584,1,4,2:2:0:0:
388,305,108964,1,8,2:2:0:0:
399,150,109343,2,0,L|413:196,1,44.999998626709,4|0,2:2|0:0,0:0:0:0:
412,193,109723,6,0,B|352:218|302:187|314:149|256:107|181:139,1,227.499989585877,10|0,2:2|0:0,0:0:0:0:
206,131,110482,1,6,2:2:0:0:
131,190,110862,1,0,0:0:0:0:
40,158,111242,2,0,P|33:205|21:267,1,100,2|0,2:2|0:0,0:0:0:0:
111,71,112001,2,0,P|119:128|133:201,1,119.999996337891,6|0,2:2|0:0,0:0:0:0:
0,25,112761,6,0,P|96:29|229:-4,1,227.499989585877,10|0,2:2|0:0,0:0:0:0:
223,0,113520,2,0,P|216:56|312:119,1,179.999994506836,6|2,2:2|2:2,0:0:0:0:
311,121,115039,2,0,L|396:137,1,80,6|0,2:2|0:0,0:0:0:0:
368,54,115799,6,0,L|453:38,1,69.9999978637696,10|0,2:2|0:0,0:0:0:0:
498,114,116558,1,6,2:2:0:0:
498,114,117318,1,2,2:2:0:0:
426,111,117507,2,0,L|437:179,1,55.0000016784668
481,232,117887,2,0,B|421:256|367:232|379:206|327:173|262:189,1,220.000006713867
261,206,118837,5,10,2:2:0:0:
200,78,119216,1,4,2:2:0:0:
145,174,119596,2,0,L|27:186,1,110.000003356934,8|0,2:2|0:0,0:0:0:0:
25,204,120166,1,0,0:0:0:0:
16,226,120356,1,8,2:2:0:0:
1,101,120735,1,4,2:2:0:0:
92,22,121115,2,0,L|101:81,1,55.0000016784668,8|0,2:2|0:0,0:0:0:0:
145,174,121495,2,0,L|154:115,1,55.0000016784668,4|0,2:2|0:0,0:0:0:0:
164,43,121874,5,2,2:2:0:0:
164,43,122634,2,0,L|245:49,1,69.9999978637696,2|0,2:2|0:0,0:0:0:0:
308,97,123393,1,2,2:2:0:0:
407,68,123773,2,0,P|394:106|386:147,1,69.9999978637696,0|2,0:0|2:2,0:0:0:0:
404,154,124343,1,0,0:0:0:0:
426,169,124533,2,0,P|426:209|433:250,1,69.9999978637696,0|2,0:0|2:2,0:0:0:0:
482,312,125292,1,0,0:0:0:0:
418,377,125672,2,0,P|375:368|322:325,1,104.999996795654,2|0,2:2|0:0,0:0:0:0:
300,335,126431,2,0,P|268:304|247:239,1,104.999996795654,2|0,2:2|0:0,0:0:0:0:
226,232,127191,1,2,2:2:0:0:
246,147,127571,1,0,0:0:0:0:
316,87,127950,5,2,2:2:0:0:
316,87,128710,1,2,2:2:0:0:
316,87,128900,2,0,L|274:97,1,34.9999989318848
179,108,129469,2,0,P|191:142|178:193,1,89.9999972534181,2|0,2:2|0:0,0:0:0:0:
178,192,130229,1,2,2:2:0:0:
97,232,130609,1,0,0:0:0:0:
13,190,130988,2,0,P|25:140|31:93,2,89.9999972534181,2|2|2,2:2|2:2|2:2,0:0:0:0:
13,189,133267,1,2,2:2:0:0:
54,265,133647,1,0,0:0:0:0:
11,352,134026,5,2,2:2:0:0:
11,352,134786,2,0,L|84:361,1,69.9999978637696,2|0,2:2|0:0,0:0:0:0:
171,321,135545,1,2,2:2:0:0:
171,321,136305,2,0,L|242:305,1,69.9999978637696,2|0,2:2|0:0,0:0:0:0:
335,337,137064,1,2,2:2:0:0:
335,337,137824,1,2,2:2:0:0:
335,337,138583,1,2,2:2:0:0:
407,269,139216,1,0,0:0:0:0:
407,269,139343,2,0,P|356:263|314:257,1,89.9999972534181,2|2,2:2|2:2,0:0:0:0:
317,257,140862,5,2,2:2:0:0:
234,292,141621,1,2,2:2:0:0:
234,292,142381,1,2,2:2:0:0:
164,225,143140,1,2,2:2:0:0:
164,225,143900,2,0,B|56:245,1,110.000003356934,2|0,2:2|0:0,0:0:0:0:
23,122,144469,2,0,P|13:154|10:179,1,55.0000016784668,0|2,0:0|2:2,0:0:0:0:
4,290,145039,1,0,0:0:0:0:
112,237,145419,1,2,2:2:0:0:
215,312,145799,1,0,0:0:0:0:
334,238,146178,6,0,B|342:212|317:189|317:189|387:199|450:181,1,179.999994506836,10|0,2:2|0:0,0:0:0:0:
474,173,146938,1,2,2:2:0:0:
390,99,147318,1,0,0:0:0:0:
477,13,147697,6,0,P|459:74|478:182,1,165.000005035401,6|0,2:2|0:0,0:0:0:0:
494,190,148457,1,2,2:2:0:0:
418,266,148837,1,0,0:0:0:0:
437,352,149216,6,0,B|397:351|365:375|365:375|376:336|360:293,1,150,10|0,2:2|0:0,0:0:0:0:
316,250,149976,2,0,L|242:263,2,66.6666666666667,2|0|0,2:2|0:0|0:0,0:0:0:0:
374,193,150735,2,0,L|448:206,2,66.6666666666667,6|0|0,2:2|0:0|0:0,0:0:0:0:
256,167,151495,1,2,2:2:0:0:
187,304,151874,1,0,0:0:0:0:
190,140,152254,6,0,B|132:121|80:152|94:183|58:211|-12:197,1,209.999993591309,10|0,2:2|0:0,0:0:0:0:
29,131,153014,2,0,L|148:206,1,139.999995727539,2|0,2:2|0:0,0:0:0:0:
108,291,153773,1,6,2:2:0:0:
147,185,154153,2,0,L|257:179,1,100,0|2,0:0|2:2,0:0:0:0:
354,237,154912,1,0,0:0:0:0:
462,167,155292,5,10,2:2:0:0:
416,224,155672,1,4,2:2:0:0:
348,156,156052,1,8,2:2:0:0:
291,245,156431,1,4,2:2:0:0:
223,140,156811,5,12,2:2:0:0:
192,128,156938,1,8,2:2:0:0:
168,104,157064,2,0,L|116:112,1,33.3333333333333,8|4,2:2|2:2,0:0:0:0:
181,193,157571,5,12,0:0:0:0:
147,195,157697,1,8,0:0:0:0:
117,208,157824,1,8,0:0:0:0:
92,230,157950,5,12,0:0:0:0:
75,258,158077,1,8,0:0:0:0:
68,291,158203,1,8,0:0:0:0:
71,325,158330,6,0,B|128:344|166:319|157:282|212:254|268:279,1,194.999991073609,10|0,2:2|0:0,0:0:0:0:
247,272,159090,2,0,L|225:330,1,53.3333333333333,4|0,2:2|0:0,0:0:0:0:
316,256,159469,2,0,L|306:317,1,56.6666677474976
377,233,159849,2,0,L|380:289,1,44.999998626709,2|0,2:2|0:0,0:0:0:0:
434,197,160229,2,0,L|449:251,1,47.4999987316132
479,150,160609,2,0,L|505:200,1,50,6|0,2:2|0:0,0:0:0:0:
381,145,160988,2,0,L|417:188,1,52.4999983978272
302,189,161368,6,0,B|255:202|212:186|212:186|206:173|206:173|178:156|115:164,1,194.999991073609,10|0,2:2|0:0,0:0:0:0:
68,199,162128,1,6,2:2:0:0:
68,199,162887,2,0,L|52:316,1,110.000003356934,2|0,2:2|0:0,0:0:0:0:
145,159,163647,2,0,L|161:276,1,100,6|0,2:2|0:0,0:0:0:0:
10,140,164406,6,0,B|111:152|71:71|178:86,1,179.999994506836,10|0,2:2|0:0,0:0:0:0:
259,147,165166,2,0,L|351:137,2,79.9999975585938,4|0|0,2:2|0:0|0:0,0:0:0:0:
176,200,165925,2,0,L|84:190,2,79.9999975585938,2|0|0,2:2|0:0|0:0,0:0:0:0:
278,249,166685,1,4,2:2:0:0:
382,206,167064,1,0,0:0:0:0:
499,261,167444,5,10,2:2:0:0:
453,318,167824,1,4,2:2:0:0:
385,250,168204,1,8,2:2:0:0:
328,339,168583,1,4,2:2:0:0:
301,358,168837,2,0,L|226:365,1,39.9999987792969,8|4,2:2|2:2,0:0:0:0:
107,289,169216,2,0,L|179:296,1,39.9999987792969,8|4,2:2|2:2,0:0:0:0:
11,234,169723,5,12,0:0:0:0:
0,202,169849,1,8,0:0:0:0:
1,169,169976,1,8,0:0:0:0:
16,140,170102,5,12,0:0:0:0:
27,109,170229,1,8,0:0:0:0:
24,76,170355,1,8,0:0:0:0:
13,44,170482,6,0,L|89:25,1,53.3333333333333,10|0,2:2|0:0,0:0:0:0:
84,113,170862,2,0,L|161:121,1,56.6666677474976
117,192,171242,2,0,L|187:226,1,59.9999981689454,4|0,2:2|0:0,0:0:0:0:
123,284,171621,2,0,L|177:340,1,63.3333316421509
66,354,172001,2,0,P|54:266|8:191,1,165.000005035401,2|0,2:2|0:0,0:0:0:0:
0,177,172761,1,6,2:2:0:0:
94,198,173140,1,0,0:0:0:0:
152,135,173520,6,0,B|198:117|247:132|233:172|283:191|337:167,1,194.999991073609,10|0,2:2|0:0,0:0:0:0:
333,100,174280,2,0,B|270:88|219:128|252:168|203:205|143:204,1,220.000006713867,6|0,2:2|0:0,0:0:0:0:
62,176,175419,1,0,0:0:0:0:
62,176,175799,2,0,P|92:221|65:338,1,165.000005035401,6|0,2:2|0:0,0:0:0:0:
75,325,176558,6,0,P|136:320|284:344,1,194.999991073609,10|0,2:2|0:0,0:0:0:0:
302,348,177318,1,4,2:2:0:0:
382,278,177697,1,0,0:0:0:0:
478,349,178077,2,0,L|495:236,1,110.000003356934,2|0,2:2|0:0,0:0:0:0:
506,160,178836,1,6,2:2:0:0:
490,175,179089,2,0,P|436:185|383:172,1,110.000003356934
372,152,179596,6,0,P|338:108|386:-3,1,183.333338928223,10|0,2:2|0:0,0:0:0:0:
422,7,180356,1,4,2:2:0:0:
422,7,181115,1,0,0:0:0:0:
422,7,181874,1,6,2:2:0:0:
394,99,182254,1,2,2:2:0:0:
481,153,182634,6,0,L|479:238,1,69.9999978637696,10|0,2:2|0:0,0:0:0:0:
503,314,183393,1,6,2:2:0:0:
400,201,183773,2,0,P|408:232|414:244,1,34.9999989318848
418,248,184153,2,0,B|380:236|351:257|357:277|339:299|285:289,1,139.999995727539,2|6,2:2|2:2,0:0:0:0:
209,263,185292,1,0,0:0:0:0:
126,317,185672,6,0,P|131:275|98:176,1,139.999995727539,10|6,2:2|2:2,0:0:0:0:
48,150,187191,1,2,2:2:0:0:
48,150,187950,1,6,2:2:0:0:
47,149,188710,2,0,B|88:156|99:193|99:193|109:155|147:151,1,139.999995727539,10|4,2:2|2:2,0:0:0:0:
146,151,190229,2,0,P|141:203|216:215,1,139.999995727539,2|6,0:0|2:2,0:0:0:0:
216,299,191558,1,0,0:0:0:0:
216,299,191653,1,0,0:0:0:0:
216,299,191748,6,0,B|240:294|257:272|257:272|251:332|271:369,1,139.999995727539,10|4,2:2|2:2,0:0:0:0:
335,318,193267,1,2,0:0:0:0:
335,318,194026,1,6,2:2:0:0:
336,313,194786,6,0,L|444:332,1,104.999996795654,2|0,2:2|0:0,0:0:0:0:
410,263,196305,2,0,L|500:252,1,87.5,2|0,2:2|0:0,0:0:0:0:
456,191,197824,2,0,P|425:194|351:159,1,112.499996566773,2|0,2:2|0:0,0:0:0:0:
316,104,200862,6,0,L|307:212,1,104.999996795654,2|0,2:2|0:0,0:0:0:0:
223,172,202381,2,0,L|238:262,1,87.5,2|0,2:2|0:0,0:0:0:0:
336,282,203900,2,0,B|302:278|285:296|287:312|265:327|236:321,1,112.499996566773,2|0,2:2|0:0,0:0:0:0:
164,312,206938,6,0,L|54:328,1,104.999996795654,2|0,2:2|0:0,0:0:0:0:
102,253,208457,2,0,L|14:247,1,87.5,2|0,2:2|0:0,0:0:0:0:
50,181,209976,2,0,P|60:133|67:69,1,112.499996566773,2|0,2:2|0:0,0:0:0:0:
35,3,213014,6,0,L|139:12,1,104.999996795654,2|0,2:2|0:0,0:0:0:0:
189,82,214533,2,0,L|278:73,1,87.5,2|0,2:2|0:0,0:0:0:0:
354,15,216052,2,0,P|351:53|410:88,1,112.499996566773,2|0,2:2|0:0,0:0:0:0:
493,71,219090,6,0,L|484:178,1,104.999996795654,2|0,2:2|0:0,0:0:0:0:
408,143,220609,2,0,L|415:234,1,87.5,2|0,2:2|0:0,0:0:0:0:
473,303,222128,2,0,L|360:319,1,112.499996566773,2|0,2:2|0:0,0:0:0:0:
286,353,225166,6,0,P|284:306|273:240,1,104.999996795654,2|0,2:2|0:0,0:0:0:0:
220,289,226685,2,0,P|173:281|126:279,1,87.5,2|0,2:2|0:0,0:0:0:0:
57,306,228204,2,0,B|48:242|81:263|83:196,1,112.499996566773,2|0,2:2|0:0,0:0:0:0:
41,130,231242,6,0,L|146:143,1,104.999996795654,2|0,2:2|0:0,0:0:0:0:
105,66,232761,2,0,L|201:54,1,87.5,2|0,2:2|0:0,0:0:0:0:
285,95,234280,2,0,P|286:139|290:183,1,82.4999974822999,2|0,2:2|0:0,0:0:0:0:
306,196,236558,2,0,L|334:202,1,25,2|0,2:2|0:0,0:0:0:0:
358,123,236938,2,0,L|386:117,1,25
458,186,237318,6,0,P|442:198|461:267,1,104.999996795654,2|0,2:2|0:0,0:0:0:0:
507,334,238837,2,0,L|417:350,1,87.5,2|0,2:2|0:0,0:0:0:0:
367,292,240356,2,0,L|284:284,1,82.4999974822999
270,315,242634,2,0,L|242:321,1,25,2|0,2:2|0:0,0:0:0:0:
218,242,243014,2,0,L|190:236,1,25
119,314,243393,6,0,L|111:202,1,104.999996795654,2|0,2:2|0:0,0:0:0:0:
38,244,244912,2,0,L|44:154,1,87.5,2|0,2:2|0:0,0:0:0:0:
19,86,246431,2,0,B|71:76|50:109|101:100,1,82.4999974822999
97,100,248710,2,0,L|91:124,1,25,2|0,2:2|0:0,0:0:0:0:
170,48,249178,2,0,L|175:72,1,25
244,7,249647,6,0,P|285:32|345:23,1,104.999996795654,2|0,2:2|0:0,0:0:0:0:
399,52,250988,2,0,L|390:144,1,87.5,2|0,2:2|0:0,0:0:0:0:
347,211,252506,2,0,L|430:201,1,82.4999974822999
428,201,254784,2,0,P|429:220|426:237,1,25,2|0,2:2|0:0,0:0:0:0:
504,164,255164,2,0,P|503:182|506:199,1,25
431,138,255543,6,0,B|402:133|382:145|385:158|364:173|333:170,1,104.999996795654,2|0,2:2|0:0,0:0:0:0:
261,153,257062,2,0,P|263:201|233:229,1,87.5,2|0,2:2|0:0,0:0:0:0:
139,249,258581,2,0,L|222:258,1,82.4999974822999
221,257,260860,2,0,L|217:292,1,25,2|0,2:2|0:0,0:0:0:0:
295,231,261240,2,0,L|299:265,1,25
241,193,261619,6,0,L|137:203,1,104.999996795654,2|0,2:2|0:0,0:0:0:0:
98,262,263138,2,0,L|4:253,1,87.5,2|0,2:2|0:0,0:0:0:0:
0,271,264657,1,0,0:0:0:0:
30,172,265037,2,0,P|58:166|71:129,1,67.4999979400635
71,132,266936,2,0,L|73:156,1,25,2|0,2:2|0:0,0:0:0:0:
150,106,267316,2,0,L|147:130,1,25
217,74,267695,6,0,L|231:191,1,104.999996795654,2|0,2:2|0:0,0:0:0:0:
302,147,269214,2,0,L|290:253,1,100,2|0,2:2|0:0,0:0:0:0:
210,274,271113,2,0,P|241:296|254:326,1,67.4999979400635
253,321,273012,2,0,L|255:296,1,25,2|0,2:2|0:0,0:0:0:0:
332,347,273392,2,0,L|329:322,1,25
312,243,273771,6,0,L|332:347,1,104.999996795654,2|0,2:2|0:0,0:0:0:0:
253,321,275290,2,0,L|174:318,1,78.7499975967408,2|0,2:2|0:0,0:0:0:0:
124,265,276366,2,0,P|116:281|110:295,1,33.3333333333333
46,344,276809,2,0,P|45:310|34:257,1,82.4999974822999
35,262,279088,2,0,P|22:261|10:262,1,25,2|0,2:2|0:0,0:0:0:0:
76,198,279468,2,0,P|63:198|51:197,1,25
118,131,279847,6,0,L|14:134,1,104.999996795654,2|0,2:2|0:0,0:0:0:0:
72,65,281366,2,0,L|160:67,1,87.5,2|0,2:2|0:0,0:0:0:0:
223,103,282885,2,0,P|215:136|213:186,1,82.4999974822999
213,184,285164,2,0,L|218:208,1,25,2|0,2:2|0:0,0:0:0:0:
140,236,285543,2,0,L|134:260,1,25
168,334,285923,6,0,B|210:337|258:301|258:301|267:282|235:250|190:201|171:119|201:68|258:53|315:60|345:84|349:128|349:128|372:96|410:75|480:99|503:173|480:263|427:301|388:315|335:300|324:333|324:333|388:376|463:379,1,1015.20001363184,2|0,2:2|0:0,0:0:0:0:
