osu file format v14

[General]
AudioFilename: theblackestday2.mp3
AudioLeadIn: 0
PreviewTime: 259754
Countdown: 0
SampleSet: Soft
StackLeniency: 0
Mode: 0
LetterboxInBreaks: 0
WidescreenStoryboard: 0

[Editor]
DistanceSpacing: 0.8
BeatDivisor: 8
GridSize: 32
TimelineZoom: 1

[Metadata]
Title:The Blackest Day
TitleUnicode:The Blackest Day
Artist:Lana Del Rey
ArtistUnicode:Lana Del Rey
Creator:jas
Version:Solitude
Source:
Tags:craezy honeymoon hm lizzy elizabeth grant english pop jazz alt alternative trap
BeatmapID:2885723
BeatmapSetID:1398604

[Difficulty]
HPDrainRate:5.5
CircleSize:4.8
OverallDifficulty:8
ApproachRate:7.8
SliderMultiplier:1.4
SliderTickRate:1

[Events]
//Background and Video events
0,0,"mewhenimsad.jpg",0,0
//Break Periods
2,287037,303836
//Storyboard Layer 0 (Background)
//Storyboard Layer 1 (Fail)
//Storyboard Layer 2 (Pass)
//Storyboard Layer 3 (Foreground)
//Storyboard Layer 4 (Overlay)
//Storyboard Sound Samples

[TimingPoints]
11282,555.555555555556,4,2,1,35,1,0
11837,-133.333333333333,4,2,1,35,0,0
12393,-200,4,2,1,35,0,0
13504,-100,4,2,1,35,0,0
14059,-133.333333333333,4,2,1,35,0,0
15726,-200,4,2,1,35,0,0
19059,-133.333333333333,4,2,1,35,0,0
19615,-114.285714285714,4,2,1,35,0,0
20170,-133.333333333333,4,2,1,35,0,0
22393,-160,4,2,1,35,0,0
24615,-200,4,2,1,35,0,0
29059,-100,4,2,1,35,0,0
29615,-133.333333333333,4,2,1,35,0,0
30170,-200,4,2,1,35,0,0
32393,-100,4,2,1,35,0,0
33504,-133.333333333333,4,2,1,35,0,0
37393,-114.285714285714,4,2,1,35,0,0
37948,-133.333333333333,4,2,1,35,0,0
40170,-160,4,2,1,35,0,0
42393,-133.333333333333,4,2,1,35,0,0
46837,-100,4,2,1,50,0,0
64615,-83.3333333333333,4,2,1,60,0,0
68504,-83.3333333333333,4,2,1,60,0,0
68596,-83.3333333333333,4,2,0,5,0,0
68689,-83.3333333333333,4,2,1,60,0,0
68782,-83.3333333333333,4,2,0,5,0,0
68874,-83.3333333333333,4,2,1,60,0,0
68967,-83.3333333333333,4,2,0,5,0,0
69059,-83.3333333333333,4,2,1,60,0,0
77393,-83.3333333333333,4,2,1,60,0,0
77485,-83.3333333333333,4,2,0,5,0,0
77578,-83.3333333333333,4,2,1,60,0,0
77670,-83.3333333333333,4,2,0,5,0,0
77763,-83.3333333333333,4,2,1,60,0,0
77856,-83.3333333333333,4,2,0,5,0,0
77948,-83.3333333333333,4,2,1,60,0,0
86282,-83.3333333333333,4,2,1,60,0,0
86374,-83.3333333333333,4,2,0,5,0,0
86467,-83.3333333333333,4,2,1,60,0,0
86559,-83.3333333333333,4,2,0,5,0,0
86652,-83.3333333333333,4,2,1,60,0,0
86744,-83.3333333333333,4,2,0,5,0,0
86837,-83.3333333333333,4,2,1,60,0,0
95170,-83.3333333333333,4,2,1,60,0,0
95263,-83.3333333333333,4,2,0,5,0,0
95356,-83.3333333333333,4,2,1,60,0,0
95448,-83.3333333333333,4,2,0,5,0,0
95541,-83.3333333333333,4,2,1,60,0,0
95633,-83.3333333333333,4,2,0,5,0,0
95726,-83.3333333333333,4,2,1,60,0,0
100170,-76.9230769230769,4,2,1,65,0,1
101282,-66.6666666666667,4,2,1,65,0,1
102393,-76.9230769230769,4,2,1,65,0,1
103504,-200,4,2,1,65,0,1
104059,-200,4,2,1,65,0,1
104152,-83.3333333333333,4,2,0,5,0,1
104244,-200,4,2,1,65,0,1
104337,-83.3333333333333,4,2,0,5,0,1
104430,-200,4,2,1,65,0,1
104522,-200,4,2,0,5,0,1
104615,-76.9230769230769,4,2,1,65,0,1
105726,-66.6666666666667,4,2,1,65,0,1
106837,-76.9230769230769,4,2,1,65,0,1
107948,-200,4,2,1,65,0,1
109059,-76.9230769230769,4,2,1,65,0,1
110170,-66.6666666666667,4,2,1,65,0,1
111282,-76.9230769230769,4,2,1,65,0,1
112393,-58.8235294117647,4,2,1,65,0,1
112948,-58.8235294117647,4,2,1,65,0,1
113041,-200,4,2,0,5,0,1
113133,-58.8235294117647,4,2,1,65,0,1
113226,-200,4,2,0,5,0,1
113319,-58.8235294117647,4,2,1,65,0,1
113411,-58.8235294117647,4,2,0,5,0,1
113504,-76.9230769230769,4,2,1,65,0,1
117809,-76.9230769230769,4,2,1,65,0,0
117948,-71.4285714285714,4,2,1,70,0,1
121282,-66.6666666666667,4,2,1,70,0,1
121837,-66.6666666666667,4,2,1,70,0,1
121930,-200,4,2,0,5,0,1
122022,-66.6666666666667,4,2,1,70,0,1
122115,-200,4,2,0,5,0,1
122207,-66.6666666666667,4,2,1,70,0,1
122300,-66.6666666666667,4,2,0,5,0,1
122393,-71.4285714285714,4,2,1,70,0,1
130170,-66.6666666666667,4,2,1,70,0,1
130726,-66.6666666666667,4,2,1,70,0,1
130819,-200,4,2,0,5,0,1
130911,-66.6666666666667,4,2,1,70,0,1
131004,-66.6666666666667,4,2,0,5,0,1
131096,-66.6666666666667,4,2,1,70,0,1
131189,-66.6666666666667,4,2,0,5,0,1
131282,-71.4285714285714,4,2,1,70,0,1
135726,-100,4,2,1,35,0,0
136282,-133.333333333333,4,2,1,35,0,0
136837,-200,4,2,1,35,0,0
137948,-100,4,2,1,35,0,0
138504,-133.333333333333,4,2,1,35,0,0
140170,-200,4,2,1,35,0,0
143504,-133.333333333333,4,2,1,35,0,0
144059,-114.285714285714,4,2,1,35,0,0
144615,-133.333333333333,4,2,1,35,0,0
146837,-160,4,2,1,35,0,0
149059,-200,4,2,1,35,0,0
153504,-100,4,2,1,35,0,0
154059,-133.333333333333,4,2,1,35,0,0
156837,-100,4,2,1,35,0,0
157948,-133.333333333333,4,2,1,35,0,0
161837,-114.285714285714,4,2,1,35,0,0
162393,-133.333333333333,4,2,1,35,0,0
164615,-160,4,2,1,35,0,0
166837,-133.333333333333,4,2,1,35,0,0
171282,-100,4,2,1,50,0,0
189059,-83.3333333333333,4,2,1,60,0,0
192948,-83.3333333333333,4,2,1,60,0,0
193041,-83.3333333333333,4,2,0,5,0,0
193133,-83.3333333333333,4,2,1,60,0,0
193226,-83.3333333333333,4,2,0,5,0,0
193319,-83.3333333333333,4,2,1,60,0,0
193411,-83.3333333333333,4,2,0,5,0,0
193504,-83.3333333333333,4,2,1,60,0,0
201837,-83.3333333333333,4,2,1,60,0,0
201930,-83.3333333333333,4,2,0,5,0,0
202022,-83.3333333333333,4,2,1,60,0,0
202115,-83.3333333333333,4,2,0,5,0,0
202207,-83.3333333333333,4,2,1,60,0,0
202300,-83.3333333333333,4,2,0,5,0,0
202393,-83.3333333333333,4,2,1,60,0,0
210726,-83.3333333333333,4,2,1,60,0,0
210819,-83.3333333333333,4,2,0,5,0,0
210911,-83.3333333333333,4,2,1,60,0,0
211004,-83.3333333333333,4,2,0,5,0,0
211096,-83.3333333333333,4,2,1,60,0,0
211189,-83.3333333333333,4,2,0,5,0,0
211282,-83.3333333333333,4,2,1,60,0,0
219615,-83.3333333333333,4,2,1,60,0,0
219707,-83.3333333333333,4,2,0,5,0,0
219800,-83.3333333333333,4,2,1,60,0,0
219893,-83.3333333333333,4,2,0,5,0,0
219985,-83.3333333333333,4,2,1,60,0,0
220078,-83.3333333333333,4,2,0,5,0,0
220170,-83.3333333333333,4,2,1,60,0,0
224615,-76.9230769230769,4,2,1,65,0,1
225726,-66.6666666666667,4,2,1,65,0,1
226837,-76.9230769230769,4,2,1,65,0,1
227948,-200,4,2,1,65,0,1
228504,-200,4,2,1,65,0,1
228596,-200,4,2,1,5,0,1
228689,-200,4,2,1,65,0,1
228782,-200,4,2,1,5,0,1
228874,-200,4,2,1,65,0,1
228967,-200,4,2,1,5,0,1
229059,-76.9230769230769,4,2,1,65,0,1
230170,-66.6666666666667,4,2,1,65,0,1
231282,-76.9230769230769,4,2,1,65,0,1
232393,-200,4,2,1,65,0,1
233504,-76.9230769230769,4,2,1,65,0,1
234615,-66.6666666666667,4,2,1,65,0,1
235726,-76.9230769230769,4,2,1,65,0,1
236837,-58.8235294117647,4,2,1,65,0,1
237393,-58.8235294117647,4,2,1,65,0,1
237485,-200,4,2,1,5,0,1
237578,-58.8235294117647,4,2,1,65,0,1
237670,-200,4,2,1,5,0,1
237763,-58.8235294117647,4,2,1,65,0,1
237856,-58.8235294117647,4,2,0,5,0,1
237948,-76.9230769230769,4,2,1,65,0,1
242254,-76.9230769230769,4,2,1,65,0,0
242393,-71.4285714285714,4,2,1,70,0,1
245726,-66.6666666666667,4,2,1,70,0,1
246282,-66.6666666666667,4,2,1,70,0,1
246374,-200,4,2,1,5,0,1
246467,-66.6666666666667,4,2,1,70,0,1
246559,-58.8235294117647,4,2,0,5,0,1
246652,-66.6666666666667,4,2,1,70,0,1
246744,-58.8235294117647,4,2,0,5,0,1
246837,-71.4285714285714,4,2,1,70,0,1
254615,-66.6666666666667,4,2,1,70,0,1
255170,-66.6666666666667,4,2,1,70,0,1
255263,-58.8235294117647,4,2,0,5,0,1
255356,-66.6666666666667,4,2,1,70,0,1
255448,-58.8235294117647,4,2,0,5,0,1
255541,-66.6666666666667,4,2,1,70,0,1
255633,-58.8235294117647,4,2,0,5,0,1
255726,-71.4285714285714,4,2,1,70,0,1
259059,-200,4,2,1,70,0,0
259615,-200,4,2,1,5,0,0
259893,-200,4,2,1,70,0,0
260170,-66.6666666666667,4,2,1,75,0,1
267948,-100,4,2,1,75,0,1
268504,-80,4,2,1,75,0,1
269059,-66.6666666666667,4,2,1,75,0,1
272393,-100,4,2,1,75,0,1
272948,-80,4,2,1,75,0,1
273504,-66.6666666666667,4,2,1,75,0,1
274615,-100,4,2,1,75,0,1
275170,-80,4,2,1,75,0,1
275726,-66.6666666666667,4,2,1,75,0,1
282948,-80,4,2,1,75,0,1
283504,-100,4,2,1,75,0,1
284059,-133.333333333333,4,2,1,75,0,1
285726,-66.6666666666667,4,2,1,75,0,1
286837,-100,4,2,1,75,0,0
304615,-200,4,2,1,35,0,0
312948,-133.333333333333,4,2,1,35,0,0
313504,-200,4,2,1,35,0,0
316837,-133.333333333333,4,2,1,35,0,0
317948,-200,4,2,1,35,0,0
321004,-200,4,2,1,60,0,0
322393,-66.6666666666667,4,2,1,70,0,1
326282,-66.6666666666667,4,2,1,70,0,1
326374,-58.8235294117647,4,2,0,5,0,1
326467,-66.6666666666667,4,2,1,70,0,1
326559,-58.8235294117647,4,2,0,5,0,1
326652,-66.6666666666667,4,2,1,70,0,1
326744,-58.8235294117647,4,2,0,5,0,1
326837,-66.6666666666667,4,2,1,70,0,1
335170,-66.6666666666667,4,2,1,70,0,1
335263,-58.8235294117647,4,2,0,5,0,1
335356,-66.6666666666667,4,2,1,70,0,1
335448,-58.8235294117647,4,2,0,5,0,1
335541,-66.6666666666667,4,2,1,70,0,1
335633,-58.8235294117647,4,2,0,5,0,1
335726,-66.6666666666667,4,2,1,70,0,1
344059,-66.6666666666667,4,2,1,70,0,1
344152,-58.8235294117647,4,2,0,5,0,1
344244,-66.6666666666667,4,2,1,70,0,1
344337,-58.8235294117647,4,2,0,5,0,1
344430,-66.6666666666667,4,2,1,70,0,1
344522,-58.8235294117647,4,2,0,5,0,1
344615,-66.6666666666667,4,2,1,70,0,1
352393,-200,4,2,1,70,0,1
353504,-200,4,2,1,70,0,0
353643,-200,4,2,0,5,0,0

[Colours]
Combo1 : 225,113,141
Combo2 : 224,115,78
Combo3 : 225,172,72
Combo4 : 175,225,83
Combo5 : 86,214,163

[HitObjects]
80,212,11282,6,0,L|63:138,1,70,2|0,3:2|0:0,0:0:0:0:
143,187,11837,2,0,L|129:131,1,52.5000020027161,0|0,0:0|0:0,0:0:0:0:
205,163,12393,2,0,L|193:114,1,35,0|0,0:0|0:0,0:0:0:0:
268,139,12948,1,2,0:0:0:0:
265,127,13226,1,2,0:0:0:0:
338,50,13504,6,0,B|383:59|395:28|440:37,1,105,2|0,0:0|0:0,0:0:0:0:
448,45,14059,2,0,L|436:109,1,52.5000020027161,0|0,0:0|0:0,0:0:0:0:
372,160,14615,2,0,P|431:167|460:210,1,105.000004005432,2|0,0:0|0:0,0:0:0:0:
395,223,15448,1,0,0:0:0:0:
473,306,15726,6,0,L|188:250,1,280,2|0,3:2|0:0,0:0:0:0:
198,252,18504,5,2,0:0:0:0:
134,263,18782,1,2,0:0:0:0:
90,215,19059,6,0,L|100:157,1,52.5000020027161,2|0,0:0|0:0,0:0:0:0:
23,209,19615,2,0,L|34:143,1,61.2500005841255,2|0,0:0|0:0,0:0:0:0:
51,52,20170,6,0,B|45:19|16:6|16:6|176:-27|216:143,1,315.000012016297,2|0,3:2|0:0,0:0:0:0:
44,229,22393,2,0,B|131:187|202:322|289:273,1,262.5,2|0,0:0|0:0,0:0:0:0:
463,330,24430,1,2,0:0:0:0:
454,341,24522,1,2,0:0:0:0:
445,352,24615,2,0,P|420:254|482:85,1,280,2|0,3:2|0:0,0:0:0:0:
429,283,29059,6,0,L|445:356,1,70,2|0,3:2|0:0,0:0:0:0:
366,308,29615,2,0,L|379:363,1,52.5000020027161,0|0,0:0|3:0,0:0:0:0:
304,332,30170,2,0,L|316:381,1,35,0|0,0:0|0:0,0:0:0:0:
241,356,30726,1,2,0:0:0:0:
244,368,31004,1,2,0:0:0:0:
232,364,31282,1,2,0:0:0:0:
170,380,31559,5,0,0:0:0:0:
188,282,31837,1,0,0:0:0:0:
206,184,32115,1,0,0:0:0:0:
148,114,32393,6,0,B|89:99|71:150|11:138,1,140,2|0,0:0|0:0,0:0:0:0:
123,179,33226,1,0,0:0:0:0:
33,71,33504,6,0,P|38:15|108:45,1,157.500006008148,2|0,3:2|3:0,0:0:0:0:
355,114,36559,5,2,0:0:0:0:
361,124,36837,2,0,L|369:65,1,52.5000020027161,2|0,0:0|0:0,0:0:0:0:
427,138,37393,2,0,L|435:76,1,61.2500005841255,2|0,0:0|0:0,0:0:0:0:
510,201,37948,6,0,P|444:203|395:285,1,157.500006008148,2|0,3:2|3:0,0:0:0:0:
87,112,40170,2,0,B|128:205|-2:268|49:360,1,262.5,2|0,0:0|0:0,0:0:0:0:
108,45,42393,2,0,P|52:6|33:71,1,157.500006008148,2|0,3:2|3:0,0:0:0:0:
414,95,46004,5,2,0:0:0:0:
435,28,46282,1,2,0:0:0:0:
439,32,46837,5,2,3:2:0:0:
393,162,47254,1,2,0:0:0:0:
263,116,47670,1,2,3:2:0:0:
206,158,47948,6,0,L|219:241,1,70,10|0,0:0|0:0,0:0:0:0:
230,296,48504,1,2,0:0:0:0:
232,306,48782,1,2,0:0:0:0:
284,249,49059,5,2,0:0:0:0:
163,274,49337,1,2,0:0:0:0:
42,299,49615,2,0,L|55:228,1,70,0|0,1:0|0:0,0:0:0:0:
177,150,50170,6,0,P|218:146|277:194,1,105,8|0,0:0|0:0,0:0:0:0:
335,156,50726,2,0,P|341:179|338:202,2,46.6666666666667,0|0|0,1:0|1:0|1:0,0:0:0:0:
320,276,51282,6,0,L|397:261,1,70,2|0,3:2|0:0,0:0:0:0:
485,380,51837,2,0,L|416:366,1,70,2|0,0:0|3:0,0:0:0:0:
242,321,52393,1,10,0:0:0:0:
212,384,52670,2,0,P|207:323|194:237,1,140,2|2,0:0|0:0,0:0:0:0:
127,230,53504,6,0,P|100:252|58:255,1,70,0|0,0:0|0:0,0:0:0:0:
39,191,54059,2,0,P|66:169|108:166,1,70,0|0,1:0|0:0,0:0:0:0:
151,115,54615,2,0,P|193:145|256:146,1,105,8|0,0:0|0:0,0:0:0:0:
253,141,55170,1,2,0:0:0:0:
378,224,55448,2,0,L|385:255,2,23.3333333333333,0|0|0,1:0|1:0|1:0,0:0:0:0:
405,159,55726,6,0,P|433:136|499:126,1,105,2|2,3:2|0:0,0:0:0:0:
505,134,56282,1,0,1:0:0:0:
427,63,56559,1,2,3:2:0:0:
475,198,56837,2,0,L|454:349,1,140,10|2,0:0|0:0,0:0:0:0:
390,361,57670,6,0,P|359:342|313:336,1,70,2|2,0:0|0:0,0:0:0:0:
269,377,58226,1,2,0:0:0:0:
304,268,58504,1,0,1:0:0:0:
300,257,58782,1,0,0:0:0:0:
245,311,59059,2,0,P|196:329|131:334,1,105,8|0,0:0|0:0,0:0:0:0:
96,282,59615,2,0,L|109:232,2,46.6666666666667,0|0|0,1:0|1:0|1:0,0:0:0:0:
75,350,60170,5,2,3:2:0:0:
43,207,60448,1,2,0:0:0:0:
182,250,60726,1,2,0:0:0:0:
101,169,61004,1,2,3:2:0:0:
168,76,61282,6,0,P|173:128|170:181,1,105,8|0,0:0|0:0,0:0:0:0:
232,210,61837,2,0,P|214:239|182:250,1,70,0|0,1:0|0:0,0:0:0:0:
170,181,62393,5,0,0:0:0:0:
446,369,64615,6,0,L|425:270,1,83.9999974365235,4|0,3:2|0:0,0:0:0:0:
426,275,65032,1,0,0:0:0:0:
502,221,65170,6,0,L|461:214,1,41.9999987182618,2|0,1:2|0:0,0:0:0:0:
384,144,65448,2,0,L|426:152,1,41.9999987182618,2|0,3:2|0:0,0:0:0:0:
348,276,65726,6,0,P|341:232|329:180,1,83.9999974365235,10|0,0:0|0:0,0:0:0:0:
194,334,66282,2,0,P|200:292|209:251,1,83.9999974365235,2|0,1:2|0:0,0:0:0:0:
169,194,66698,1,0,0:0:0:0:
102,216,66837,6,0,P|67:258|-19:259,1,125.999996154785,2|0,3:2|0:0,0:0:0:0:
75,150,67393,2,0,P|95:144|116:147,1,41.9999987182618,2|0,1:2|0:0,0:0:0:0:
169,194,67670,1,2,3:2:0:0:
317,276,67948,2,0,L|338:152,1,125.999996154785,8|0,0:0|0:0,0:0:0:0:
312,88,68504,6,0,L|359:70,1,27.9999991455078,2|0,1:2|0:0,0:0:0:0:
358,33,68689,2,0,L|353:60,1,27.9999991455078,0|0,1:0|0:0,0:0:0:0:
383,99,68874,2,0,L|361:81,1,27.9999991455078,2|0,1:2|0:0,0:0:0:0:
288,23,69059,6,0,B|207:-6|144:124|58:99,1,251.999992309571,0|0,3:0|3:0,0:0:0:0:
188,215,70170,2,0,P|203:259|204:300,1,83.9999974365235,8|0,0:0|0:0,0:0:0:0:
46,384,70726,2,0,P|31:340|30:299,1,83.9999974365235,0|0,1:0|1:0,0:0:0:0:
92,269,71143,1,0,0:0:0:0:
99,276,71282,1,0,3:0:0:0:
218,149,71559,6,0,L|278:160,1,41.9999987182618,2|0,0:0|0:0,0:0:0:0:
352,100,71837,2,0,L|325:132,1,41.9999987182618,2|0,1:2|0:0,0:0:0:0:
327,240,72115,2,0,L|312:200,1,41.9999987182618,2|0,3:2|0:0,0:0:0:0:
270,87,72393,5,10,0:0:0:0:
353,308,72670,2,0,P|396:286|442:296,1,83.9999974365235,2|0,0:0|1:0,0:0:0:0:
215,367,73226,5,0,1:0:0:0:
205,372,73319,1,0,1:0:0:0:
195,377,73411,1,0,1:0:0:0:
185,382,73504,6,0,L|199:297,1,83.9999974365235,2|0,3:2|0:0,0:0:0:0:
218,183,74059,1,0,1:0:0:0:
212,172,74337,1,0,3:0:0:0:
162,40,74615,2,0,P|118:42|85:72,1,83.9999974365235,8|0,0:0|0:0,0:0:0:0:
139,199,75170,2,0,P|183:197|216:167,1,83.9999974365235,0|0,1:0|0:0,0:0:0:0:
254,114,75587,1,0,0:0:0:0:
335,170,75726,6,0,L|313:37,1,125.999996154785,0|0,3:0|0:0,0:0:0:0:
369,0,76282,2,0,P|401:25|442:26,1,83.9999974365235,2|2,1:2|3:2,0:0:0:0:
487,175,76837,2,0,L|398:158,1,83.9999974365235,10|0,0:0|0:0,0:0:0:0:
218,228,77393,6,0,L|211:273,1,27.9999991455078,2|0,1:2|0:0,0:0:0:0:
144,264,77578,2,0,L|151:309,1,27.9999991455078,0|0,1:0|0:0,0:0:0:0:
77,294,77763,2,0,L|70:339,1,27.9999991455078,0|0,1:0|0:0,0:0:0:0:
9,202,77948,6,0,P|50:200|84:225,1,83.9999974365235,2|0,3:2|0:0,0:0:0:0:
180,373,78504,1,0,1:0:0:0:
139,178,78782,1,0,3:0:0:0:
239,334,79059,6,0,P|304:344|339:351,1,83.9999974365235,8|0,0:0|0:0,0:0:0:0:
478,248,79615,2,0,P|436:253|395:261,1,83.9999974365235,0|0,1:0|0:0,0:0:0:0:
331,229,80032,1,0,0:0:0:0:
424,186,80170,6,0,P|451:147|445:96,1,83.9999974365235,2|0,3:2|0:0,0:0:0:0:
313,15,80726,1,0,1:0:0:0:
382,128,81004,1,0,3:0:0:0:
284,219,81282,6,0,P|220:207|196:204,1,83.9999974365235,8|0,0:0|0:0,0:0:0:0:
125,111,81837,2,0,L|137:67,1,41.9999987182618,0|0,1:0|0:0,0:0:0:0:
30,15,82115,5,8,3:2:0:0:
25,25,82207,2,0,L|38:22,1,13.9999995727539,0|0,1:0|3:0,0:0:0:0:
20,35,82300,1,0,1:0:0:0:
15,46,82393,6,0,L|32:132,1,83.9999974365235,0|0,3:0|0:0,0:0:0:0:
67,277,82948,2,0,L|55:333,1,41.9999987182618,2|0,1:2|0:0,0:0:0:0:
128,334,83226,2,0,L|136:292,1,41.9999987182618,2|0,3:2|0:0,0:0:0:0:
100,147,83504,6,0,P|94:187|114:224,1,83.9999974365235,10|0,0:0|0:0,0:0:0:0:
267,346,84059,2,0,P|272:305|252:268,1,83.9999974365235,2|0,1:2|0:0,0:0:0:0:
202,318,84476,1,0,0:0:0:0:
197,215,84615,6,0,L|333:237,1,125.999996154785,2|0,3:2|0:0,0:0:0:0:
400,225,85170,2,0,L|387:179,1,41.9999987182618,2|0,1:2|0:0,0:0:0:0:
370,116,85448,1,2,3:2:0:0:
497,281,85726,2,0,P|426:292|393:349,1,125.999996154785,8|0,0:0|0:0,0:0:0:0:
332,360,86282,6,0,L|314:313,1,27.9999991455078,2|0,1:2|0:0,0:0:0:0:
277,314,86467,2,0,L|304:319,1,27.9999991455078,0|0,1:0|0:0,0:0:0:0:
343,289,86652,2,0,L|325:311,1,27.9999991455078,2|0,1:2|0:0,0:0:0:0:
267,384,86837,6,0,P|225:364|171:369,1,83.9999974365235,0|0,3:0|0:0,0:0:0:0:
31,381,87393,1,0,1:0:0:0:
36,371,87670,1,0,3:0:0:0:
95,249,87948,2,0,L|78:154,1,83.9999974365235,8|0,0:0|0:0,0:0:0:0:
57,63,88504,5,0,1:0:0:0:
187,161,88782,1,0,1:0:0:0:
207,0,89059,1,0,3:0:0:0:
155,99,89337,5,2,0:0:0:0:
216,226,89615,2,0,P|256:249|302:242,1,83.9999974365235,2|0,1:2|0:0,0:0:0:0:
409,303,90170,2,0,L|392:172,1,125.999996154785,10|2,0:0|0:0,0:0:0:0:
383,108,90726,1,0,1:0:0:0:
460,32,91004,5,0,1:0:0:0:
467,40,91096,1,0,1:0:0:0:
474,48,91189,1,0,1:0:0:0:
481,56,91282,6,0,P|441:56|403:25,1,83.9999974365235,2|0,3:2|0:0,0:0:0:0:
255,69,91837,2,0,L|239:158,1,83.9999974365235,0|0,1:0|3:0,0:0:0:0:
326,255,92393,2,0,P|267:247|211:294,1,125.999996154785,8|0,0:0|0:0,0:0:0:0:
201,354,92948,1,0,1:0:0:0:
376,305,93226,1,0,0:0:0:0:
306,384,93504,1,0,3:0:0:0:
148,307,93782,5,2,0:0:0:0:
30,371,94059,2,0,P|9:345|12:283,1,83.9999974365235,2|0,1:2|3:0,0:0:0:0:
82,213,94615,2,0,B|118:197|171:249|203:238,1,125.999996154785,10|0,0:0|0:0,0:0:0:0:
306,155,95170,6,0,L|294:119,1,27.9999991455078,2|0,1:2|0:0,0:0:0:0:
224,118,95356,2,0,L|236:82,1,27.9999991455078,0|0,1:0|0:0,0:0:0:0:
295,54,95541,2,0,L|283:18,1,27.9999991455078,0|0,1:0|0:0,0:0:0:0:
214,23,95726,6,0,P|169:35|120:36,1,83.9999974365235,2|0,3:2|0:0,0:0:0:0:
356,90,96282,2,0,P|401:78|450:77,1,83.9999974365235,0|0,1:0|3:0,0:0:0:0:
242,188,96837,2,0,L|228:313,1,125.999996154785,8|0,0:0|0:0,0:0:0:0:
221,383,97393,1,0,1:0:0:0:
299,321,97670,1,0,0:0:0:0:
167,234,97948,1,0,3:0:0:0:
284,85,98782,5,2,0:0:0:0:
253,6,99059,1,2,0:0:0:0:
262,19,99337,1,2,0:0:0:0:
218,110,99615,1,2,0:0:0:0:
209,123,99893,1,2,0:0:0:0:
305,261,100170,6,0,L|403:273,1,90.9999958343508,6|0,3:2|0:0,0:0:0:0:
401,282,100587,2,0,L|310:270,1,90.9999958343508,2|0,0:0|0:0,0:0:0:0:
241,263,101004,1,2,3:2:0:0:
488,358,101282,6,0,P|496:327|460:255,1,105.000004005432,10|0,0:0|0:0,0:0:0:0:
193,127,101837,2,0,P|185:158|241:263,1,157.500006008148,2|0,1:2|0:0,0:0:0:0:
310,270,102393,6,0,P|336:225|389:215,1,90.9999958343508,0|0,3:0|0:0,0:0:0:0:
334,375,102948,2,0,P|290:368|240:361,1,90.9999958343508,0|0,1:0|3:0,0:0:0:0:
115,333,103504,6,0,L|125:384,1,52.5,10|0,0:0|0:0,0:0:0:0:
57,292,104059,6,0,L|37:299,1,11.6666666666667,2|0,1:2|0:0,0:0:0:0:
156,224,104244,2,0,L|176:231,1,11.6666666666667,0|0,1:0|0:0,0:0:0:0:
34,175,104430,2,0,L|14:182,1,11.6666666666667,0|0,1:0|0:0,0:0:0:0:
152,59,104615,6,0,P|192:60|232:94,1,90.9999958343508,2|0,3:2|0:0,0:0:0:0:
233,101,105032,2,0,P|212:135|162:152,1,90.9999958343508,2|0,0:0|0:0,0:0:0:0:
106,113,105448,1,2,3:2:0:0:
285,44,105726,6,0,B|307:59|337:57|337:57|359:38|389:40,1,105.000004005432,10|0,0:0|0:0,0:0:0:0:
367,265,106282,2,0,P|366:186|384:110,1,157.500006008148,2|0,1:2|0:0,0:0:0:0:
444,73,106837,6,0,P|484:80|520:118,1,90.9999958343508,0|0,3:0|0:0,0:0:0:0:
367,265,107393,2,0,L|267:249,1,90.9999958343508,0|0,1:0|3:0,0:0:0:0:
88,322,107948,6,0,L|79:373,1,52.5,10|0,0:0|0:0,0:0:0:0:
161,358,108504,2,0,L|157:335,1,17.5,2|0,1:2|0:0,0:0:0:0:
140,240,108782,5,2,1:2:0:0:
149,245,108874,1,0,1:0:0:0:
158,250,108967,1,0,1:0:0:0:
168,256,109059,6,0,P|167:201|191:154,1,90.9999958343508,2|0,3:2|0:0,0:0:0:0:
190,170,109476,2,0,P|174:212|177:257,1,90.9999958343508,2|0,0:0|0:0,0:0:0:0:
217,315,109893,1,2,3:2:0:0:
289,131,110170,6,0,B|246:139|233:92|180:99,1,105.000004005432,10|0,0:0|0:0,0:0:0:0:
42,131,110726,2,0,B|46:117|39:100|39:100|107:138|78:227,1,157.500006008148,2|0,1:2|0:0,0:0:0:0:
177,304,111282,6,0,B|88:291|88:291|87:287|87:287|-8:274,1,181.999991668702,0|0,3:0|1:0,0:0:0:0:
190,374,112115,2,0,P|228:355|234:337,1,45.4999979171754,2|0,3:2|0:0,0:0:0:0:
211,116,112393,6,0,P|209:204|246:285,1,178.500003404617,10|0,0:0|0:0,0:0:0:0:
296,337,112948,6,0,P|320:328|342:330,1,39.6666674232483,2|0,1:2|0:0,0:0:0:0:
479,383,113133,2,0,P|459:366|449:346,1,39.6666674232483,0|0,1:0|0:0,0:0:0:0:
428,202,113319,2,0,P|423:227|411:245,1,39.6666674232483,2|0,1:2|0:0,0:0:0:0:
245,284,113504,6,0,P|204:263|159:256,1,90.9999958343508,0|0,3:0|0:0,0:0:0:0:
16,243,114059,2,0,P|60:236|101:215,1,90.9999958343508,0|0,1:0|3:0,0:0:0:0:
286,226,114615,6,0,L|261:89,1,136.499993751526,8|0,0:0|0:0,0:0:0:0:
307,38,115170,2,0,L|407:51,1,90.9999958343508,0|0,1:0|0:0,0:0:0:0:
194,103,115726,5,0,3:0:0:0:
125,115,116004,1,0,3:0:0:0:
182,34,116282,1,0,1:0:0:0:
170,169,116559,5,2,1:2:0:0:
59,91,116837,1,10,0:0:0:0:
47,226,117115,5,2,0:0:0:0:
113,46,117393,1,2,1:2:0:0:
158,304,117670,5,0,1:0:0:0:
154,316,117763,1,0,1:0:0:0:
151,327,117856,1,0,1:0:0:0:
148,337,117948,6,0,P|96:349|24:279,1,146.999995513916,6|0,3:2|0:0,0:0:0:0:
47,226,118504,2,0,P|90:196|145:212,1,97.9999970092774,0|0,1:0|3:0,0:0:0:0:
214,107,119059,6,0,L|237:265,1,146.999995513916,10|0,0:0|0:0,0:0:0:0:
305,265,119615,2,0,P|343:236|390:241,1,97.9999970092774,0|0,1:0|0:0,0:0:0:0:
201,358,120170,6,0,L|206:325,3,24.4999992523194,2|0|0|0,3:2|0:0|0:0|0:0,0:0:0:0:
156,283,120448,5,2,0:0:0:0:
147,286,120518,5,2,0:0:0:0:
138,290,120587,5,2,0:0:0:0:
128,294,120657,5,2,0:0:0:0:
118,298,120726,6,0,L|134:187,1,97.9999970092774,2|0,1:2|3:0,0:0:0:0:
214,107,121282,6,0,B|167:83|112:151|63:129,1,157.500006008148,10|0,0:0|0:0,0:0:0:0:
93,25,121837,6,0,L|85:59,1,35.0000013351441,2|0,1:2|0:0,0:0:0:0:
199,208,122022,2,0,L|191:175,1,35.0000013351441,0|0,1:0|0:0,0:0:0:0:
288,16,122207,2,0,L|280:50,1,35.0000013351441,2|0,1:2|0:0,0:0:0:0:
358,186,122393,6,0,P|404:154|453:161,1,97.9999970092774,2|2,3:2|0:0,0:0:0:0:
452,163,122740,5,2,0:0:0:0:
461,168,122809,5,2,0:0:0:0:
470,174,122879,5,2,0:0:0:0:
479,180,122948,6,0,L|468:280,1,97.9999970092774,2|0,1:2|3:0,0:0:0:0:
336,344,123504,6,0,P|296:315|235:321,1,97.9999970092774,8|0,0:0|0:0,0:0:0:0:
109,384,124059,2,0,P|153:365|178:324,1,97.9999970092774,0|0,1:0|0:0,0:0:0:0:
219,188,124615,5,0,3:0:0:0:
121,86,124893,1,0,3:0:0:0:
68,235,125170,1,0,1:0:0:0:
170,137,125448,5,2,3:2:0:0:
49,303,125726,1,10,0:0:0:0:
53,103,126004,5,2,0:0:0:0:
200,256,126282,1,2,1:2:0:0:
260,53,126559,5,0,1:0:0:0:
250,50,126652,1,0,1:0:0:0:
240,47,126744,1,0,1:0:0:0:
229,44,126837,6,0,P|249:100|250:203,1,146.999995513916,6|0,3:2|0:0,0:0:0:0:
320,211,127393,2,0,P|300:242|234:255,1,97.9999970092774,0|0,1:0|3:0,0:0:0:0:
53,254,127948,6,0,P|132:248|183:300,1,146.999995513916,10|0,0:0|0:0,0:0:0:0:
168,360,128504,2,0,P|128:386|78:381,1,97.9999970092774,0|0,1:0|0:0,0:0:0:0:
235,336,129059,6,0,L|268:342,3,24.4999992523194,2|0|0|0,3:2|0:0|0:0|0:0,0:0:0:0:
315,297,129337,5,2,0:0:0:0:
326,296,129407,5,2,0:0:0:0:
338,297,129476,5,2,0:0:0:0:
350,301,129545,5,2,0:0:0:0:
360,307,129615,6,0,P|400:272|456:267,1,97.9999970092774,2|0,1:2|3:0,0:0:0:0:
300,150,130170,6,0,P|314:218|363:172,1,157.500006008148,10|0,0:0|0:0,0:0:0:0:
443,190,130726,6,0,P|436:167|435:154,1,35.0000013351441,2|0,1:2|0:0,0:0:0:0:
468,13,130911,2,0,P|451:30|440:37,1,35.0000013351441,0|0,1:0|0:0,0:0:0:0:
303,80,131096,2,0,P|326:85|338:91,1,35.0000013351441,2|0,1:2|0:0,0:0:0:0:
443,265,131282,6,0,L|432:370,1,97.9999970092775,2|2,3:2|0:0,0:0:0:0:
424,368,131629,5,2,0:0:0:0:
415,373,131698,5,2,0:0:0:0:
406,378,131768,5,2,0:0:0:0:
398,384,131837,6,0,P|358:350|299:346,1,97.9999970092774,2|0,1:2|3:0,0:0:0:0:
182,381,132393,5,8,0:0:0:0:
197,313,132670,1,0,0:0:0:0:
53,245,132948,5,0,1:0:0:0:
38,177,133225,1,0,0:0:0:0:
212,245,133504,5,0,3:0:0:0:
23,109,133781,1,0,3:0:0:0:
68,313,134059,5,0,1:0:0:0:
227,177,134337,1,0,3:0:0:0:
363,384,134615,6,0,B|291:269|489:195|441:72,1,342.999989532471,8|0,0:0|0:0,0:0:0:0:
398,15,135726,6,0,L|324:-2,1,70,6|0,3:2|0:0,0:0:0:0:
373,78,136282,2,0,L|317:64,1,52.5000020027161,0|0,0:0|0:0,0:0:0:0:
349,140,136837,2,0,L|300:128,1,35,0|0,0:0|0:0,0:0:0:0:
325,203,137393,1,2,0:0:0:0:
313,200,137670,1,2,0:0:0:0:
257,235,137948,6,0,P|232:280|246:341,1,105,2|0,0:0|0:0,0:0:0:0:
234,339,138504,2,0,L|297:352,1,52.5000020027161,0|0,0:0|0:0,0:0:0:0:
359,362,139059,2,0,B|350:326|350:326|352:325|352:325|343:284,1,78.7500030040742,2|0,0:0|0:0,0:0:0:0:
341,275,139615,2,0,L|402:288,1,52.5000020027161,0|0,0:0|0:0,0:0:0:0:
474,152,140170,6,0,B|377:115|305:265|215:221,1,280,2|0,3:2|0:0,0:0:0:0:
216,221,143226,5,2,0:0:0:0:
210,231,143504,2,0,L|261:222,1,52.5000020027161,2|0,0:0|0:0,0:0:0:0:
217,296,144059,2,0,L|282:284,1,61.2500005841255,2|0,0:0|0:0,0:0:0:0:
311,369,144615,6,0,B|306:262|385:179|520:252|424:366|370:294,1,315.000012016297,2|0,3:2|0:0,0:0:0:0:
485,128,146837,2,0,P|413:159|222:181,1,262.5,2|0,0:0|0:0,0:0:0:0:
73,88,148874,1,2,0:0:0:0:
77,100,148967,1,2,0:0:0:0:
85,109,149059,2,0,B|115:89|118:49|118:49|206:221|57:368,1,420,2|8,3:2|0:0,0:0:0:0:
59,365,153504,6,0,L|133:382,1,70,2|0,3:2|0:0,0:0:0:0:
84,302,154060,2,0,L|140:316,1,52.5000020027161,0|0,0:0|3:0,0:0:0:0:
118,243,154615,1,8,0:0:0:0:
131,246,154893,1,2,0:0:0:0:
101,179,155170,1,2,0:0:0:0:
180,201,155448,1,2,0:0:0:0:
156,134,155726,5,2,0:0:0:0:
186,69,156004,1,0,0:0:0:0:
253,44,156282,1,0,0:0:0:0:
318,73,156559,1,0,0:0:0:0:
441,25,156837,6,0,B|433:92|433:92|431:94|431:94|421:163,1,140,10|0,0:0|0:0,0:0:0:0:
426,166,157670,1,0,0:0:0:0:
512,194,157948,6,0,B|458:172|417:245|354:223,1,157.500006008148,2|0,3:2|3:0,0:0:0:0:
299,196,159059,2,0,P|268:338|193:216,1,367.500014019013,8|2,0:0|0:0,0:0:0:0:
230,157,161282,6,0,L|177:147,1,52.5000020027161,10|0,0:0|0:0,0:0:0:0:
250,94,161837,2,0,L|190:82,1,61.2500005841255,2|0,0:0|0:0,0:0:0:0:
163,17,162393,6,0,L|2:47,1,157.500006008148,2|0,3:2|3:0,0:0:0:0:
78,104,163504,2,0,P|103:128|111:156,1,52.5000020027161,8|0,0:0|0:0,0:0:0:0:
75,206,164059,1,0,0:0:0:0:
64,203,164337,1,0,0:0:0:0:
119,262,164615,6,0,B|143:250|175:282|203:274,1,87.5,2|0,0:0|0:0,0:0:0:0:
260,232,165448,1,0,0:0:0:0:
326,258,165726,1,8,0:0:0:0:
373,206,166004,1,0,0:0:0:0:
385,211,166282,1,0,0:0:0:0:
449,182,166559,2,0,L|453:156,1,21.875,0|0,0:0|0:0,0:0:0:0:
468,33,166837,6,0,P|400:65|311:68,1,157.500006008148,2|0,3:2|3:0,0:0:0:0:
274,15,167948,2,0,B|320:329|320:329|253:346|232:282,1,420.000016021729,8|8,0:0|0:0,0:0:0:0:
169,315,170448,5,2,0:0:0:0:
182,246,170726,1,2,0:0:0:0:
186,250,171282,5,2,3:2:0:0:
41,290,171698,1,2,0:0:0:0:
0,145,172115,1,2,3:2:0:0:
52,98,172393,6,0,L|127:108,1,70,10|0,0:0|0:0,0:0:0:0:
192,115,172948,1,2,0:0:0:0:
189,105,173226,5,2,0:0:0:0:
235,52,173504,1,2,0:0:0:0:
301,76,173782,2,0,L|315:153,1,70,2|0,0:0|1:0,0:0:0:0:
328,214,174337,1,0,0:0:0:0:
293,275,174615,6,0,P|340:251|399:252,1,105,8|0,0:0|0:0,0:0:0:0:
450,291,175170,2,0,L|444:343,2,46.6666666666667,0|0|0,1:0|1:0|1:0,0:0:0:0:
458,221,175726,6,0,P|428:187|394:178,1,70,2|0,3:2|0:0,0:0:0:0:
293,275,176282,2,0,L|304:344,1,70,2|0,0:0|3:0,0:0:0:0:
368,299,176837,1,10,0:0:0:0:
205,365,177115,2,0,L|226:223,1,140,2|2,0:0|0:0,0:0:0:0:
163,193,177948,6,0,P|134:217|92:221,1,70
222,155,178504,2,0,P|255:161|282:184,1,70,0|0,1:0|0:0,0:0:0:0:
225,226,179059,1,8,0:0:0:0:
222,236,179337,5,2,0:0:0:0:
159,122,179615,1,2,0:0:0:0:
353,190,179893,2,0,L|348:216,2,23.3333333333333,0|0|0,1:0|1:0|1:0,0:0:0:0:
367,121,180170,6,0,B|374:79|338:63|346:18,1,105,2|2,3:2|0:0,0:0:0:0:
354,14,180726,1,0,1:0:0:0:
297,112,181004,1,2,3:2:0:0:
423,0,181282,2,0,L|495:14,1,70,10|0,0:0|0:0,0:0:0:0:
508,136,181837,1,2,0:0:0:0:
511,146,182115,5,2,0:0:0:0:
458,193,182393,1,2,0:0:0:0:
395,161,182670,2,0,P|389:123|405:90,1,70,2|0,0:0|1:0,0:0:0:0:
458,193,183226,1,0,0:0:0:0:
356,219,183504,6,0,P|279:205|243:201,1,105,8|0,0:0|0:0,0:0:0:0:
197,246,184059,2,0,L|207:302,2,46.6666666666667,0|0|0,1:0|1:0|1:0,0:0:0:0:
173,110,184615,5,2,3:2:0:0:
107,82,184893,1,2,0:0:0:0:
162,39,185170,1,2,0:0:0:0:
118,153,185448,1,2,3:2:0:0:
125,161,185726,6,0,P|132:204|134:269,1,105,8|0,0:0|0:0,0:0:0:0:
128,276,186282,2,0,L|59:266,1,70,0|0,1:0|0:0,0:0:0:0:
164,337,186837,5,0,0:0:0:0:
13,55,189059,6,0,P|43:27|95:27,1,83.9999974365235,4|0,3:2|0:0,0:0:0:0:
93,30,189476,1,0,0:0:0:0:
170,171,189615,6,0,L|130:178,1,41.9999987182618,2|0,1:2|0:0,0:0:0:0:
39,120,189893,2,0,L|80:127,1,41.9999987182618,2|0,3:2|0:0,0:0:0:0:
240,160,190170,6,0,P|238:111|213:78,1,83.9999974365235,10|0,0:0|0:0,0:0:0:0:
61,195,190726,2,0,L|45:277,1,83.9999974365235,2|0,1:2|0:0,0:0:0:0:
32,348,191143,1,0,0:0:0:0:
94,383,191282,6,0,P|147:351|216:348,1,125.999996154785,2|0,3:2|0:0,0:0:0:0:
216,276,191837,2,0,P|251:288|263:304,1,41.9999987182618,2|0,1:2|0:0,0:0:0:0:
280,357,192115,1,2,3:2:0:0:
142,282,192393,2,0,B|153:237|153:237|173:217|173:217|184:166,1,125.999996154785,8|0,0:0|0:0,0:0:0:0:
209,101,192948,6,0,L|162:83,1,27.9999991455078,2|0,1:2|0:0,0:0:0:0:
163,46,193133,2,0,L|168:73,1,27.9999991455078,0|0,1:0|0:0,0:0:0:0:
138,112,193318,2,0,L|160:94,1,27.9999991455078,2|0,1:2|0:0,0:0:0:0:
232,35,193504,6,0,B|268:47|279:86|279:86|475:106,1,251.999992309571,0|0,3:0|3:0,0:0:0:0:
510,229,194615,2,0,P|515:276|491:315,1,83.9999974365235,8|0,0:0|0:0,0:0:0:0:
327,365,195170,2,0,P|322:318|346:279,1,83.9999974365235,0|0,1:0|1:0,0:0:0:0:
398,325,195587,1,0,0:0:0:0:
391,334,195726,1,0,3:0:0:0:
201,316,196004,6,0,P|188:284|175:267,1,41.9999987182618,2|0,0:0|0:0,0:0:0:0:
94,162,196282,2,0,P|128:166|149:163,1,41.9999987182618,2|0,1:2|0:0,0:0:0:0:
280,146,196559,2,0,P|258:173|250:193,1,41.9999987182618,2|0,3:2|0:0,0:0:0:0:
192,208,196837,5,10,0:0:0:0:
338,286,197115,2,0,L|323:194,1,83.9999974365235,2|0,0:0|1:0,0:0:0:0:
298,55,197670,5,0,1:0:0:0:
305,47,197763,1,0,1:0:0:0:
316,43,197856,1,0,1:0:0:0:
327,43,197948,6,0,P|298:72|247:75,1,83.9999974365235,2|0,3:2|0:0,0:0:0:0:
121,93,198504,1,0,1:0:0:0:
138,25,198782,1,0,3:0:0:0:
54,112,199059,2,0,P|64:156|71:196,1,83.9999974365235,8|0,0:0|0:0,0:0:0:0:
220,228,199615,2,0,P|209:272|203:312,1,83.9999974365235,0|0,1:0|0:0,0:0:0:0:
262,350,200032,1,0,0:0:0:0:
321,311,200170,6,0,P|364:313|401:341,1,83.9999974365235,0|0,3:0|0:0,0:0:0:0:
509,203,200726,2,0,L|416:217,1,83.9999974365235,2|2,1:2|3:2,0:0:0:0:
296,235,201282,2,0,B|305:174|305:174|308:171|308:171|317:100,1,125.999996154785,10|0,0:0|0:0,0:0:0:0:
328,43,201837,6,0,L|336:-7,1,27.9999991455078,2|0,1:2|0:0,0:0:0:0:
251,82,202022,2,0,L|259:32,1,27.9999991455078,0|0,1:0|0:0,0:0:0:0:
174,121,202207,2,0,L|182:71,1,27.9999991455078,0|0,1:0|0:0,0:0:0:0:
72,0,202393,6,0,P|113:4|144:31,1,83.9999974365235,2|0,3:2|0:0,0:0:0:0:
213,180,202948,2,0,P|201:224|197:280,1,83.9999974365235,0|0,1:0|3:0,0:0:0:0:
256,350,203504,6,0,P|299:346|331:316,1,83.9999974365235,8|0,0:0|0:0,0:0:0:0:
273,140,204059,2,0,P|241:113|200:109,1,83.9999974365235,0|0,1:0|0:0,0:0:0:0:
213,180,204476,1,0,0:0:0:0:
127,239,204615,6,0,P|139:198|143:157,1,83.9999974365235,2|0,3:2|0:0,0:0:0:0:
17,15,205170,1,0,1:0:0:0:
32,131,205448,1,0,3:0:0:0:
168,16,205726,6,0,L|268:28,1,83.9999974365235,8|0,0:0|0:0,0:0:0:0:
439,46,206282,2,0,L|451:91,1,41.9999987182618,0|0,1:0|0:0,0:0:0:0:
479,195,206559,5,8,3:2:0:0:
476,205,206652,1,0,1:0:0:0:
473,215,206744,1,0,1:0:0:0:
470,225,206837,6,0,P|432:221|389:252,1,83.9999974365235,0|0,3:0|0:0,0:0:0:0:
319,371,207393,2,0,P|350:370|369:358,1,41.9999987182618,2|0,1:2|0:0,0:0:0:0:
346,296,207670,2,0,P|315:297|296:309,1,41.9999987182618,2|0,3:2|0:0,0:0:0:0:
225,358,207948,6,0,L|243:227,1,125.999996154785,10|0,0:0|0:0,0:0:0:0:
174,216,208504,2,0,P|151:236|100:242,1,83.9999974365235,2|0,1:2|0:0,0:0:0:0:
7,126,209059,6,0,B|54:139|54:139|66:160|66:160|118:174,1,125.999996154785,2|0,3:2|0:0,0:0:0:0:
183,145,209615,2,0,L|175:94,1,41.9999987182618,2|0,1:2|0:0,0:0:0:0:
164,34,209893,1,2,3:2:0:0:
312,12,210170,2,0,P|379:19|413:76,1,125.999996154785,8|0,0:0|0:0,0:0:0:0:
458,120,210726,6,0,L|436:137,1,27.9999991455078,2|0,1:2|0:0,0:0:0:0:
432,186,210911,2,0,L|427:157,1,27.9999991455078,0|0,1:0|0:0,0:0:0:0:
387,132,211096,2,0,L|412:141,1,27.9999991455078,2|0,1:2|0:0,0:0:0:0:
501,177,211282,6,0,P|493:237|492:260,1,83.9999974365235,0|0,3:0|0:0,0:0:0:0:
490,354,211837,1,0,1:0:0:0:
497,362,212115,1,0,3:0:0:0:
388,266,212393,2,0,B|346:251|302:299|262:283,1,125.999996154785,8|0,0:0|0:0,0:0:0:0:
281,215,212948,5,0,1:0:0:0:
122,263,213226,1,0,1:0:0:0:
159,101,213504,1,0,3:0:0:0:
34,55,213782,5,2,0:0:0:0:
183,168,214059,2,0,P|225:153|279:151,1,83.9999974365235,2|0,1:2|0:0,0:0:0:0:
419,178,214615,1,10,0:0:0:0:
307,12,214893,2,0,L|319:98,1,83.9999974365235,2|0,0:0|1:0,0:0:0:0:
344,266,215448,5,0,1:0:0:0:
354,271,215541,1,0,1:0:0:0:
364,277,215633,1,0,1:0:0:0:
374,282,215726,6,0,P|330:288|289:314,1,83.9999974365235,2|0,3:2|0:0,0:0:0:0:
84,274,216282,2,0,P|128:268|169:242,1,83.9999974365235,0|0,1:0|3:0,0:0:0:0:
222,340,216837,2,0,L|234:205,1,125.999996154785,8|0,0:0|0:0,0:0:0:0:
239,144,217393,1,0,1:0:0:0:
146,53,217670,2,0,L|93:61,1,41.9999987182618,0|0,0:0|0:0,0:0:0:0:
61,115,217948,1,0,3:0:0:0:
205,16,218226,5,2,0:0:0:0:
336,127,218504,2,0,P|353:157|347:208,1,83.9999974365235,2|0,1:2|3:0,0:0:0:0:
430,290,219059,2,0,B|389:311|349:263|299:277,1,125.999996154785,10|0,0:0|0:0,0:0:0:0:
143,336,219615,6,0,L|135:378,1,27.9999991455078,2|0,1:2|0:0,0:0:0:0:
82,261,219800,2,0,L|90:303,1,27.9999991455078,0|0,1:0|0:0,0:0:0:0:
143,186,219985,2,0,L|135:228,1,27.9999991455078,0|0,1:0|0:0,0:0:0:0:
34,157,220170,6,0,P|75:126|120:128,1,83.9999974365235,2|0,3:2|0:0,0:0:0:0:
271,174,220726,1,0,1:0:0:0:
213,79,221004,1,0,3:0:0:0:
360,28,221282,2,0,L|340:157,1,125.999996154785,8|0,0:0|0:0,0:0:0:0:
325,222,221837,1,0,1:0:0:0:
453,128,222115,2,0,L|442:67,1,41.9999987182618,8|0,0:0|0:0,0:0:0:0:
429,18,222393,1,0,3:0:0:0:
242,317,223226,5,2,0:0:0:0:
190,365,223504,1,2,0:0:0:0:
177,362,223782,1,2,0:0:0:0:
288,264,224059,1,2,0:0:0:0:
301,261,224337,1,2,0:0:0:0:
183,125,224615,6,0,B|147:152|147:152|102:148,1,90.9999958343508,6|0,3:2|0:0,0:0:0:0:
99,139,225032,2,0,B|144:143|144:143|180:116,1,90.9999958343508,2|0,0:0|0:0,0:0:0:0:
230,65,225448,1,2,3:2:0:0:
57,82,225726,6,0,P|29:157|47:188,1,105.000004005432,10|0,0:0|0:0,0:0:0:0:
188,277,226282,2,0,B|257:266|257:266|265:254|265:254|337:245,1,157.500006008148,2|0,1:2|0:0,0:0:0:0:
390,295,226837,6,0,P|377:338|378:384,1,90.9999958343508,0|0,3:0|0:0,0:0:0:0:
319,176,227393,2,0,P|364:177|402:211,1,90.9999958343508,0|0,1:0|3:0,0:0:0:0:
478,327,227948,6,0,L|491:380,1,52.5,10|0,0:0|0:0,0:0:0:0:
390,295,228504,6,0,L|394:275,1,11.6666666666667,2|0,1:2|0:0,0:0:0:0:
510,248,228689,2,0,L|506:228,1,11.6666666666667,0|0,1:0|0:0,0:0:0:0:
355,203,228874,2,0,L|359:183,1,11.6666666666667,0|0,1:0|0:0,0:0:0:0:
507,92,229059,6,0,P|493:135|449:155,1,90.9999958343508,2|0,3:2|0:0,0:0:0:0:
443,152,229476,2,0,P|422:111|439:66,1,90.9999958343508,2|0,0:0|0:0,0:0:0:0:
491,23,229893,1,2,3:2:0:0:
364,16,230170,6,0,B|339:23|322:46|322:46|319:19|302:0,1,105.000004005432,10|0,0:0|0:0,0:0:0:0:
104,13,230726,2,0,B|166:-3|194:67|251:51,1,157.500006008148,2|0,1:2|0:0,0:0:0:0:
123,83,231282,6,0,P|94:116|98:172,1,90.9999958343508,0|0,3:0|0:0,0:0:0:0:
185,259,231837,2,0,P|238:237|281:233,1,90.9999958343508,0|0,1:0|3:0,0:0:0:0:
376,332,232393,6,0,L|369:390,1,52.5,10|0,0:0|0:0,0:0:0:0:
305,349,232948,1,2,1:2:0:0:
404,265,233226,5,2,1:2:0:0:
413,271,233319,1,0,1:0:0:0:
422,278,233411,1,0,1:0:0:0:
431,285,233504,6,0,L|413:191,1,90.9999958343508,2|0,3:2|0:0,0:0:0:0:
423,193,233920,2,0,L|440:282,1,90.9999958343508,2|0,0:0|0:0,0:0:0:0:
456,350,234337,1,2,3:2:0:0:
304,252,234615,6,0,P|246:252|207:299,1,105.000004005432,10|0,0:0|0:0,0:0:0:0:
139,375,235170,2,0,B|151:297|90:272|90:272|107:287|107:321,1,157.500006008148,2|0,1:2|0:0,0:0:0:0:
40,321,235726,6,0,P|19:278|31:232,1,90.9999958343508,0|0,3:0|0:0,0:0:0:0:
0,379,236282,1,0,1:0:0:0:
91,272,236559,2,0,L|138:280,1,45.4999979171754,2|0,3:2|0:0,0:0:0:0:
169,372,236837,6,0,P|169:303|230:196,1,178.500003404617,10|0,0:0|0:0,0:0:0:0:
279,168,237393,6,0,P|297:160|317:159,1,39.6666674232483,2|0,1:2|0:0,0:0:0:0:
456,138,237578,2,0,P|440:126|429:110,1,39.6666674232483,0|0,1:0|0:0,0:0:0:0:
343,0,237763,2,0,P|340:19|331:37,1,39.6666674232483,2|0,1:2|0:0,0:0:0:0:
359,102,237948,6,0,P|293:64|220:89,1,136.499993751526,0|0,3:0|0:0,0:0:0:0:
183,28,238504,2,0,P|166:75|176:114,1,90.9999958343508,0|0,1:0|3:0,0:0:0:0:
97,173,239059,6,0,L|242:198,1,136.499993751526,8|0,0:0|0:0,0:0:0:0:
301,209,239615,2,0,P|310:252|293:294,1,90.9999958343508,0|0,1:0|0:0,0:0:0:0:
160,366,240170,5,0,3:0:0:0:
124,306,240448,1,0,3:0:0:0:
193,304,240726,1,0,1:0:0:0:
91,368,241004,5,2,1:2:0:0:
157,244,241282,1,10,0:0:0:0:
17,249,241559,5,2,0:0:0:0:
160,366,241837,1,2,1:2:0:0:
190,184,242115,5,0,1:0:0:0:
185,174,242207,1,0,1:0:0:0:
181,164,242300,1,0,1:0:0:0:
177,154,242393,6,0,P|232:99|302:104,1,146.999995513916,6|0,3:2|0:0,0:0:0:0:
347,152,242948,2,0,P|349:199|321:243,1,97.9999970092774,0|0,1:0|3:0,0:0:0:0:
432,336,243504,6,0,B|385:357|339:301|288:316,1,146.999995513916,10|0,0:0|0:0,0:0:0:0:
225,256,244059,2,0,P|220:303|210:353,1,97.9999970092774,0|0,1:0|0:0,0:0:0:0:
37,286,244615,6,0,L|80:277,3,24.4999992523194,2|0|0|0,3:2|0:0|0:0|0:0,0:0:0:0:
124,325,244893,5,2,0:0:0:0:
127,315,244962,5,2,0:0:0:0:
130,305,245032,5,2,0:0:0:0:
133,294,245101,5,2,0:0:0:0:
137,282,245170,6,0,P|178:254|229:257,1,97.9999970092774,2|0,1:2|3:0,0:0:0:0:
80,66,245726,6,0,B|87:144|87:144|90:147|90:147|97:228,1,157.500006008148,10|0,0:0|0:0,0:0:0:0:
60,280,246282,6,0,L|21:272,1,35.0000013351441,2|0,1:2|0:0,0:0:0:0:
163,175,246467,2,0,L|202:167,1,35.0000013351441,0|0,1:0|0:0,0:0:0:0:
12,113,246652,2,0,L|-27:105,1,35.0000013351441,2|0,1:2|0:0,0:0:0:0:
138,25,246837,6,0,P|198:21|239:58,1,97.9999970092774,2|2,3:2|0:0,0:0:0:0:
230,52,247184,5,2,0:0:0:0:
233,63,247254,5,2,0:0:0:0:
236,74,247323,5,2,0:0:0:0:
238,84,247393,6,0,P|280:107|327:100,1,97.9999970092774,2|0,1:2|3:0,0:0:0:0:
418,218,247948,6,0,L|396:119,1,97.9999970092774,8|0,0:0|0:0,0:0:0:0:
234,169,248504,2,0,L|212:264,1,97.9999970092774,0|0,1:0|0:0,0:0:0:0:
194,333,249059,5,0,3:0:0:0:
143,282,249337,1,0,3:0:0:0:
281,283,249615,1,0,1:0:0:0:
162,214,249893,5,2,3:2:0:0:
262,351,250170,1,10,0:0:0:0:
124,350,250448,5,2,0:0:0:0:
300,215,250726,1,2,1:2:0:0:
96,131,251004,5,0,1:0:0:0:
85,134,251096,1,0,1:0:0:0:
74,137,251189,1,0,1:0:0:0:
64,140,251282,6,0,P|115:86|190:90,1,146.999995513916,6|0,3:2|0:0,0:0:0:0:
222,26,251837,2,0,P|249:56|251:113,1,97.9999970092774,0|0,1:0|3:0,0:0:0:0:
333,174,252393,6,0,L|187:192,1,146.999995513916,10|0,0:0|0:0,0:0:0:0:
130,233,252948,2,0,B|120:281|120:281|154:323,1,97.9999970092774,0|0,1:0|0:0,0:0:0:0:
235,374,253504,6,0,L|240:342,3,24.4999992523194,2|0|0|0,3:2|0:0|0:0|0:0,0:0:0:0:
297,310,253782,5,2,0:0:0:0:
307,308,253851,5,2,0:0:0:0:
318,309,253920,5,2,0:0:0:0:
329,313,253990,5,2,0:0:0:0:
338,319,254059,6,0,L|354:213,1,97.9999970092774,2|0,1:2|3:0,0:0:0:0:
375,68,254615,6,0,B|318:78|318:78|298:70|279:68|279:68|205:78,1,157.500006008148,10|0,0:0|0:0,0:0:0:0:
152,88,255170,6,0,L|144:139,1,35.0000013351441,2|0,1:2|0:0,0:0:0:0:
0,146,255356,2,0,L|8:197,1,35.0000013351441,0|0,1:0|0:0,0:0:0:0:
132,194,255541,2,0,L|124:245,1,35.0000013351441,2|0,1:2|0:0,0:0:0:0:
24,315,255726,6,0,P|44:348|104:367,1,97.9999970092774,2|2,3:2|0:0,0:0:0:0:
104,359,256073,5,2,0:0:0:0:
110,351,256143,5,2,0:0:0:0:
116,343,256212,5,2,0:0:0:0:
122,335,256282,6,0,P|180:342|215:321,1,97.9999970092774,2|0,1:2|3:0,0:0:0:0:
371,179,256837,5,8,0:0:0:0:
308,148,257115,1,0,0:0:0:0:
204,148,257393,5,0,1:0:0:0:
141,179,257671,1,8,0:0:0:0:
312,218,257948,5,0,3:0:0:0:
145,108,258226,1,0,3:0:0:0:
367,108,258504,5,0,1:0:0:0:
200,218,258782,1,0,3:0:0:0:
267,11,259059,6,0,L|256:97,1,87.5,8|0,0:0|0:0,0:0:0:0:
276,165,259893,5,2,0:0:0:0:
433,197,260170,1,6,3:2:0:0:
383,46,260448,2,0,P|349:91|367:191,1,157.500006008148,2|0,0:0|0:0,0:0:0:0:
433,197,261004,5,2,3:2:0:0:
383,46,261281,1,10,0:0:0:0:
276,165,261559,2,0,P|331:171|409:106,1,157.500006008148,2|0,0:0|0:0,0:0:0:0:
383,46,262115,5,2,0:0:0:0:
276,165,262392,1,2,3:2:0:0:
433,197,262670,2,0,P|411:145|315:110,1,157.500006008148,2|0,0:0|0:0,0:0:0:0:
276,165,263226,5,2,3:2:0:0:
229,113,263504,5,10,0:0:0:0:
288,234,263782,1,2,3:2:0:0:
270,301,264059,5,2,1:2:0:0:
246,45,264337,1,10,0:0:0:0:
43,200,264615,5,2,3:2:0:0:
93,49,264893,2,0,P|127:94|109:194,1,157.500006008148,2|0,0:0|0:0,0:0:0:0:
43,200,265449,5,2,3:2:0:0:
93,49,265726,1,10,0:0:0:0:
200,168,266004,2,0,P|144:174|66:109,1,157.500006008148,2|0,0:0|0:0,0:0:0:0:
93,49,266560,5,2,0:0:0:0:
200,168,266837,1,2,3:2:0:0:
43,200,267115,2,0,P|64:148|160:113,1,157.500006008148,2|0,0:0|0:0,0:0:0:0:
200,168,267671,1,2,3:2:0:0:
176,295,267948,6,0,L|165:344,1,35,10|0,0:0|0:0,0:0:0:0:
294,256,268226,2,0,L|305:305,1,35,2|0,3:2|0:0,0:0:0:0:
358,237,268504,6,0,L|367:279,1,43.75,2|0,1:2|0:0,0:0:0:0:
112,275,268782,2,0,L|102:317,1,43.75,10|8,0:0|0:0,0:0:0:0:
49,259,269059,6,0,L|37:309,1,52.5000020027161,2|0,3:2|0:0,0:0:0:0:
195,342,269337,2,0,L|175:220,1,105.000004005432,2|0,0:0|0:0,0:0:0:0:
133,50,269893,5,2,3:2:0:0:
161,170,270170,2,0,L|149:119,1,52.5000020027161,10|0,0:0|0:0,0:0:0:0:
307,87,270448,2,0,L|287:209,1,105.000004005432,2|0,0:0|0:0,0:0:0:0:
245,379,271004,5,2,0:0:0:0:
273,259,271281,2,0,L|261:309,1,52.5000020027161,2|0,3:2|0:0,0:0:0:0:
419,342,271559,2,0,L|399:220,1,105.000004005432,2|0,0:0|3:0,0:0:0:0:
374,41,272115,1,2,3:2:0:0:
477,65,272393,6,0,L|442:57,1,35,10|0,0:0|0:0,0:0:0:0:
288,98,272670,2,0,L|322:90,1,35,2|0,3:2|0:0,0:0:0:0:
270,169,272948,6,0,L|314:158,1,43.75,2|0,1:2|0:0,0:0:0:0:
491,135,273226,2,0,L|446:124,1,43.75,10|0,0:0|0:0,0:0:0:0:
225,65,273504,5,2,3:2:0:0:
380,142,273782,2,0,B|401:199|335:230|355:294,1,157.500006008148,2|0,0:0|0:0,0:0:0:0:
416,327,274337,2,0,P|452:336|467:359,1,52.5000020027161,2|0,3:2|0:0,0:0:0:0:
200,300,274615,6,0,L|167:233,1,70,10|0,0:0|0:0,0:0:0:0:
163,226,275032,1,0,0:0:0:0:
276,279,275170,6,0,L|260:183,1,87.5,2|0,1:2|0:0,0:0:0:0:
260,181,275587,1,0,0:0:0:0:
354,292,275726,6,0,L|369:171,1,105.000004005432,2|0,3:2|0:0,0:0:0:0:
368,177,276143,1,0,0:0:0:0:
256,355,276282,6,0,L|186:369,1,52.5000020027161,2|0,3:2|0:0,0:0:0:0:
94,337,276559,2,0,L|146:327,1,52.5000020027161,2|0,3:2|0:0,0:0:0:0:
245,280,276837,6,0,L|315:294,1,52.5000020027161,10|0,0:0|0:0,0:0:0:0:
406,262,277115,2,0,L|354:251,1,52.5000020027161,2|0,3:2|0:0,0:0:0:0:
252,207,277393,6,0,L|182:221,1,52.5000020027161,2|0,1:2|0:0,0:0:0:0:
91,189,277670,2,0,L|142:178,1,52.5000020027161,2|0,3:2|3:0,0:0:0:0:
285,145,277948,5,2,3:2:0:0:
73,120,278226,2,0,P|36:143|23:209,1,105.000004005432,2|0,0:0|0:0,0:0:0:0:
227,336,278782,5,2,3:2:0:0:
285,145,279059,1,10,0:0:0:0:
91,189,279337,2,0,P|175:218|236:190,1,157.500006008148,2|0,0:0|0:0,0:0:0:0:
285,145,279893,5,2,0:0:0:0:
91,189,280170,1,2,3:2:0:0:
227,336,280448,2,0,P|210:248|155:209,1,157.500006008148,2|0,0:0|0:0,0:0:0:0:
91,189,281004,5,2,3:2:0:0:
227,336,281282,1,10,0:0:0:0:
285,145,281559,6,0,P|250:163|224:190,1,52.5000020027161,2|0,3:2|0:0,0:0:0:0:
90,188,281837,2,0,P|112:203|136:213,1,52.5000020027161,2|0,1:2|0:0,0:0:0:0:
226,336,282115,2,0,P|228:309|225:283,1,52.5000020027161,10|0,0:0|0:0,0:0:0:0:
201,224,282393,6,0,L|42:252,1,157.500006008148,2|0,3:2|0:0,0:0:0:0:
177,156,282948,2,0,L|34:181,1,131.25,2|0,0:0|0:0,0:0:0:0:
150,89,283504,2,0,L|34:109,1,105,10|0,0:0|0:0,0:0:0:0:
123,23,284059,2,0,L|40:37,1,78.7500030040742,0|0,1:0|0:0,0:0:0:0:
193,33,284615,5,0,3:0:0:0:
138,223,284893,1,0,3:0:0:0:
207,241,285170,5,0,3:0:0:0:
123,23,285448,1,0,3:0:0:0:
353,59,285726,2,0,B|410:165|332:314|223:311|223:311|269:297|278:252,1,420.000016021729,8|0,0:0|0:0,0:0:0:0:
475,105,304615,6,0,B|304:30|207:309|30:232,1,490,2|0,0:0|0:0,0:0:0:0:
178,391,309059,6,0,P|203:303|107:70,1,350,2|0,0:0|0:0,0:0:0:0:
110,72,312948,2,0,B|137:82|159:56|187:65,1,78.7500030040742,2|0,0:0|0:0,0:0:0:0:
241,21,313504,6,0,P|206:152|208:225,1,210,2|0,0:0|0:0,0:0:0:0:
295,70,315726,2,0,P|274:148|275:191,1,122.5,2|0,0:0|0:0,0:0:0:0:
326,237,316837,6,0,B|377:253|425:185|475:208,1,157.500006008148,2|0,0:0|0:0,0:0:0:0:
334,51,317948,6,0,P|297:145|394:90,1,280,2|0,0:0|0:0,0:0:0:0:
250,196,321004,5,2,0:0:0:0:
188,162,321282,1,2,0:0:0:0:
176,165,321559,1,2,0:0:0:0:
304,242,321837,1,2,0:0:0:0:
316,245,322114,1,2,0:0:0:0:
247,124,322393,6,0,L|265:20,1,105.000004005432,6|0,3:2|0:0,0:0:0:0:
276,23,322809,2,0,L|258:127,1,105.000004005432,2|0,0:0|0:0,0:0:0:0:
250,196,323226,1,2,3:2:0:0:
337,83,323504,6,0,P|389:45|478:62,1,157.500006008148,10|0,0:0|0:0,0:0:0:0:
510,123,324059,2,0,L|502:180,1,52.5000020027161,2|0,1:2|0:0,0:0:0:0:
493,245,324337,1,2,0:0:0:0:
324,151,324615,5,0,3:0:0:0:
422,301,324893,1,0,0:0:0:0:
476,60,325170,1,0,3:0:0:0:
345,216,325448,5,2,3:2:0:0:
181,109,325726,2,0,P|139:103|85:143,1,105.000004005432,10|0,0:0|3:0,0:0:0:0:
52,269,326282,6,0,P|61:304|63:334,1,35.0000013351441,2|0,1:2|0:0,0:0:0:0:
192,340,326467,2,0,P|203:327|216:315,1,35.0000013351441,0|0,1:0|0:0,0:0:0:0:
184,182,326652,2,0,P|167:178|151:173,1,35.0000013351441,0|0,1:0|0:0,0:0:0:0:
141,264,326837,6,0,L|295:226,1,157.500006008148,0|0,3:0|0:0,0:0:0:0:
361,213,327393,2,0,P|351:265|301:294,1,105.000004005432,0|2,1:0|3:2,0:0:0:0:
347,145,327948,6,0,B|408:127|429:207|494:193,1,157.500006008148,10|0,0:0|0:0,0:0:0:0:
479,123,328504,2,0,P|473:97|480:72,1,52.5000020027161,2|0,1:2|0:0,0:0:0:0:
380,17,328782,2,0,B|427:8|427:8|434:8|434:8|489:-2,1,105.000004005432,2|0,0:0|3:0,0:0:0:0:
347,145,329337,2,0,P|341:88|290:45,1,105.000004005432,2|0,0:0|3:0,0:0:0:0:
156,30,329893,5,2,3:2:0:0:
194,176,330170,2,0,L|312:198,1,105.000004005432,10|0,0:0|3:0,0:0:0:0:
156,272,330726,2,0,P|141:243|142:218,1,52.5000020027161,2|0,1:2|0:0,0:0:0:0:
277,261,331004,5,0,1:0:0:0:
281,271,331096,1,0,1:0:0:0:
284,281,331189,1,0,1:0:0:0:
288,291,331282,6,0,P|239:297|197:338,1,105.000004005432,2|0,3:2|0:0,0:0:0:0:
53,288,331837,2,0,L|37:181,1,105.000004005432,0|0,1:0|3:0,0:0:0:0:
15,58,332393,6,0,B|78:66|78:66|104:52|104:52|189:63,1,157.500006008148,10|0,0:0|0:0,0:0:0:0:
208,0,332948,2,0,P|228:16|236:40,1,52.5000020027161,2|0,1:2|0:0,0:0:0:0:
189,203,333226,2,0,P|190:151|220:109,1,105.000004005432,2|0,0:0|3:2,0:0:0:0:
334,12,333782,5,0,0:0:0:0:
440,99,334059,2,0,P|363:110|288:89,1,157.500006008148,0|0,3:0|0:0,0:0:0:0:
219,109,334615,2,0,L|202:216,1,105.000004005432,10|0,0:0|3:0,0:0:0:0:
182,367,335170,6,0,P|159:351|129:344,1,35.0000013351441,2|0,1:2|0:0,0:0:0:0:
10,321,335356,2,0,P|34:308|55:286,1,35.0000013351441,0|0,1:0|0:0,0:0:0:0:
135,195,335541,2,0,P|133:222|142:251,1,35.0000013351441,2|0,1:2|0:0,0:0:0:0:
109,294,335726,5,0,3:0:0:0:
10,155,336004,2,0,P|54:160|110:109,1,105.000004005432,2|0,0:0|1:0,0:0:0:0:
48,37,336559,2,0,L|40:88,1,52.5000020027161,2|0,3:2|0:0,0:0:0:0:
135,195,336837,2,0,P|193:198|228:242,1,105.000004005432,8|0,0:0|0:0,0:0:0:0:
271,384,337393,1,0,1:0:0:0:
317,210,337670,1,2,0:0:0:0:
198,320,337948,6,0,L|95:337,1,105.000004005432,2|0,3:2|0:0,0:0:0:0:
223,230,338504,1,2,3:2:0:0:
362,353,338782,1,0,3:0:0:0:
399,173,339059,2,0,P|396:111|413:56,1,105.000004005432,10|0,1:2|3:0,0:0:0:0:
506,226,339615,2,0,L|450:219,1,52.5000020027161,2|0,3:2|0:0,0:0:0:0:
306,87,339893,5,10,0:0:0:0:
296,91,339985,1,0,1:0:0:0:
286,95,340078,1,0,1:0:0:0:
276,99,340170,6,0,P|229:67|167:83,1,105.000004005432,0|0,3:0|0:0,0:0:0:0:
88,236,340726,1,0,1:0:0:0:
50,52,341004,1,0,3:0:0:0:
155,214,341282,6,0,B|180:264|107:312|127:362,1,157.500006008148,8|0,0:0|0:0,0:0:0:0:
194,343,341837,2,0,P|235:343|285:385,1,105.000004005432,0|2,1:0|0:0,0:0:0:0:
356,311,342393,6,0,P|340:240|338:200,1,105.000004005432,2|0,3:2|0:0,0:0:0:0:
102,219,342948,2,0,P|172:240|208:259,1,105.000004005432,2|0,3:2|3:0,0:0:0:0:
309,45,343504,2,0,P|255:95|221:116,1,105.000004005432,10|0,0:0|3:0,0:0:0:0:
276,274,344059,6,0,P|271:233|272:209,1,35.0000013351441,2|0,1:2|0:0,0:0:0:0:
317,133,344244,2,0,P|303:145|289:155,1,35.0000013351441,0|0,1:0|0:0,0:0:0:0:
174,168,344430,2,0,P|191:174|207:181,1,35.0000013351441,2|0,1:2|0:0,0:0:0:0:
343,298,344615,6,0,P|319:331|241:334,1,105.000004005432,0|0,3:0|0:0,0:0:0:0:
56,257,345170,1,0,1:0:0:0:
142,370,345448,2,0,L|153:306,1,52.5000020027161,0|0,3:0|0:0,0:0:0:0:
174,168,345726,5,8,0:0:0:0:
42,351,346004,1,0,0:0:0:0:
225,253,346282,1,0,1:0:0:0:
67,116,346559,5,2,0:0:0:0:
220,14,346837,2,0,P|277:17|319:69,1,105.000004005432,2|0,3:2|3:0,0:0:0:0:
328,233,347393,2,0,L|221:253,1,105.000004005432,2|0,3:2|3:0,0:0:0:0:
148,52,347948,5,10,0:0:0:0:
357,168,348226,1,0,3:0:0:0:
158,299,348504,1,2,3:2:0:0:
377,101,348782,5,10,0:0:0:0:
387,105,348874,1,0,1:0:0:0:
397,109,348967,1,0,1:0:0:0:
407,113,349059,6,0,L|384:9,1,105.000004005432,0|0,3:0|0:0,0:0:0:0:
475,134,349615,1,0,1:0:0:0:
368,299,349893,1,0,3:0:0:0:
497,212,350170,2,0,P|445:207|404:238,1,105.000004005432,8|0,0:0|0:0,0:0:0:0:
331,359,350726,2,0,P|279:363|238:332,1,105.000004005432,0|2,1:0|0:0,0:0:0:0:
190,228,351282,5,2,3:2:0:0:
227,38,351559,1,0,3:0:0:0:
303,262,351837,5,2,3:2:0:0:
148,119,352115,1,0,3:0:0:0:
99,323,352393,6,0,P|150:359|165:301,1,140,10|4,0:0|0:0,0:0:0:0:
256,192,353643,12,0,362393,0:0:0:0:
