osu file format v14

[General]
AudioFilename: audio.mp3
AudioLeadIn: 0
PreviewTime: 217232
Countdown: 0
SampleSet: Soft
StackLeniency: 0.2
Mode: 0
LetterboxInBreaks: 0
WidescreenStoryboard: 1

[Editor]
Bookmarks: 61403,79703,99803,119003,138203,155003,175403,195803,236603,246203
DistanceSpacing: 1.4
BeatDivisor: 12
GridSize: 8
TimelineZoom: 2

[Metadata]
Title:Lust For Life (feat. The Weeknd)
TitleUnicode:Lust For Life (feat. The Weeknd)
Artist:Lana Del Rey
ArtistUnicode:Lana Del Rey
Creator:schoolboy
Version:Hollywood Sign (feat. The Irohas)
Source:
Tags:MUGIWARASEKAI IROHAS KOMORE Dream pop collab COLLABORATION english
BeatmapID:2332329
BeatmapSetID:1116473

[Difficulty]
HPDrainRate:5.2
CircleSize:4.6
OverallDifficulty:7
ApproachRate:8.3
SliderMultiplier:1.6
SliderTickRate:1

[Events]
//Background and Video events
0,0,"MH6J2JZ.png",0,0
//Break Periods
//Storyboard Layer 0 (Background)
//Storyboard Layer 1 (Fail)
//Storyboard Layer 2 (Pass)
//Storyboard Layer 3 (Foreground)
//Storyboard Layer 4 (Overlay)
//Storyboard Sound Samples
Sample,236507,0,"veter.wav",35
Sample,246107,0,"veter.wav",35

[TimingPoints]
3707,600,4,2,1,45,1,0
3707,-133.333333333333,4,2,1,45,0,0
22907,-133.333333333333,4,2,1,57,0,0
24407,-83.3333333333333,4,2,1,57,0,0
27707,-133.333333333333,4,2,1,57,0,0
29507,-83.3333333333333,4,2,1,57,0,0
32507,-133.333333333333,4,2,1,57,0,0
34307,-83.3333333333333,4,2,1,57,0,0
37307,-83.3333333333333,4,2,1,57,0,0
38207,-100,4,2,1,46,0,0
41307,-166.666666666667,4,2,1,46,0,0
42107,-58.8235294117647,4,2,1,63,0,0
43907,-83.3333333333333,4,2,1,63,0,0
45107,-66.6666666666667,4,2,1,63,0,0
46907,-58.8235294117647,4,2,1,63,0,0
47307,-66.6666666666667,4,2,1,63,0,0
47907,-58.8235294117647,4,2,1,63,0,0
49907,-66.6666666666667,4,2,1,63,0,0
51707,-58.8235294117647,4,2,1,63,0,0
52007,-66.6666666666667,4,2,1,63,0,0
52607,-58.8235294117647,4,2,1,63,0,0
54707,-66.6666666666667,4,2,1,63,0,0
57107,-133.333333333333,4,2,1,63,0,0
59432,-66.6666666666667,4,2,1,63,0,0
61307,-66.6666666666667,4,2,1,63,0,0
63707,-66.6666666666667,4,2,1,63,0,0
63932,-66.6666666666667,4,2,1,63,0,0
64007,-66.6666666666667,4,2,1,63,0,0
64607,-66.6666666666667,4,2,1,63,0,0
64907,-66.6666666666667,4,2,1,63,0,0
70157,-76.9230769230769,4,2,1,63,0,0
70607,-66.6666666666667,4,2,1,63,0,0
70832,-66.6666666666667,4,2,1,63,0,0
70907,-58.8235294117647,4,2,1,63,0,0
71507,-66.6666666666667,4,2,1,63,0,0
72107,-66.6666666666667,4,2,1,63,0,0
77057,-66.6666666666667,4,2,1,63,0,0
78707,-90.9090909090909,4,2,1,48,0,0
79607,-66.6666666666667,4,2,1,63,0,0
80507,-58.8235294117647,4,2,1,75,0,0
80732,-66.6666666666667,4,2,1,75,0,0
82007,-66.6666666666667,4,2,1,75,0,0
82907,-58.8235294117647,4,2,1,75,0,0
83207,-66.6666666666667,4,2,1,75,0,0
90107,-53.1914893617021,4,2,1,75,0,0
90407,-66.6666666666667,4,2,1,75,0,0
92132,-60.6060606060606,4,2,1,75,0,0
92507,-58.8235294117647,4,2,1,75,0,0
92807,-66.6666666666667,4,2,1,75,0,0
99707,-133.333333333333,4,2,1,52,0,0
118307,-117.647058823529,4,2,1,52,0,0
118457,-117.647058823529,4,2,1,52,0,0
118532,-133.333333333333,4,2,1,58,0,0
120407,-83.3333333333333,4,2,1,58,0,0
123707,-133.333333333333,4,2,1,58,0,0
125507,-83.3333333333333,4,2,1,58,0,0
128507,-133.333333333333,4,2,1,58,0,0
130007,-83.3333333333333,4,2,1,58,0,0
134132,-100,4,2,1,43,0,0
137757,-100,4,2,1,43,0,0
138107,-58.8235294117647,4,2,1,66,0,0
139907,-83.3333333333333,4,2,1,66,0,0
141107,-66.6666666666667,4,2,1,66,0,0
142907,-58.8235294117647,4,2,1,66,0,0
143307,-66.6666666666667,4,2,1,66,0,0
143907,-58.8235294117647,4,2,1,66,0,0
144107,-66.6666666666667,4,2,1,66,0,0
144407,-58.8235294117647,4,2,1,66,0,0
145307,-83.3333333333333,4,2,1,66,0,0
145907,-66.6666666666667,4,2,1,66,0,0
147707,-58.8235294117647,4,2,1,66,0,0
148107,-71.4285714285714,4,2,1,66,0,0
150707,-66.6666666666667,4,2,1,66,0,0
153107,-133.333333333333,4,2,1,66,0,0
155507,-66.6666666666667,4,2,1,66,0,0
157307,-66.6666666666667,4,2,1,66,0,0
174707,-90.9090909090909,4,2,1,50,0,0
175607,-66.6666666666667,4,2,1,77,0,0
176507,-58.8235294117647,4,2,1,77,0,0
176732,-66.6666666666667,4,2,1,77,0,0
195107,-181.818181818181,4,2,1,77,0,0
195707,-158.730158730159,4,2,69,69,0,0
195757,-158.730158730159,4,2,1,50,0,0
198407,-158.730158730159,4,2,1,25,0,0
198857,-158.730158730159,4,2,1,37,0,0
199307,-158.730158730159,4,2,1,50,0,0
202757,-158.730158730159,4,2,1,25,0,0
203207,-158.730158730159,4,2,1,37,0,0
203882,-158.730158730159,4,2,1,27,0,0
204107,-158.730158730159,4,2,1,50,0,0
205307,-158.730158730159,4,2,69,69,0,0
205357,-158.730158730159,4,2,1,50,0,0
205607,-158.730158730159,4,2,1,25,0,0
206057,-158.730158730159,4,2,1,37,0,0
206507,-158.730158730159,4,2,1,50,0,0
208007,-158.730158730159,4,2,1,25,0,0
208607,-158.730158730159,4,2,1,50,0,0
210407,-158.730158730159,4,2,1,25,0,0
210857,-158.730158730159,4,2,1,40,0,0
211307,-158.730158730159,4,2,1,50,0,0
212807,-158.730158730159,4,2,1,25,0,0
213257,-158.730158730159,4,2,1,40,0,0
213707,-136.986301369863,4,2,1,50,0,0
214607,-188.679245283019,4,2,1,50,0,0
215157,-158.730158730159,4,2,1,5,0,0
215857,-188.679245283019,4,2,1,31,0,0
216407,-158.730158730159,4,2,1,41,0,0
231707,-303.030303030304,4,2,1,41,0,0
235607,-66.6666666666667,4,2,1,61,0,0
236507,-58.8235294117647,4,2,69,81,0,0
236557,-58.8235294117647,4,2,1,81,0,0
236732,-66.6666666666667,4,2,1,81,0,0
238907,-66.6666666666667,4,2,69,81,0,0
238957,-66.6666666666667,4,2,1,81,0,0
241307,-66.6666666666667,4,2,69,81,0,0
241357,-66.6666666666667,4,2,1,81,0,0
243707,-66.6666666666667,4,2,69,81,0,0
243757,-66.6666666666667,4,2,1,81,0,0
244907,-58.8235294117647,4,2,1,81,0,0
246107,-58.8235294117647,4,2,69,81,0,0
246157,-58.8235294117647,4,2,1,81,0,0
246707,-66.6666666666667,4,2,1,81,0,0
248507,-58.8235294117647,4,2,69,81,0,0
248557,-58.8235294117647,4,2,1,81,0,0
248807,-66.6666666666667,4,2,1,81,0,0
249407,-58.8235294117647,4,2,1,81,0,0
249707,-66.6666666666667,4,2,1,81,0,0
250907,-66.6666666666667,4,2,69,81,0,0
250957,-66.6666666666667,4,2,1,81,0,0
253307,-66.6666666666667,4,2,69,81,0,0
253357,-66.6666666666667,4,2,1,81,0,0
255707,-66.6666666666667,4,2,69,81,0,0
255757,-66.6666666666667,4,2,1,81,0,0
256907,-66.6666666666667,4,2,1,60,0,0
257507,-66.6666666666667,4,2,1,72,0,0
258107,-66.6666666666667,4,2,1,40,0,0
258707,-66.6666666666667,4,2,1,51,0,0
259307,-66.6666666666667,4,2,1,22,0,0
259907,-66.6666666666667,4,2,1,11,0,0
260507,-66.6666666666667,4,2,1,5,0,0

[Colours]
Combo1 : 255,157,255
Combo2 : 214,171,171
Combo3 : 194,242,179
Combo4 : 147,228,255

[HitObjects]
20,250,3707,6,0,P|75:247|91:300,1,120.000004577637,6|0,1:2|0:0,0:0:0:0:
155,372,4607,2,0,L|153:343,1,30.0000011444092,0|0,1:2|3:0,0:0:0:0:
214,299,4907,2,0,P|243:302|270:314,1,60.0000022888184,2|0,1:2|0:0,0:0:0:0:
333,271,5357,1,2,0:0:0:0:
392,316,5507,2,0,L|481:304,1,90.0000034332277,10|0,0:0|0:0,0:0:0:0:
481,304,6107,6,0,P|482:248|524:178,1,120.000004577637,2|0,1:2|0:0,0:0:0:0:
445,116,7007,2,0,L|450:146,1,30.0000011444092,2|0,1:2|0:0,0:0:0:0:
379,209,7307,2,0,L|383:172,1,30.0000011444092,2|0,1:2|0:0,0:0:0:0:
320,137,7607,1,2,0:0:0:0:
293,350,7907,6,0,P|311:327|287:347,1,90.0000034332277,10|0,0:0|0:0,0:0:0:0:
286,346,8507,6,0,P|228:321|163:332,1,120.000004577637,6|0,1:2|0:0,0:0:0:0:
103,259,9407,2,0,L|107:289,1,30.0000011444092,0|0,1:2|0:0,0:0:0:0:
44,331,9707,1,2,1:2:0:0:
191,244,10007,1,0,0:0:0:0:
42,160,10307,2,0,L|12:166,1,30.0000011444092,10|0,0:0|3:0,0:0:0:0:
129,118,10607,2,0,L|100:112,1,30.0000011444092,2|0,0:0|0:0,0:0:0:0:
189,163,10907,6,0,P|243:145|254:89,1,120.000004577637,2|0,1:2|0:0,0:0:0:0:
319,14,11807,2,0,L|315:44,1,30.0000011444092,0|0,1:2|0:0,0:0:0:0:
370,94,12107,2,0,P|415:87|444:65,1,60.0000022888184,2|0,1:2|0:0,0:0:0:0:
487,35,12557,1,2,0:0:0:0:
508,106,12707,2,0,P|491:147|491:192,1,90.0000034332277,10|0,0:0|0:0,0:0:0:0:
497,200,13307,5,6,1:2:0:0:
443,286,13457,2,0,L|447:256,1,30.0000011444092,2|0,0:0|0:0,0:0:0:0:
497,200,13757,5,2,0:0:0:0:
452,316,13907,2,0,L|447:251,1,60.0000022888184,2|0,0:0|1:0,0:0:0:0:
384,214,14357,1,2,0:0:0:0:
317,250,14507,2,0,L|274:246,1,30.0000011444092,2|0,1:2|0:0,0:0:0:0:
229,198,14807,2,0,L|190:206,1,30.0000011444092,2|0,0:0|0:0,0:0:0:0:
137,247,15107,2,0,P|75:243|51:210,1,90.0000034332277,10|0,0:0|3:0,0:0:0:0:
2,174,15707,6,0,P|19:227|17:292,1,120.000004577637,2|0,1:2|0:0,0:0:0:0:
80,364,16607,2,0,L|78:334,1,30.0000011444092,0|0,1:2|0:0,0:0:0:0:
140,292,16907,2,0,L|214:281,1,60.0000022888184,2|0,1:2|0:0,0:0:0:0:
260,240,17357,1,2,0:0:0:0:
323,279,17507,2,0,P|367:287|396:329,1,90.0000034332277,8|0,0:0|0:0,0:0:0:0:
405,329,18107,5,6,1:2:0:0:
471,256,18257,2,0,L|465:285,1,30.0000011444092,2|0,0:0|0:0,0:0:0:0:
405,329,18557,5,2,0:0:0:0:
459,226,18707,2,0,L|467:302,1,60.0000022888184,2|0,0:0|1:0,0:0:0:0:
330,384,19307,2,0,L|336:323,2,40.000001525879,2|2|2,1:2|0:0|0:0,0:0:0:0:
236,351,19907,6,0,P|190:352|151:374,1,90.0000034332277,10|0,0:0|3:0,0:0:0:0:
140,381,20507,6,0,P|156:322|134:244,1,120.000004577637,2|0,1:2|0:0,0:0:0:0:
80,188,21407,2,0,L|85:218,1,30.0000011444092,2|0,1:2|0:0,0:0:0:0:
25,264,21707,2,0,L|17:330,1,60.0000022888184,2|0,1:2|0:0,0:0:0:0:
85,218,22157,1,2,0:0:0:0:
24,173,22307,6,0,L|-14:180,1,30.0000011444092,10|0,0:0|3:0,0:0:0:0:
30,168,22532,2,0,P|43:141|43:111,1,60.0000022888184,2|0,0:0|3:0,0:0:0:0:
36,100,22907,6,0,L|31:67,1,30.0000011444092,6|0,1:2|0:0,0:0:0:0:
73,13,23207,1,2,0:0:0:0:
123,166,23507,6,0,P|138:153|155:152,1,30.0000011444092,2|0,0:3|0:0,0:0:0:0:
195,99,23807,2,0,L|190:66,1,30.0000011444092,0|0,1:2|0:0,0:0:0:0:
232,12,24107,1,0,1:0:0:0:
232,12,24407,6,0,P|267:9|295:29,1,71.9999978027344,2|0,0:3|3:0,0:0:0:0:
351,74,24707,2,0,P|386:77|414:57,1,71.9999978027344,10|0,0:0|3:0,0:0:0:0:
479,24,25007,2,0,P|498:53|499:89,1,71.9999978027344,2|0,0:0|3:0,0:0:0:0:
476,158,25307,6,0,L|399:145,1,71.9999978027344,2|0,1:3|3:0,0:0:0:0:
349,191,25607,2,0,L|272:204,1,71.9999978027344,2|0,0:0|3:0,0:0:0:0:
218,162,25907,2,0,P|205:140|222:158,1,71.9999978027344,2|0,0:3|3:0,0:0:0:0:
278,202,26207,2,0,L|286:281,1,71.9999978027344,2|0,1:2|3:0,0:0:0:0:
232,324,26507,2,0,B|170:309|160:356|92:344,1,143.999995605469,2|0,1:2|0:0,0:0:0:0:
92,344,27107,2,0,P|94:308|83:274,1,71.9999978027344,10|0,0:0|3:0,0:0:0:0:
29,226,27407,2,0,P|16:218|41:220,1,71.9999978027344,2|0,0:3|3:0,0:0:0:0:
83,274,27707,6,0,L|121:270,1,30.0000011444092,6|0,1:2|0:0,0:0:0:0:
167,226,28007,1,2,0:0:0:0:
259,377,28307,6,0,P|264:357|263:344,1,30.0000011444092,2|0,0:3|0:0,0:0:0:0:
318,301,28607,2,0,L|356:305,1,30.0000011444092,0|0,1:2|0:0,0:0:0:0:
409,338,28907,2,0,P|433:329|470:330,1,60.0000022888184,0|2,1:0|0:3,0:0:0:0:
467,330,29507,6,0,P|447:296|449:247,1,71.9999978027344,10|0,0:0|3:0,0:0:0:0:
388,218,29807,2,0,P|389:178|418:138,1,71.9999978027344,2|0,0:3|3:0,0:0:0:0:
464,109,30107,6,0,L|475:21,1,71.9999978027344,2|0,1:3|3:0,0:0:0:0:
404,11,30407,2,0,L|327:23,1,71.9999978027344,2|0,0:0|3:0,0:0:0:0:
285,75,30707,2,0,P|251:65|208:63,1,71.9999978027344,2|0,0:3|3:0,0:0:0:0:
153,23,31007,2,0,P|105:42|80:35,1,71.9999978027344,2|0,1:2|3:0,0:0:0:0:
18,13,31307,2,0,P|49:35|63:139,1,143.999995605469,2|0,1:2|0:0,0:0:0:0:
0,183,31907,2,0,B|62:168|72:215|139:203,1,143.999995605469,10|0,0:0|0:0,0:0:0:0:
199,125,32507,6,0,L|195:166,1,30.0000011444092,6|0,1:2|0:0,0:0:0:0:
246,205,32807,1,2,0:0:0:0:
341,372,33107,6,0,L|337:331,1,30.0000011444092,2|0,0:3|0:0,0:0:0:0:
394,294,33407,2,0,L|398:253,1,30.0000011444092,0|0,1:2|0:0,0:0:0:0:
346,213,33707,2,0,L|339:151,1,60.0000022888184,0|2,1:0|0:3,0:0:0:0:
340,153,34307,6,0,P|346:125|328:146,1,71.9999978027344,10|0,0:0|3:0,0:0:0:0:
281,197,34607,2,0,P|238:180|210:187,1,71.9999978027344,2|0,0:3|3:0,0:0:0:0:
152,148,34907,6,0,L|144:74,1,71.9999978027344,2|0,1:2|3:0,0:0:0:0:
192,23,35207,1,2,0:0:0:0:
77,125,35507,6,0,L|69:199,1,71.9999978027344,2|0,0:3|3:0,0:0:0:0:
18,248,35807,2,0,P|10:283|22:325,1,71.9999978027344,2|0,1:2|3:0,0:0:0:0:
73,363,36107,2,0,P|100:328|204:338,1,143.999995605469,2|0,1:2|3:0,0:0:0:0:
265,369,36707,2,0,P|284:301|268:231,1,143.999995605469,10|0,0:0|3:0,0:0:0:0:
176,196,37307,6,0,B|281:210|260:138|359:152,1,191.999994140625,6|0,1:2|3:0,0:0:0:0:
356,151,38207,6,0,P|357:132|352:112,1,40,2|0,0:0|3:0,0:0:0:0:
295,52,38507,1,2,0:0:0:0:
363,6,38707,1,2,0:0:0:0:
351,111,38907,2,0,B|310:107|292:85|292:85|260:102|218:88,1,133.333333333333,2|0,0:0|3:0,0:0:0:0:
226,90,39707,6,0,P|216:62|218:28,1,53.3333333333333,2|2,0:0|0:0,0:0:0:0:
264,161,40057,2,0,P|229:126|136:137,1,146.666666666667,2|0,0:0|3:0,0:0:0:0:
73,169,40757,1,2,0:0:0:0:
13,126,40907,2,0,P|6:102|9:62,1,53.3333333333333,2|2,0:0|0:0,0:0:0:0:
76,179,41307,6,0,B|70:214|70:214|79:241|75:275,1,95.9999970703126,2|0,0:0|3:0,0:0:0:0:
32,368,42107,6,0,P|81:319|147:331,1,136.000002593994,6|0,1:2|1:0,0:0:0:90:thunder.wav
213,369,42507,2,0,P|232:318|204:203,1,136.000002593994,2|0,0:0|0:0,0:0:0:0:
332,73,43007,2,0,P|314:114|315:159,1,90.6666683959961,2|0,0:0|0:0,0:0:0:0:
380,208,43307,2,0,B|445:214|444:171|510:179,1,136.000002593994,10|0,0:0|0:0,0:0:0:0:
510,308,43757,5,0,1:0:0:0:
511,317,43907,2,0,P|467:296|420:292,1,95.9999970703126,2|0,0:0|1:0,0:0:0:0:
355,340,44357,1,0,0:0:0:0:
288,295,44507,5,2,1:2:0:0:
349,22,44807,1,0,1:0:0:0:
349,22,45107,6,0,P|367:62|370:107,1,90.0000034332277,2|0,1:2|3:0,0:0:0:0:
386,183,45407,2,0,P|352:157|306:156,1,90.0000034332277,2|0,0:0|3:0,0:0:0:0:
240,114,45707,2,0,L|146:126,1,90.0000034332277,10|0,0:0|3:0,0:0:0:0:
78,94,46007,2,0,P|64:60|91:81,1,90.0000034332277,2|0,0:0|3:0,0:0:0:0:
150,125,46307,2,0,P|172:174|165:242,1,120.000004577637,2|0,0:0|1:0,0:0:0:0:
107,297,46757,1,0,0:0:0:0:
171,351,46907,6,0,B|240:358|236:314|302:321,1,136.000002593994,6|0,1:2|1:0,0:0:0:0:
369,368,47307,2,0,P|350:316|443:342,1,200.000007629395,2|0,0:0|0:0,0:0:0:0:
452,333,47907,2,0,P|467:315|470:293,1,45.3333341979981,2|0,0:0|3:0,0:0:0:0:
512,230,48107,2,0,P|497:177|459:144,1,90.6666683959961,10|0,0:0|3:0,0:0:0:0:
497,65,48407,2,0,P|454:115|383:113,2,136.000002593994,2|0|0,0:0|1:0|1:0,0:0:0:0:
278,0,49307,5,2,1:2:0:0:
348,267,49607,1,0,1:2:0:0:
348,267,49907,6,0,P|309:232|251:235,1,90.0000034332277,2|0,1:2|3:0,0:0:0:0:
210,180,50207,2,0,L|109:196,1,90.0000034332277,2|0,0:0|3:0,0:0:0:0:
71,255,50507,2,0,P|36:260|66:245,1,90.0000034332277,10|0,0:0|3:0,0:0:0:0:
121,194,50807,2,0,P|139:153|139:108,1,90.0000034332277,2|0,0:0|3:0,0:0:0:0:
134,30,51107,2,0,P|89:18|85:92,1,120.000004577637,2|0,0:0|1:0,0:0:0:0:
139,108,51557,1,0,0:0:0:0:
2,221,51707,6,0,P|65:180|126:197,1,136.000002593994,6|0,1:2|1:0,0:0:0:0:
197,159,52107,2,0,P|217:141|129:123,1,200.000007629395,2|0,0:0|0:0,0:0:0:0:
120,108,52707,2,0,P|105:81|113:47,1,45.3333341979981,2|0,0:0|3:0,0:0:0:0:
39,26,52907,2,0,P|13:62|18:106,1,90.6666683959961,10|0,0:0|3:0,0:0:0:0:
76,175,53207,2,0,P|127:133|193:137,2,136.000002593994,2|0|0,0:0|1:0|1:0,0:0:0:0:
14,230,53957,1,0,0:0:0:0:
72,287,54107,5,2,1:2:0:0:
357,177,54407,1,0,0:0:0:0:
357,177,54707,6,0,P|378:130|366:69,1,90.0000034332277,2|0,1:2|3:0,0:0:0:0:
321,39,55007,2,0,P|311:21|316:48,1,90.0000034332277,2|0,0:0|3:0,0:0:0:0:
375,92,55307,2,0,P|421:76|426:-6,1,120.000004577637,10|0,0:0|0:0,0:0:0:0:
512,84,55757,2,0,P|490:138|495:216,1,120.000004577637,2|0,1:2|0:0,0:0:0:0:
427,252,56207,2,0,P|403:268|422:240,1,90.0000034332277,2|0,0:0|3:0,0:0:0:0:
494,292,56507,6,0,L|487:329,1,30.0000011444092,6|0,1:2|3:0,0:0:0:0:
399,138,56807,1,0,1:0:0:0:
399,138,57107,6,0,L|389:76,1,60.0000022888184,2|0,0:0|0:0,0:0:0:0:
309,184,57707,2,0,L|319:122,1,60.0000022888184,10|0,0:0|0:0,0:0:0:0:
311,116,58157,1,0,1:0:0:0:
238,143,58307,2,0,L|224:61,1,60.0000022888184,2|0,0:0|0:0,0:0:0:0:
303,12,58907,5,2,1:2:0:0:
211,273,59207,2,0,L|205:233,1,30.0000011444092,0|0,1:0|3:0,0:0:0:0:
206,243,59432,6,0,P|175:190|125:209,1,120.000004577637,2|0,0:2|3:0,0:0:0:0:
55,192,59807,2,0,P|75:232|70:285,1,90.0000034332277,2|0,0:0|3:0,0:0:0:0:
20,332,60107,2,0,P|76:321|116:362,1,120.000004577637,10|0,0:0|0:0,0:0:0:0:
201,304,60557,2,0,B|259:314|260:285|319:292,1,120.000004577637,2|0,1:2|0:0,0:0:0:0:
389,341,61007,2,0,P|400:361|381:344,1,60.0000022888184,2|0,0:0|0:0,0:0:0:0:
469,308,61307,6,0,P|477:248|491:184,1,120.000004577637,6|0,1:2|1:0,0:0:0:0:
354,14,61757,2,0,P|346:74|332:138,1,120.000004577637,2|0,1:2|0:0,0:0:0:0:
397,223,62207,2,0,P|409:216|388:218,1,60.0000022888184,2|0,0:0|3:0,0:0:0:0:
313,270,62507,2,0,P|267:240|197:250,1,120.000004577637,10|0,0:0|0:0,0:0:0:0:
133,291,62957,1,0,1:2:0:0:
69,242,63107,5,2,0:0:0:0:
221,0,63407,1,0,1:0:0:0:
221,0,63707,2,0,P|238:34|240:89,1,90.0000034332277,2|0,1:2|3:0,0:0:0:0:
183,152,64007,2,0,P|160:167|179:140,1,90.0000034332277,0|0,1:2|3:0,0:0:0:0:
257,186,64307,2,0,B|337:186|336:136|434:149,1,180.000006866455,2|0,0:2|3:0,0:0:0:0:
501,94,64907,6,0,P|456:54|399:66,1,120.000004577637,8|0,0:0|3:0,0:0:0:0:
430,148,65357,2,0,P|424:180|417:219,1,60.0000022888184,2|2,1:2|0:0,0:0:0:0:
301,364,65807,1,2,1:2:0:0:
301,364,65957,1,2,0:0:0:0:
301,364,66107,2,0,P|306:326|316:300,1,60.0000022888184,6|0,1:2|3:0,0:0:0:0:
197,224,66407,2,0,L|212:292,1,60.0000022888184,2|0,1:3|0:0,0:0:0:0:
125,348,66707,6,0,P|80:376|6:356,1,120.000004577637,2|0,0:3|1:2,0:0:0:0:
322,223,67307,2,0,P|381:208|451:206,1,120.000004577637,10|0,0:0|0:0,0:0:0:0:
253,164,67757,5,2,0:3:0:0:
197,224,67907,2,0,P|159:245|84:234,1,120.000004577637,0|0,0:0|1:0,0:0:0:0:
30,166,68357,1,2,0:0:0:0:
26,166,68507,6,0,P|4:155|26:173,1,90.0000034332277,2|0,1:2|3:0,0:0:0:0:
90,101,68807,2,0,P|101:57|94:8,1,90.0000034332277,2|0,1:2|3:0,0:0:0:0:
95,13,69107,2,0,L|29:26,1,60.0000022888184,2|0,1:3|3:0,0:0:0:0:
234,124,69407,6,0,P|221:164|220:212,1,90.0000034332277,2|0,0:0|3:0,0:0:0:0:
291,273,69707,2,0,B|364:280|358:234|438:245,1,150.000005722046,10|0,0:0|3:0,0:0:0:0:
497,310,70157,2,0,P|472:337|395:326,1,103.999995239258,2|0,1:3|3:0,0:0:0:0:
435,244,70607,2,0,P|444:201|454:149,1,90.0000034332277,2|0,1:3|3:0,0:0:0:0:
376,96,70907,5,6,1:2:0:0:
497,310,71207,1,0,1:0:0:0:
275,264,71507,2,0,P|235:272|142:289,1,120.000004577637,2|0,1:2|0:0,0:0:0:0:
87,336,71957,1,2,0:0:0:0:
25,282,72107,2,0,P|41:229|38:151,1,120.000004577637,10|0,0:0|0:0,0:0:0:0:
101,106,72557,1,0,1:0:0:0:
35,51,72707,2,0,P|9:32|29:55,1,90.0000034332277,2|0,0:0|3:0,0:0:0:0:
101,106,73007,2,0,P|144:90|202:93,1,90.0000034332277,0|0,1:2|3:0,0:0:0:0:
210,80,73307,5,2,1:2:0:0:
347,259,73607,1,0,1:2:0:0:
347,259,73907,2,0,P|340:294|328:350,1,90.0000034332277,2|0,1:2|3:0,0:0:0:0:
417,384,74207,2,0,P|410:344|413:316,1,60.0000022888184,2|0,0:0|3:0,0:0:0:0:
242,290,74507,6,0,B|159:272|160:335|63:316,1,180.000006866455,10|0,0:0|1:3,0:0:0:0:
8,263,75032,2,0,P|-3:227|24:144,1,120.000004577637,2|0,0:0|3:0,0:0:0:0:
70,81,75407,2,0,P|56:48|64:82,1,90.0000034332277,2|0,1:2|3:0,0:0:0:0:
138,132,75707,2,0,P|173:136|219:66,1,120.000004577637,6|0,1:2|1:0,0:0:0:0:
278,18,76157,1,2,0:0:0:0:
355,51,76307,2,0,L|478:32,1,120.000004577637,2|2,0:3|0:3,0:0:0:0:
279,246,76907,6,0,L|265:318,1,60.0000022888184,10|0,0:0|3:0,0:0:0:0:
156,380,77207,2,0,P|157:349|144:321,1,60.0000022888184,2|0,0:3|1:0,0:0:0:0:
64,360,77507,6,0,P|36:347|59:372,1,90.0000034332277,2|0,0:0|3:0,0:0:0:0:
146,323,77807,2,0,P|171:301|139:309,1,90.0000034332277,2|0,1:2|3:0,0:0:0:0:
83,244,78107,2,0,P|86:197|101:145,1,90.0000034332277,2|0,1:3|3:0,0:0:0:0:
0,83,78407,2,0,L|12:147,1,60.0000022888184,2|0,1:3|3:0,0:0:0:0:
213,215,78707,6,0,B|302:226|289:167|399:184,1,176.000005371094,2|8,0:0|0:0,0:0:0:0:
382,181,79607,6,0,L|372:143,1,30.0000011444092,2|0,0:0|3:0,0:0:0:0:
445,234,79757,2,0,L|454:197,1,30.0000011444092,2|0,0:0|3:0,0:0:0:0:
383,317,79907,2,0,P|380:287|374:257,1,60.0000022888184,2|0,0:0|0:0,0:0:0:0:
484,343,80207,6,0,P|494:308|472:331,1,90.0000034332277,2|0,0:0|3:0,0:0:0:0:
405,383,80507,6,0,P|368:349|318:345,1,102.000001945496,6|0,1:2|0:0,0:0:0:0:
255,306,80807,2,0,L|250:274,1,30.0000011444092,2|0,0:0|3:0,0:0:0:0:
186,375,80957,2,0,L|192:336,1,30.0000011444092,2|0,0:0|3:0,0:0:0:0:
129,301,81107,2,0,P|83:311|40:319,1,90.0000034332277,2|0,0:0|0:0,0:0:0:0:
0,249,81407,2,0,P|4:221|8:189,1,60.0000022888184,2|0,0:0|3:0,0:0:0:0:
99,48,81707,2,0,P|105:92|111:137,1,90.0000034332277,10|0,0:0|3:0,0:0:0:0:
109,152,82007,6,0,L|69:146,1,30.0000011444092,2|0,0:0|3:0,0:0:0:0:
168,206,82157,2,0,L|206:201,1,30.0000011444092,2|0,0:0|3:0,0:0:0:0:
260,150,82307,2,0,L|319:157,1,60.0000022888184,2|0,0:0|0:0,0:0:0:0:
461,43,82607,6,0,B|446:33|428:38|428:38|446:58|449:89,1,90.0000034332277,2|0,0:0|0:0,0:0:0:0:
473,153,82907,6,0,P|447:123|366:136,1,102.000001945496,6|0,1:2|0:0,0:0:0:0:
326,79,83207,2,0,L|318:37,1,30.0000011444092,2|0,0:0|3:0,0:0:0:0:
266,128,83357,2,0,L|261:168,1,30.0000011444092,2|0,0:0|3:0,0:0:0:0:
202,84,83507,2,0,P|189:58|190:20,1,60.0000022888184,2|0,0:0|0:0,0:0:0:0:
131,140,83807,2,0,L|41:133,1,90.0000034332277,2|0,0:0|0:0,0:0:0:0:
36,124,84107,5,10,0:0:0:0:
273,282,84407,2,0,P|307:272|340:275,1,60.0000022888184,2|0,0:0|1:0,0:0:0:0:
406,233,84707,2,0,P|413:173|421:113,1,120.000004577637,2|0,0:0|1:0,0:0:0:0:
431,107,85157,1,2,0:0:0:0:
376,41,85307,6,0,P|338:43|303:104,1,90.0000034332277,4|0,1:2|3:0,0:0:0:0:
294,87,85607,2,0,L|215:75,1,60.0000022888184,2|0,1:2|0:0,0:0:0:0:
130,0,85907,2,0,L|143:88,1,90.0000034332277,2|0,0:0|3:0,0:0:0:0:
91,137,86207,2,0,P|79:147|85:122,1,60.0000022888184,2|0,0:0|0:0,0:0:0:0:
162,170,86507,5,10,0:0:0:0:
162,170,86807,2,0,P|173:197|172:227,1,60.0000022888184,2|0,0:0|1:0,0:0:0:0:
115,288,87107,2,0,L|-3:272,1,120.000004577637,2|0,0:0|1:0,0:0:0:0:
5,288,87557,1,2,0:0:0:0:
105,369,87707,6,0,P|138:340|184:343,1,90.0000034332277,4|0,1:2|3:0,0:0:0:0:
194,353,88007,2,0,L|263:344,1,60.0000022888184,2|0,1:2|0:0,0:0:0:0:
355,238,88307,2,0,P|327:271|333:320,1,90.0000034332277,2|0,0:0|3:0,0:0:0:0:
388,360,88607,2,0,L|424:354,1,30.0000011444092,2|0,0:0|3:0,0:0:0:0:
472,309,88757,2,0,L|514:315,1,30.0000011444092,2|0,0:0|3:0,0:0:0:0:
466,296,88907,6,0,P|474:236|483:177,1,120.000004577637,10|2,0:0|0:0,0:0:0:0:
427,96,89357,2,0,L|433:132,1,30.0000011444092,2|0,1:2|3:0,0:0:0:0:
374,173,89507,2,0,P|344:167|314:164,1,60.0000022888184,2|2,0:3|0:3,0:0:0:0:
248,199,89807,2,0,P|254:213|253:231,1,30.0000011444092,2|0,0:3|3:0,0:0:0:0:
182,239,89957,2,0,P|175:224|177:207,1,30.0000011444092,2|0,0:0|3:0,0:0:0:0:
225,291,90107,6,0,P|184:264|114:292,1,112.799998278809,6|0,1:2|0:0,0:0:0:0:
70,327,90407,2,0,L|64:356,1,30.0000011444092,2|0,0:0|3:0,0:0:0:0:
13,286,90557,2,0,L|6:256,1,30.0000011444092,2|0,0:0|3:0,0:0:0:0:
57,201,90707,2,0,P|69:162|64:112,1,90.0000034332277,2|0,0:0|0:0,0:0:0:0:
58,43,91007,2,0,L|-17:59,1,60.0000022888184,2|0,0:0|3:0,0:0:0:0:
152,126,91307,2,0,P|186:106|246:113,1,90.0000034332277,10|0,0:0|3:0,0:0:0:0:
245,113,91607,6,0,L|236:62,1,30.0000011444092,2|0,0:0|3:0,0:0:0:0:
306,178,91757,2,0,L|315:127,1,30.0000011444092,2|0,0:0|3:0,0:0:0:0:
373,108,91907,2,0,L|456:92,1,60.0000022888184,2|0,0:3|0:0,0:0:0:0:
512,230,92207,6,0,B|497:212|462:208|441:221|441:221|453:222|472:230,1,99.0000009441376,2|0,0:0|0:0,0:0:0:0:
467,238,92507,6,0,P|495:199|489:138,1,102.000001945496,6|0,1:2|0:0,0:0:0:0:
436,104,92807,2,0,L|387:112,1,30.0000011444092,2|0,0:0|3:0,0:0:0:0:
349,64,92957,2,0,L|356:18,1,30.0000011444092,2|0,0:0|3:0,0:0:0:0:
284,103,93107,2,0,P|253:111|207:85,1,60.0000022888184,2|0,0:0|0:0,0:0:0:0:
86,51,93407,2,0,P|123:21|180:30,1,90.0000034332277,2|0,0:0|0:0,0:0:0:0:
175,32,93707,5,10,0:0:0:0:
40,276,94007,2,0,P|34:240|21:215,1,60.0000022888184,2|0,0:0|1:0,0:0:0:0:
77,151,94307,2,0,P|123:153|149:236,1,120.000004577637,2|0,0:0|1:0,0:0:0:0:
223,257,94757,1,2,0:0:0:0:
291,213,94907,6,0,L|402:201,1,90.0000034332277,6|0,1:2|3:0,0:0:0:0:
393,210,95207,2,0,P|415:232|413:270,1,60.0000022888184,2|0,1:2|0:0,0:0:0:0:
486,158,95507,2,0,L|501:49,1,90.0000034332277,2|0,0:0|3:0,0:0:0:0:
453,12,95807,2,0,P|440:-1|452:17,1,60.0000022888184,2|0,1:2|0:0,0:0:0:0:
377,88,96107,5,10,0:0:0:0:
377,88,96407,2,0,P|342:75|310:82,1,60.0000022888184,2|0,0:0|1:0,0:0:0:0:
251,121,96707,2,0,B|190:128|194:99|133:107,1,120.000004577637,2|0,0:0|1:0,0:0:0:0:
67,58,97157,1,0,0:0:0:0:
9,122,97307,6,0,L|25:223,1,90.0000034332277,6|0,1:2|3:0,0:0:0:0:
31,222,97607,2,0,L|99:237,1,60.0000022888184,2|0,1:2|0:0,0:0:0:0:
57,316,97907,2,0,L|162:301,1,90.0000034332277,2|0,0:0|3:0,0:0:0:0:
160,314,98207,2,0,P|177:339|172:371,1,60.0000022888184,2|0,1:2|0:0,0:0:0:0:
206,246,98507,5,10,0:0:0:0:
283,234,98657,1,2,0:0:0:0:
344,281,98807,1,2,0:3:0:0:
332,358,98957,1,2,1:2:0:0:
336,280,99107,6,0,L|348:209,1,60.0000022888184,2|2,0:3|0:0,0:0:0:0:
257,155,99407,2,0,L|245:84,1,60.0000022888184,2|2,0:3|0:0,0:0:0:0:
318,16,99707,6,0,P|354:8|392:71,1,120.000004577637,6|0,1:2|0:0,0:0:0:0:
499,167,100607,2,0,L|459:160,1,30.0000011444092,0|0,1:2|3:0,0:0:0:0:
405,212,100907,2,0,L|413:272,1,60.0000022888184,2|0,1:2|0:0,0:0:0:0:
470,327,101357,1,2,0:0:0:0:
400,361,101507,2,0,P|366:352|308:354,1,90.0000034332277,10|0,0:0|0:0,0:0:0:0:
291,338,102107,6,0,L|168:361,1,120.000004577637,2|0,1:2|0:0,0:0:0:0:
16,289,103007,2,0,L|52:283,1,30.0000011444092,2|0,1:2|0:0,0:0:0:0:
138,266,103307,2,0,P|133:288|129:315,2,45.0000017166138,2|2|2,1:2|0:0|0:0,0:0:0:0:
63,203,103907,2,0,P|71:156|81:108,1,90.0000034332277,10|0,0:0|0:0,0:0:0:0:
10,68,104507,6,0,P|62:81|119:42,1,120.000004577637,6|0,1:2|0:0,0:0:0:0:
245,0,105407,2,0,L|252:37,1,30.0000011444092,2|0,1:2|0:0,0:0:0:0:
315,74,105707,2,0,L|308:111,1,30.0000011444092,2|0,1:3|0:0,0:0:0:0:
247,159,106007,1,0,0:0:0:0:
247,159,106307,2,0,P|255:191|263:251,1,90.0000034332277,10|0,0:0|3:0,0:0:0:0:
262,247,106907,6,0,P|328:254|372:222,1,120.000004577637,2|0,1:2|0:0,0:0:0:0:
465,187,107807,2,0,L|494:192,1,30.0000011444092,0|0,1:2|0:0,0:0:0:0:
462,182,108107,2,0,P|460:150|467:116,1,60.0000022888184,2|0,1:2|0:0,0:0:0:0:
512,60,108557,1,2,0:0:0:0:
439,25,108707,2,0,L|344:40,1,90.0000034332277,10|0,0:0|3:0,0:0:0:0:
281,90,109307,5,6,1:2:0:0:
216,38,109457,2,0,P|216:14|220:0,1,30.0000011444092,2|0,0:0|0:0,0:0:0:0:
281,90,109757,1,2,0:0:0:0:
217,138,109907,2,0,P|187:155|130:152,1,90.0000034332277,2|2,0:0|0:0,0:0:0:0:
76,103,110507,2,0,L|83:67,2,30.0000011444092,2|0|2,1:3|0:0|0:0,0:0:0:0:
3,275,111107,2,0,P|51:262|103:258,1,90.0000034332277,10|0,0:0|3:0,0:0:0:0:
106,237,111707,6,0,B|194:223|188:286|291:272,1,180.000006866455,2|2,1:2|1:2,0:0:0:0:
348,312,112757,1,0,0:0:0:0:
393,246,112907,2,0,L|384:191,2,45.0000017166138,2|0|2,1:2|0:0|0:0,0:0:0:0:
465,296,113507,2,0,P|483:298|469:288,1,45.0000017166138,8|2,0:0|0:0,0:0:0:0:
244,384,114107,5,6,1:2:0:0:
303,325,114257,2,0,L|297:288,1,30.0000011444092,2|0,0:0|0:0,0:0:0:0:
244,384,114557,1,2,0:0:0:0:
303,325,114707,2,0,P|308:278|318:232,1,90.0000034332277,2|0,0:0|0:0,0:0:0:0:
242,195,115307,2,0,L|176:207,1,60.0000022888184,2|2,1:3|0:0,0:0:0:0:
69,38,115907,1,10,0:0:0:0:
161,75,116207,1,0,0:0:0:0:
92,137,116507,6,0,P|42:165|-19:156,1,120.000004577637,2|0,1:2|0:0,0:0:0:0:
160,75,117407,2,0,L|196:81,1,30.0000011444092,2|0,1:2|0:0,0:0:0:0:
259,125,117707,2,0,P|300:113|356:112,1,90.0000034332277,2|2,1:2|0:0,0:0:0:0:
418,76,118307,2,0,P|431:68|428:81,1,34.0000006484985,10|0,0:0|3:0,0:0:0:0:
418,76,118532,2,0,P|414:48|421:12,1,60.0000022888184,2|0,0:0|3:0,0:0:0:0:
434,3,118907,6,0,L|468:-1,1,30.0000011444092,6|0,1:2|0:0,0:0:0:0:
511,49,119207,1,2,0:0:0:0:
411,157,119507,6,0,L|377:161,1,30.0000011444092,2|0,0:3|0:0,0:0:0:0:
332,111,119807,2,0,L|298:107,1,30.0000011444092,0|0,1:2|0:0,0:0:0:0:
250,155,120107,1,0,1:0:0:0:
250,155,120407,6,0,P|263:187|256:232,1,71.9999978027344,2|0,0:3|3:0,0:0:0:0:
215,282,120707,2,0,P|187:289|212:275,1,71.9999978027344,10|0,0:0|3:0,0:0:0:0:
259,223,121007,2,0,P|301:226|331:250,1,71.9999978027344,2|0,0:0|3:0,0:0:0:0:
383,286,121307,6,0,P|421:275|443:245,1,71.9999978027344,2|0,1:3|3:0,0:0:0:0:
492,200,121607,2,0,L|500:120,1,71.9999978027344,2|0,0:0|3:0,0:0:0:0:
439,86,121907,2,0,L|352:100,1,71.9999978027344,2|0,0:3|3:0,0:0:0:0:
302,126,122207,2,0,P|253:117|229:93,1,71.9999978027344,2|0,1:2|3:0,0:0:0:0:
183,54,122507,2,0,B|121:39|111:86|43:74,1,143.999995605469,2|0,1:2|0:0,0:0:0:0:
43,74,123107,2,0,P|29:52|37:77,1,71.9999978027344,10|0,0:0|3:0,0:0:0:0:
52,146,123407,2,0,L|41:232,1,71.9999978027344,2|0,0:3|3:0,0:0:0:0:
0,276,123707,6,0,L|5:312,1,30.0000011444092,6|0,1:2|0:0,0:0:0:0:
51,355,124007,1,2,0:0:0:0:
221,217,124307,6,0,L|216:253,1,30.0000011444092,2|0,0:3|0:0,0:0:0:0:
170,296,124607,2,0,L|175:338,1,30.0000011444092,0|0,1:2|0:0,0:0:0:0:
226,370,124907,2,0,P|261:359|292:359,1,60.0000022888184,2|0,1:3|0:3,0:0:0:0:
356,384,125357,1,0,0:0:0:0:
422,344,125507,6,0,P|446:308|442:259,1,71.9999978027344,10|0,0:0|3:0,0:0:0:0:
495,225,125807,2,0,P|490:179|457:149,1,71.9999978027344,2|0,0:3|3:0,0:0:0:0:
425,106,126107,6,0,L|332:120,1,71.9999978027344,2|0,1:3|3:0,0:0:0:0:
281,123,126407,2,0,L|294:34,1,71.9999978027344,2|0,0:0|3:0,0:0:0:0:
236,4,126707,2,0,L|143:18,1,71.9999978027344,2|0,0:3|3:0,0:0:0:0:
141,83,127007,2,0,P|117:90|135:79,1,71.9999978027344,2|0,1:2|3:0,0:0:0:0:
164,14,127307,2,0,P|134:52|30:50,1,143.999995605469,2|0,1:2|0:0,0:0:0:0:
0,123,127907,2,0,P|23:162|20:219,1,95.9999970703126,10|0,0:0|1:0,0:0:0:0:
22,211,128507,6,0,P|37:206|52:205,1,30.0000011444092,6|0,1:2|0:0,0:0:0:0:
112,238,128807,1,2,0:0:0:0:
214,69,129107,6,0,L|206:107,1,30.0000011444092,2|0,0:3|0:0,0:0:0:0:
261,142,129407,2,0,L|269:180,1,30.0000011444092,0|0,1:2|0:0,0:0:0:0:
211,213,129707,2,0,L|206:243,1,30.0000011444092,0|0,1:0|0:0,0:0:0:0:
258,288,130007,6,0,P|310:272|345:278,1,71.9999978027344,2|0,0:3|3:0,0:0:0:0:
376,324,130307,2,0,P|397:338|377:322,1,71.9999978027344,10|0,0:0|3:0,0:0:0:0:
326,273,130607,2,0,P|319:238|334:187,1,71.9999978027344,2|0,0:3|3:0,0:0:0:0:
379,152,130907,6,0,P|386:117|371:66,1,71.9999978027344,2|0,1:2|3:0,0:0:0:0:
330,27,131207,2,0,P|301:47|265:46,1,71.9999978027344,2|0,0:0|3:3,0:0:0:0:
216,100,131507,2,0,P|187:79|151:80,1,71.9999978027344,2|0,0:3|3:0,0:0:0:0:
91,40,131807,2,0,L|14:53,1,71.9999978027344,2|0,1:2|3:0,0:0:0:0:
1,121,132107,6,0,P|21:158|18:207,1,71.9999978027344,2|0,1:2|3:0,0:0:0:0:
2,256,132407,1,2,0:0:0:0:
253,366,132707,6,0,P|231:331|195:326,1,71.9999978027344,10|0,0:0|3:0,0:0:0:0:
136,355,133007,2,0,L|63:373,1,71.9999978027344,2|0,0:3|3:0,0:0:0:0:
0,343,133307,2,0,P|8:273|122:268,1,191.999994140625,6|0,1:2|3:0,0:0:0:0:
112,259,134207,5,2,0:0:0:0:
122,252,134357,1,2,0:0:0:0:
166,195,134507,6,0,P|167:165|156:137,1,60,2|2,0:0|0:0,0:0:0:0:
151,125,134957,2,0,B|213:117|211:153|267:145,1,120,2|0,0:0|3:0,0:0:0:0:
328,105,135557,6,0,L|323:61,1,40,2|0,0:0|3:0,0:0:0:0:
327,61,135782,1,2,0:0:0:0:
396,143,136007,2,0,L|389:210,1,60,2|0,0:0|3:0,0:0:0:0:
388,217,136307,6,0,P|412:182|488:184,1,120,2|2,0:0|0:0,0:0:0:0:
509,249,136907,6,0,L|500:311,1,53.3333333333333,2|2,0:0|0:0,0:0:0:0:
487,374,137307,2,0,B|456:341|405:335|373:340|373:340|393:358|396:388,1,173.333333333333,2|0,0:0|3:0,0:0:0:0:
270,345,138107,6,0,P|208:356|127:371,1,136.000002593994,6|0,1:2|1:0,0:0:0:0:
44,333,138507,2,0,P|61:284|148:289,1,136.000002593994,2|0,0:0|0:0,0:0:0:0:
278,212,139007,2,0,P|288:167|270:113,1,90.6666683959961,2|0,0:0|0:0,0:0:0:0:
206,86,139307,2,0,P|148:97|66:113,1,136.000002593994,10|0,0:0|0:0,0:0:0:0:
0,15,139757,1,0,1:0:0:0:
9,11,139907,2,0,P|62:21|107:30,1,95.9999970703126,2|0,0:0|1:0,0:0:0:0:
72,111,140357,1,0,0:0:0:0:
15,176,140507,5,2,1:2:0:0:
106,373,140807,1,0,1:0:0:0:
106,373,141107,2,0,P|147:349|203:357,1,90.0000034332277,2|0,1:2|3:0,0:0:0:0:
262,318,141407,2,0,P|313:327|360:336,1,90.0000034332277,2|0,0:0|3:0,0:0:0:0:
423,284,141707,6,0,P|404:255|343:252,1,90.0000034332277,10|0,0:0|3:0,0:0:0:0:
288,192,142007,2,0,P|282:156|305:93,1,90.0000034332277,2|0,0:0|3:0,0:0:0:0:
371,56,142307,2,0,P|353:27|364:54,1,120.000004577637,2|0,0:0|1:0,0:0:0:0:
296,105,142757,1,0,0:0:0:0:
212,71,142907,6,0,P|160:83|64:104,1,136.000002593994,6|0,1:2|1:0,0:0:0:0:
0,202,143307,2,0,P|106:201|167:272,1,200.000007629395,2|0,0:0|0:0,0:0:0:0:
213,346,143907,2,0,P|197:354|207:340,1,45.3333341979981,2|0,0:0|3:0,0:0:0:0:
286,308,144107,2,0,P|337:317|379:325,1,80.0000030517579,10|0,0:0|3:0,0:0:0:0:
384,308,144407,6,0,P|369:232|354:162,2,136.000002593994,2|0|0,0:0|1:0|1:0,0:0:0:0:
299,384,145307,5,2,1:2:0:0:
465,113,145607,1,0,1:2:0:0:
465,113,145907,2,0,P|427:76|386:78,1,90.0000034332277,2|0,1:2|3:0,0:0:0:0:
318,38,146207,2,0,L|222:61,1,90.0000034332277,2|0,0:0|3:0,0:0:0:0:
162,117,146507,2,0,P|126:131|80:97,1,90.0000034332277,10|0,0:0|3:0,0:0:0:0:
72,83,146807,2,0,L|12:98,1,60.0000022888184,2|0,0:0|0:0,0:0:0:0:
93,214,147107,2,0,L|73:343,1,120.000004577637,2|0,0:0|1:0,0:0:0:0:
433,346,147707,6,0,P|371:293|311:307,1,136.000002593994,6|0,1:2|1:0,0:0:0:0:
249,357,148107,2,0,P|232:281|259:217,1,149.333328776042,2|0,0:0|3:0,0:0:0:0:
339,177,148607,2,0,P|356:155|327:167,1,74.6666643880209,0|0,0:0|3:0,0:0:0:0:
259,218,148907,2,0,P|221:206|170:206,1,74.6666643880209,10|0,0:0|3:0,0:0:0:0:
118,160,149207,2,0,L|0:186,2,111.999996582031,2|0|0,0:0|1:0|1:0,0:0:0:0:
241,63,150107,5,2,1:2:0:0:
184,331,150407,1,0,0:0:0:0:
184,331,150707,2,0,P|229:339|272:307,1,90.0000034332277,2|0,1:2|3:0,0:0:0:0:
330,270,151007,2,0,L|435:291,1,90.0000034332277,2|0,0:0|3:0,0:0:0:0:
494,351,151307,6,0,P|469:374|382:366,1,120.000004577637,10|0,0:0|0:0,0:0:0:0:
330,270,151757,2,0,P|339:223|357:135,1,120.000004577637,2|0,1:2|3:0,0:0:0:0:
281,80,152207,2,0,B|268:78|255:66|255:66|265:101|273:131,1,90.0000034332277,2|0,0:0|3:0,0:0:0:0:
197,180,152507,6,0,L|159:174,1,30.0000011444092,6|0,1:2|3:0,0:0:0:0:
18,267,152807,1,0,1:0:0:0:
18,267,153107,2,0,P|29:300|33:336,1,60.0000022888184,2|0,0:0|0:0,0:0:0:0:
126,384,153707,2,0,L|140:316,1,60.0000022888184,10|0,0:0|0:0,0:0:0:0:
124,309,154157,1,0,1:0:0:0:
213,348,154307,2,0,L|284:337,1,60.0000022888184,2|0,0:0|0:0,0:0:0:0:
370,382,154907,5,2,1:2:0:0:
486,170,155207,2,0,P|475:184|476:209,1,30.0000011444092,0|0,1:0|3:0,0:0:0:0:
473,195,155507,6,0,P|429:188|389:207,1,90.0000034332277,2|0,1:2|3:0,0:0:0:0:
325,161,155807,2,0,P|326:107|347:71,1,90.0000034332277,2|0,0:0|3:0,0:0:0:0:
378,7,156107,2,0,P|344:36|249:30,1,120.000004577637,10|0,0:0|0:0,0:0:0:0:
179,0,156557,2,0,P|186:59|193:119,1,120.000004577637,2|0,1:2|0:0,0:0:0:0:
134,179,157007,2,0,P|114:187|130:174,1,60.0000022888184,2|0,0:0|0:0,0:0:0:0:
206,222,157307,6,0,B|268:226|269:201|324:208,1,120.000004577637,6|0,1:2|1:0,0:0:0:0:
407,150,157757,2,0,P|412:90|419:30,1,120.000004577637,2|0,1:2|0:0,0:0:0:0:
497,190,158207,2,0,P|507:217|508:252,1,60.0000022888185,2|0,0:0|3:0,0:0:0:0:
459,318,158507,2,0,P|400:293|337:313,1,120.000004577637,10|0,0:0|0:0,0:0:0:0:
283,360,158957,1,0,1:2:0:0:
210,319,159107,2,0,L|90:330,1,120.000004577637,2|0,0:0|1:0,0:0:0:0:
90,330,159707,6,0,P|112:278|100:229,1,90.0000034332277,2|0,1:2|3:0,0:0:0:0:
49,196,160007,2,0,P|18:187|43:210,1,90.0000034332277,0|0,1:2|3:0,0:0:0:0:
107,246,160307,2,0,B|168:253|167:225|224:233,1,120.000004577637,2|0,0:2|0:0,0:0:0:0:
301,270,160757,1,0,0:0:0:0:
366,217,160907,6,0,P|380:173|356:85,1,120.000004577637,10|0,0:0|3:0,0:0:0:0:
399,23,161357,2,0,P|418:7|466:4,1,60.0000022888184,2|0,1:2|0:0,0:0:0:0:
295,173,161807,2,0,P|286:164|292:185,1,60.0000022888184,2|0,1:2|0:0,0:0:0:0:
365,218,162107,6,0,L|470:206,1,90.0000034332277,6|0,1:2|0:0,0:0:0:0:
463,216,162407,2,0,P|482:242|477:280,1,60.0000022888184,2|0,1:2|0:0,0:0:0:0:
409,125,162707,2,0,P|480:123|514:76,1,120.000004577637,2|0,0:3|1:2,0:0:0:0:
512,71,163157,1,0,0:0:0:0:
409,125,163307,6,0,P|360:105|276:114,1,120.000004577637,10|0,0:0|0:0,0:0:0:0:
136,69,163757,1,2,0:3:0:0:
209,27,163907,2,0,P|218:55|217:94,1,60.0000022888184,0|0,0:0|0:3,0:0:0:0:
63,110,164207,2,0,P|54:82|55:43,1,60.0000022888184,2|2,1:3|0:0,0:0:0:0:
136,69,164507,5,2,1:2:0:0:
0,238,164807,2,0,B|119:208|119:208|86:225|81:258,1,180.000006866455,2|0,1:2|3:0,0:0:0:0:
146,304,165407,2,0,L|213:296,1,60.0000022888184,2|0,0:0|0:0,0:0:0:0:
288,280,165707,6,0,P|346:292|375:353,1,120.000004577637,10|0,0:0|0:0,0:0:0:0:
474,158,166157,2,0,P|465:216|456:277,1,120.000004577637,2|0,1:3|3:0,0:0:0:0:
496,355,166607,2,0,P|519:365|507:345,1,60.0000022888184,2|0,1:3|0:0,0:0:0:0:
456,277,166907,5,6,1:2:0:0:
198,381,167207,1,0,1:0:0:0:
198,381,167507,2,0,P|158:353|68:347,1,120.000004577637,2|0,1:2|0:0,0:0:0:0:
29,282,167957,1,2,0:0:0:0:
83,218,168107,6,0,B|141:222|145:196|201:203,1,120.000004577637,10|0,0:0|0:0,0:0:0:0:
274,243,168557,1,0,1:0:0:0:
325,175,168707,2,0,L|338:73,1,90.0000034332277,2|0,0:0|3:0,0:0:0:0:
339,74,169007,2,0,L|406:63,1,60.0000022888184,0|0,1:2|0:0,0:0:0:0:
481,50,169307,5,2,1:2:0:0:
181,1,169607,1,0,1:2:0:0:
181,1,169907,6,0,P|168:45|178:101,1,90.0000034332277,2|0,1:2|3:0,0:0:0:0:
249,130,170207,2,0,P|262:113|243:126,1,60.0000022888184,2|0,0:0|3:0,0:0:0:0:
187,189,170507,6,0,B|279:201|268:140|361:156,1,180.000006866455,10|0,0:0|1:3,0:0:0:0:
438,134,171032,2,0,P|456:91|396:81,1,120.000004577637,2|0,0:0|3:0,0:0:0:0:
359,155,171407,2,0,P|351:198|358:249,1,90.0000034332277,2|0,1:2|3:0,0:0:0:0:
411,305,171707,6,0,P|458:273|521:290,1,120.000004577637,6|0,1:2|1:0,0:0:0:0:
372,381,172157,1,2,0:0:0:0:
288,373,172307,2,0,L|148:362,1,120.000004577637,2|2,0:3|0:3,0:0:0:0:
0,227,172907,6,0,L|69:217,1,60.0000022888184,10|0,0:0|3:0,0:0:0:0:
142,204,173207,2,0,L|132:282,1,60.0000022888184,2|0,0:3|1:0,0:0:0:0:
191,334,173507,5,2,0:0:0:0:
262,332,173657,1,2,0:0:0:0:
306,275,173807,1,2,1:2:0:0:
292,204,173957,1,2,0:0:0:0:
295,189,174107,5,2,1:3:0:0:
295,189,174707,6,0,B|386:205|381:150|472:164,1,176.000005371094,2|0,0:0|0:0,0:0:0:0:
465,163,175607,6,0,L|473:128,1,30.0000011444092,2|0,0:0|3:0,0:0:0:0:
512,66,175757,2,0,L|504:31,1,30.0000011444092,2|0,0:0|3:0,0:0:0:0:
430,15,175907,2,0,P|408:15|428:4,1,60.0000022888184,2|0,0:0|0:0,0:0:0:0:
358,80,176207,2,0,P|310:82|273:45,1,90.0000034332277,2|0,0:0|3:0,0:0:0:0:
204,20,176507,6,0,P|162:30|89:46,1,102.000001945496,6|0,1:2|0:0,0:0:0:0:
6,61,176807,2,0,L|16:22,1,30.0000011444092,2|0,0:0|3:0,0:0:0:0:
77,111,176957,2,0,L|71:143,1,30.0000011444092,2|0,0:0|3:0,0:0:0:0:
15,200,177107,2,0,P|-13:211|15:197,1,90.0000034332277,2|0,0:0|3:0,0:0:0:0:
84,236,177407,2,0,P|105:282|101:329,1,90.0000034332277,2|0,0:0|3:0,0:0:0:0:
45,375,177707,2,0,L|-23:364,1,60.0000022888184,10|0,0:0|0:0,0:0:0:0:
197,303,178007,6,0,L|242:311,1,30.0000011444092,2|0,0:0|3:0,0:0:0:0:
276,362,178157,2,0,L|308:355,1,30.0000011444092,2|0,0:0|3:0,0:0:0:0:
372,312,178307,2,0,P|428:323|472:331,1,90.0000034332277,2|0,0:0|3:0,0:0:0:0:
512,273,178607,2,0,P|476:236|432:235,1,90.0000034332277,2|0,0:0|3:0,0:0:0:0:
386,174,178907,2,0,P|385:142|397:105,1,60.0000022888184,6|0,1:2|0:0,0:0:0:0:
213,0,179207,6,0,L|207:29,1,30.0000011444092,2|0,0:0|3:0,0:0:0:0:
283,93,179357,2,0,P|281:76|273:56,1,30.0000011444092,2|0,0:0|3:0,0:0:0:0:
212,128,179507,2,0,P|203:181|196:223,1,90.0000034332277,2|0,0:3|3:0,0:0:0:0:
254,281,179807,2,0,P|282:292|254:278,1,90.0000034332277,2|0,0:3|3:0,0:0:0:0:
197,216,180107,5,10,0:0:0:0:
479,382,180407,2,0,P|482:348|492:319,1,60.0000022888184,2|0,0:0|1:0,0:0:0:0:
390,343,180707,2,0,L|267:365,1,120.000004577637,2|0,0:0|1:0,0:0:0:0:
261,380,181157,1,2,0:0:0:0:
170,336,181307,6,0,P|132:338|97:399,1,90.0000034332277,4|0,1:2|3:0,0:0:0:0:
88,382,181607,2,0,L|9:370,1,60.0000022888184,2|0,1:2|0:0,0:0:0:0:
93,273,181907,2,0,P|85:239|87:172,1,90.0000034332277,2|0,0:0|3:0,0:0:0:0:
26,131,182207,2,0,P|19:122|24:139,1,60.0000022888184,2|0,0:0|0:0,0:0:0:0:
83,69,182507,1,10,0:0:0:0:
83,69,182807,6,0,P|77:28|65:-1,1,60.0000022888184,2|0,0:0|1:0,0:0:0:0:
180,86,183107,2,0,B|233:88|236:53|315:67,1,120.000004577637,2|0,0:0|1:0,0:0:0:0:
314,75,183557,1,2,0:0:0:0:
402,21,183707,6,0,L|388:110,1,90.0000034332277,4|0,1:2|3:0,0:0:0:0:
404,136,184007,2,0,P|438:131|470:127,1,60.0000022888184,2|0,1:2|0:0,0:0:0:0:
375,211,184307,2,0,P|345:207|315:202,1,60.0000022888184,2|0,0:0|0:0,0:0:0:0:
456,262,184607,6,0,L|445:301,1,30.0000011444092,2|0,0:0|3:0,0:0:0:0:
504,359,184757,2,0,L|512:330,1,30.0000011444092,2|0,0:0|3:0,0:0:0:0:
423,382,184907,2,0,P|391:350|320:348,1,120.000004577637,10|2,0:0|0:0,0:0:0:0:
238,269,185357,2,0,L|245:311,1,30.0000011444092,2|0,1:2|3:0,0:0:0:0:
190,349,185507,2,0,P|148:341|120:340,1,60.0000022888184,2|2,0:3|0:3,0:0:0:0:
1,257,185807,6,0,B|33:225|67:241|67:241|51:240|38:253,1,90.0000034332277,2|0,0:3|3:0,0:0:0:0:
50,244,186107,6,0,P|38:202|58:147,1,90.0000034332277,6|0,1:2|0:0,0:0:0:0:
107,108,186407,2,0,P|104:88|98:68,1,30.0000011444092,2|0,0:0|3:0,0:0:0:0:
175,14,186557,2,0,L|172:46,1,30.0000011444092,2|0,0:0|3:0,0:0:0:0:
239,99,186707,2,0,P|283:85|331:84,1,90.0000034332277,2|0,0:0|3:0,0:0:0:0:
392,35,187007,2,0,P|415:24|389:33,1,90.0000034332277,2|0,0:0|3:0,0:0:0:0:
326,83,187307,1,10,0:0:0:0:
495,162,187607,6,0,L|505:124,1,30.0000011444092,2|0,0:0|3:0,0:0:0:0:
422,204,187757,2,0,L|413:167,1,30.0000011444092,2|0,0:0|3:0,0:0:0:0:
496,249,187907,2,0,P|490:281|485:308,1,60.0000022888184,2|0,0:3|0:0,0:0:0:0:
404,384,188207,2,0,B|405:354|385:329|385:329|411:335|414:355,1,90.0000034332277,2|0,0:0|3:0,0:0:0:0:
410,344,188507,6,0,P|373:351|308:363,1,90.0000034332277,6|0,1:2|0:0,0:0:0:0:
262,309,188807,2,0,L|272:265,1,30.0000011444092,2|0,0:0|3:0,0:0:0:0:
195,374,188957,2,0,P|193:352|185:330,1,30.0000011444092,2|0,0:0|3:0,0:0:0:0:
121,309,189107,2,0,P|72:310|34:334,1,90.0000034332277,2|0,0:0|3:0,0:0:0:0:
0,259,189407,2,0,P|-20:248|5:256,1,90.0000034332277,2|0,0:0|3:0,0:0:0:0:
37,330,189707,5,10,0:0:0:0:
159,138,190007,2,0,P|153:102|156:69,1,60.0000022888184,2|0,0:0|1:0,0:0:0:0:
221,38,190307,2,0,L|345:53,1,120.000004577637,2|0,0:0|1:0,0:0:0:0:
356,65,190757,1,2,0:0:0:0:
450,2,190907,6,0,L|435:92,1,90.0000034332277,6|0,1:2|3:0,0:0:0:0:
452,117,191207,2,0,P|486:112|518:108,1,60.0000022888184,2|0,1:2|0:0,0:0:0:0:
418,202,191507,2,0,P|382:176|333:179,1,90.0000034332277,2|0,0:0|3:0,0:0:0:0:
316,202,191807,2,0,L|247:194,1,60.0000022888184,2|0,1:2|0:0,0:0:0:0:
169,150,192107,1,10,0:0:0:0:
169,150,192407,6,0,P|177:180|181:215,1,60.0000022888184,2|0,0:0|1:0,0:0:0:0:
130,272,192707,2,0,B|71:285|69:246|12:258,1,120.000004577637,2|0,0:0|1:0,0:0:0:0:
0,279,193157,1,0,0:0:0:0:
101,344,193307,6,0,P|137:318|186:321,1,90.0000034332277,6|0,1:2|3:0,0:0:0:0:
203,341,193607,2,0,L|267:334,1,60.0000022888184,2|0,1:2|0:0,0:0:0:0:
344,281,193907,2,0,L|449:296,1,90.0000034332277,2|0,0:0|3:0,0:0:0:0:
458,275,194207,2,0,B|461:261|461:261|453:199,1,60.0000022888184,2|0,1:2|0:0,0:0:0:0:
505,117,194507,5,10,0:0:0:0:
435,143,194657,1,2,0:0:0:0:
373,95,194807,1,2,0:3:0:0:
380,23,194957,1,2,1:2:0:0:
446,64,195107,6,0,L|437:111,1,44.0000013427735,10|2,0:3|1:3,0:0:0:0:
485,355,195707,5,4,1:3:0:0:
485,355,196007,2,0,P|457:309|393:307,1,100.799996923828,0|0,1:0|0:0,0:0:0:0:
346,263,196757,1,2,0:0:0:0:
346,263,196907,2,0,P|309:272|271:273,2,75.5999976928712,10|2|2,0:0|1:2|1:2,0:0:0:0:
426,195,198107,5,2,1:2:0:0:
426,195,198407,5,2,0:3:0:0:
430,183,198557,5,2,0:3:0:0:
422,169,198707,5,2,0:3:0:0:
429,152,198857,5,2,0:3:0:0:
417,135,199007,5,2,0:3:0:0:
427,114,199157,5,2,0:3:0:0:
416,91,199307,6,0,P|456:88|495:49,2,75.5999976928712,10|2|2,0:0|1:2|1:2,0:0:0:0:
288,14,200507,5,2,1:2:0:0:
288,14,200807,2,0,P|319:24|326:97,1,100.799996923828,0|2,1:2|0:0,0:0:0:0:
275,131,201557,1,2,0:3:0:0:
275,131,201707,2,0,P|220:119|197:124,2,75.5999976928712,10|2|2,0:0|1:2|1:2,0:0:0:0:
331,181,202757,1,2,0:0:0:0:
283,239,202907,5,2,1:3:0:0:
264,246,203057,5,2,0:3:0:0:
241,243,203207,5,2,1:3:0:0:
218,232,203357,5,2,0:3:0:0:
202,209,203507,5,2,0:3:0:0:
179,189,203657,5,2,0:3:0:0:
146,187,203807,5,2,0:3:0:0:
119,210,203957,5,2,0:3:0:0:
123,247,204107,6,0,P|132:233|131:189,1,50.3999984619141,10|0,0:0|0:0,0:0:0:0:
79,148,204557,2,0,P|41:152|3:157,1,75.5999976928712,2|2,1:2|1:2,0:0:0:0:
161,64,205307,5,4,1:3:0:0:
161,64,205607,5,2,0:3:0:0:
172,58,205757,5,2,0:3:0:0:
189,58,205907,5,2,0:3:0:0:
210,65,206057,5,2,0:3:0:0:
226,87,206207,5,2,0:3:0:0:
225,119,206357,5,2,0:3:0:0:
198,142,206507,6,0,P|141:137|110:138,2,75.5999976928712,10|2|2,0:0|1:2|1:2,0:0:0:0:
254,187,207557,1,2,0:3:0:0:
208,246,207707,5,2,1:2:0:0:
208,246,208007,5,2,0:3:0:0:
212,260,208157,5,2,0:3:0:0:
208,279,208307,5,2,0:3:0:0:
215,303,208457,5,2,0:3:0:0:
204,331,208607,6,0,L|161:338,1,25.1999992309571,2|2,0:3|0:3,0:0:0:0:
50,375,208907,6,0,P|98:383|110:389,1,50.3999984619141,10|2,0:0|0:0,0:0:0:0:
83,304,209357,1,2,1:2:0:0:
75,299,209507,2,0,L|15:308,1,50.3999984619141,0|2,0:0|1:2,0:0:0:0:
124,240,209957,1,2,0:3:0:0:
64,195,210107,5,2,1:2:0:0:
64,195,210407,5,2,0:3:0:0:
70,178,210557,5,2,0:3:0:0:
72,155,210707,5,2,0:3:0:0:
64,128,210857,5,2,0:3:0:0:
57,95,211007,5,2,0:3:0:0:
65,58,211157,5,2,0:3:0:0:
90,23,211307,6,0,P|51:45|9:38,2,75.5999976928712,10|2|2,0:0|1:2|1:2,0:0:0:0:
156,60,212357,1,2,0:3:0:0:
216,17,212507,5,2,1:2:0:0:
216,17,212807,5,2,0:3:0:0:
227,11,212957,5,2,0:3:0:0:
244,11,213107,5,2,0:3:0:0:
265,18,213257,5,2,0:3:0:0:
281,40,213407,5,2,0:3:0:0:
280,72,213557,5,2,0:3:0:0:
253,95,213707,6,0,P|223:92|194:89,1,58.400001604004,10|0,0:0|0:0,0:0:0:0:
120,82,214157,2,0,P|113:110|117:138,1,58.400001604004,2|0,1:2|0:0,0:0:0:0:
50,189,214607,6,0,B|141:174|123:230|213:217,1,169.600000258789,2|0,1:2|0:0,0:0:0:0:
271,164,215957,1,2,0:0:0:0:
273,154,216107,2,0,L|267:113,1,28.2666667097982,2|2,0:0|0:0,0:0:0:0:
316,62,216507,2,0,P|365:62|385:123,1,117.599996411133,2|0,0:0|3:0,0:0:0:0:
381,135,217307,6,0,L|436:130,1,50.3999984619141,2|0,1:2|3:0,0:0:0:0:
441,131,217707,2,0,P|424:164|429:197,1,67.1999979492188,2|0,0:0|3:0,0:0:0:0:
488,280,218207,2,0,P|491:262|491:247,1,33.5999989746094,2|0,0:0|3:0,0:0:0:0:
482,240,218507,2,0,B|383:214|396:296|288:277,1,201.599993847656,2|0,0:0|0:0,0:0:0:0:
291,277,220307,6,0,L|282:224,1,50.3999984619141,2|2,0:0|0:0,0:0:0:0:
210,320,220907,2,0,L|217:268,1,50.3999984619141,2|2,0:0|0:0,0:0:0:0:
143,279,221507,2,0,L|133:224,1,50.3999984619141,2|2,0:0|0:0,0:0:0:0:
133,229,222107,6,0,L|80:224,1,50.3999984619141,2|0,1:2|3:0,0:0:0:0:
81,211,222507,2,0,P|40:232|3:225,1,83.9999974365235,2|0,0:0|3:0,0:0:0:0:
0,150,223107,2,0,L|6:77,1,67.1999979492188,2|0,0:0|3:0,0:0:0:0:
13,75,223607,2,0,P|80:61|108:129,1,151.199995385742,2|0,0:0|0:0,0:0:0:0:
108,126,225107,6,0,L|160:114,1,50.3999984619141,2|2,0:0|0:0,0:0:0:0:
145,193,225707,2,0,L|197:200,1,50.3999984619141,2|2,0:0|0:0,0:0:0:0:
109,277,226307,2,0,L|166:269,1,50.3999984619141,2|2,0:0|0:0,0:0:0:0:
158,269,226907,6,0,P|175:286|177:314,1,50.3999984619141,2|0,1:2|3:0,0:0:0:0:
171,323,227307,2,0,P|207:319|241:350,1,83.9999974365235,2|0,0:0|3:0,0:0:0:0:
309,371,227907,2,0,P|340:364|362:337,1,67.1999979492188,2|0,0:0|3:0,0:0:0:0:
371,331,228407,2,0,L|389:180,1,151.199995385742,2|0,0:0|0:0,0:0:0:0:
388,180,229907,6,0,P|387:155|381:131,1,50.3999984619141,2|2,0:0|0:0,0:0:0:0:
439,86,230507,2,0,P|468:94|494:132,2,75.5999976928712,2|2|2,0:0|0:0|0:0,0:0:0:0:
449,6,231707,6,0,P|426:46|169:97,1,329.99999899292,2|0,1:2|3:0,0:0:0:0:
171,98,235607,6,0,L|182:144,1,30.0000011444092,2|0,0:0|3:0,0:0:0:0:
113,164,235757,2,0,L|105:208,1,30.0000011444092,2|0,0:0|3:0,0:0:0:0:
170,235,235907,2,0,L|180:314,1,60.0000022888184,2|0,0:0|0:0,0:0:0:0:
97,369,236207,6,0,P|93:335|103:366,1,90.0000034332277,2|0,0:0|3:0,0:0:0:0:
185,384,236507,6,0,P|233:389|271:334,1,102.000001945496,6|0,1:0|3:0,0:0:0:50:imgya.wav
320,297,236807,2,0,L|311:256,1,30.0000011444092,2|0,0:0|3:0,0:0:0:0:
387,351,236957,2,0,L|396:308,1,30.0000011444092,2|0,0:0|3:0,0:0:0:0:
453,274,237107,2,0,P|493:280|520:299,1,60.0000022888184,2|0,0:0|0:0,0:0:0:0:
402,207,237407,2,0,P|405:159|423:101,1,90.0000034332277,2|0,0:0|3:0,0:0:0:0:
372,49,237707,2,0,P|362:38|369:57,1,60.0000022888184,10|0,0:0|0:0,0:0:0:0:
280,137,238007,6,0,L|231:128,1,30.0000011444092,2|0,0:0|3:0,0:0:0:0:
191,184,238157,2,0,L|158:189,1,30.0000011444092,2|0,0:0|3:0,0:0:0:0:
97,136,238307,2,0,P|102:108|110:63,1,60.0000022888184,2|0,0:0|0:0,0:0:0:0:
23,176,238607,2,0,P|5:209|13:272,1,90.0000034332277,2|0,0:0|3:0,0:0:0:0:
69,309,238907,2,0,P|107:305|139:301,1,60.0000022888184,6|0,1:1|0:0,0:0:0:100:thunder.wav
216,354,239207,6,0,L|209:392,1,30.0000011444092,2|0,0:0|3:0,0:0:0:0:
283,310,239357,2,0,L|276:272,1,30.0000011444092,2|0,0:0|3:0,0:0:0:0:
350,351,239507,2,0,P|386:362|416:357,1,60.0000022888184,2|0,0:3|0:0,0:0:0:0:
509,262,239807,2,0,L|410:276,1,90.0000034332277,2|0,0:3|3:0,0:0:0:0:
394,256,240107,5,10,0:0:0:0:
298,90,240407,2,0,P|285:124|287:161,1,60.0000022888184,2|0,0:0|1:0,0:0:0:0:
229,202,240707,2,0,P|165:207|130:162,1,120.000004577637,2|0,0:0|1:0,0:0:0:0:
135,144,241157,1,2,0:0:0:0:
51,215,241307,6,0,L|68:324,1,90.0000034332277,6|0,1:1|3:0,0:0:0:100:thunder.wav
59,319,241607,2,0,P|21:313|-12:308,1,60.0000022888184,2|0,1:2|0:0,0:0:0:0:
134,381,241907,2,0,P|171:355|222:363,1,90.0000034332277,2|0,0:0|3:0,0:0:0:0:
223,376,242207,2,0,L|294:365,1,60.0000022888184,2|0,0:0|0:0,0:0:0:0:
347,313,242507,1,10,0:0:0:0:
347,313,242807,6,0,P|357:278|354:243,1,60.0000022888184,2|0,0:0|1:0,0:0:0:0:
407,185,243107,2,0,P|399:144|382:58,1,120.000004577637,2|0,0:0|1:0,0:0:0:0:
397,51,243557,1,2,0:0:0:0:
323,0,243707,6,0,P|285:2|250:63,1,90.0000034332277,6|0,1:1|3:0,0:0:0:100:thunder.wav
240,46,244007,2,0,L|161:34,1,60.0000022888184,2|0,1:2|0:0,0:0:0:0:
91,96,244307,2,0,P|107:142|108:185,1,90.0000034332277,2|0,0:0|3:0,0:0:0:0:
49,240,244607,2,0,P|34:248|43:225,1,60.0000022888184,2|2,0:0|0:0,0:0:0:0:
122,285,244907,1,10,0:0:0:0:
122,285,245207,6,0,L|156:279,1,34.0000006484985,2|0,0:0|3:0,0:0:0:0:
215,225,245357,2,0,P|212:204|203:185,1,34.0000006484985,2|0,1:2|3:0,0:0:0:0:
269,283,245507,2,0,P|314:304|362:292,1,102.000001945496,2|0,0:3|3:0,0:0:0:0:
425,232,245807,2,0,P|437:198|419:229,1,102.000001945496,2|0,0:3|3:0,0:0:0:0:
351,171,246107,6,0,P|333:123|337:73,1,102.000001945496,6|0,1:1|0:0,0:0:0:50:imgya.wav
404,22,246407,2,0,L|412:73,1,34.0000006484985,2|0,0:0|3:0,0:0:0:0:
260,83,246557,2,0,L|268:29,1,34.0000006484985,2|0,0:0|3:0,0:0:0:0:
420,134,246707,2,0,P|454:136|485:146,1,60.0000022888184,2|0,0:0|0:0,0:0:0:0:
276,203,247007,2,0,L|171:222,1,90.0000034332277,2|0,0:0|3:0,0:0:0:0:
122,173,247307,2,0,P|110:156|124:173,1,60.0000022888184,10|0,0:0|0:0,0:0:0:0:
10,336,247607,6,0,L|3:306,1,30.0000011444092,2|0,0:0|3:0,0:0:0:0:
81,296,247757,2,0,L|89:267,1,30.0000011444092,2|0,0:0|3:0,0:0:0:0:
146,345,247907,2,0,P|193:346|236:389,1,90.0000034332277,2|0,0:3|3:0,0:0:0:0:
241,377,248207,2,0,L|319:373,1,60.0000022888184,2|0,0:0|0:0,0:0:0:0:
464,365,248507,6,0,P|487:312|470:253,1,102.000001945496,6|0,1:1|0:0,0:0:0:100:thunder.wav
414,227,248807,2,0,P|409:225|414:238,1,30.0000011444092,2|0,0:0|3:0,0:0:0:0:
483,190,248957,2,0,L|490:143,1,30.0000011444092,2|0,0:0|3:0,0:0:0:0:
432,101,249107,2,0,P|426:67|420:36,1,60.0000022888184,2|0,0:0|0:0,0:0:0:0:
354,162,249407,6,0,B|332:153|315:151|295:167|295:167|299:142|321:136|321:136,1,102.000001945496,2|0,0:0|0:0,0:0:0:0:
317,137,249707,6,0,P|279:109|216:122,1,90.0000034332277,10|0,0:0|3:0,0:0:0:0:
224,117,250007,2,0,L|162:109,1,60.0000022888184,2|0,0:0|1:0,0:0:0:0:
195,25,250307,2,0,L|66:42,1,120.000004577637,2|0,0:0|1:0,0:0:0:0:
63,32,250757,1,2,0:0:0:0:
0,131,250907,6,0,P|49:141|60:197,1,90.0000034332277,6|0,1:1|3:0,0:0:0:100:thunder.wav
78,181,251207,2,0,L|68:247,1,60.0000022888184,2|0,1:2|0:0,0:0:0:0:
109,321,251507,2,0,B|172:327|172:299|227:307,1,120.000004577637,2|2,0:0|1:2,0:0:0:0:
297,360,251957,1,0,0:0:0:0:
358,299,252107,6,0,P|400:282|457:309,1,90.0000034332277,10|0,0:0|3:0,0:0:0:0:
498,344,252407,2,0,P|502:366|494:347,1,60.0000022888184,2|0,0:0|1:0,0:0:0:0:
441,294,252707,2,0,B|455:237|428:233|448:171,1,120.000004577637,2|0,0:0|1:0,0:0:0:0:
508,115,253157,1,0,0:0:0:0:
439,67,253307,6,0,L|343:78,1,90.0000034332277,6|0,1:1|3:0,0:0:0:100:thunder.wav
339,77,253607,2,0,L|348:17,1,60.0000022888184,2|0,1:2|0:0,0:0:0:0:
269,125,253907,2,0,P|221:90|161:91,1,120.000004577637,2|2,0:0|1:2,0:0:0:0:
88,58,254357,1,0,0:0:0:0:
30,116,254507,6,0,P|34:146|38:175,1,60.0000022888184,10|2,0:0|0:0,0:0:0:0:
171,229,254807,2,0,P|166:259|162:288,1,60.0000022888184,2|2,0:3|1:2,0:0:0:0:
22,369,255107,5,2,1:3:0:0:
3,287,255257,1,2,0:2:0:0:
84,268,255407,1,2,1:3:0:0:
103,350,255557,1,2,0:0:0:0:
22,369,255707,5,6,1:3:0:0:
256,192,255857,12,0,260507,0:0:0:0:
