osu file format v14

[General]
AudioFilename: audio.mp3
AudioLeadIn: 0
PreviewTime: 55699
Countdown: 0
SampleSet: Soft
StackLeniency: 0.2
Mode: 0
LetterboxInBreaks: 0
WidescreenStoryboard: 1

[Editor]
DistanceSpacing: 0.5
BeatDivisor: 8
GridSize: 32
TimelineZoom: 1.200001

[Metadata]
Title:Doin' Time
TitleUnicode:Doin' Time
Artist:Lana Del Rey
ArtistUnicode:Lana Del Rey
Creator:jas
Version:Summertime
Source:
Tags:craezy mkguh norman fucking rockwell nfr ldr elizabeth lizzy grant sublime summertime george gershwin alternative alt indie english trip pop trippop ska cover
BeatmapID:2675573
BeatmapSetID:1207252

[Difficulty]
HPDrainRate:6
CircleSize:4.5
OverallDifficulty:8.5
ApproachRate:8.8
SliderMultiplier:1.4
SliderTickRate:1

[Events]
//Background and Video events
0,0,"rsz_1czl2f90kkvk21.jpg",0,0
//Break Periods
2,24864,26518
2,102863,105346
//Storyboard Layer 0 (Background)
//Storyboard Layer 1 (Fail)
//Storyboard Layer 2 (Pass)
//Storyboard Layer 3 (Foreground)
//Storyboard Layer 4 (Overlay)
//Storyboard Sound Samples

[TimingPoints]
44,413.793103448276,4,2,2,40,1,0
44,-200,4,2,2,40,0,0
6250,-66.6666666666667,4,2,2,40,0,0
6664,-100,4,2,2,40,0,0
8733,-133.333333333333,4,2,2,40,0,0
29733,-133.333333333333,4,2,2,5,0,0
29837,-100,4,2,1,70,0,0
55906,-66.6666666666667,4,2,1,70,0,0
56061,-66.6666666666667,4,2,2,5,0,0
56112,-66.6666666666667,4,2,1,70,0,0
56268,-66.6666666666667,4,2,2,5,0,0
56319,-133.333333333333,4,2,2,50,0,0
69561,-80,4,2,1,80,0,1
76181,-100,4,2,1,75,0,0
82802,-111.111111111111,4,2,1,60,0,0
96044,-100,4,2,1,70,0,0
108768,-100,4,2,2,5,0,0
108871,-66.6666666666667,4,2,2,80,0,0
109026,-66.6666666666667,4,2,2,5,0,0
109078,-66.6666666666667,4,2,2,80,0,0
109233,-66.6666666666667,4,2,2,5,0,0
109285,-80,4,2,1,80,0,1
122423,-80,4,2,1,80,0,0
122526,-80,4,2,1,80,0,1
129147,-100,4,2,1,75,0,0
135768,-100,4,2,1,70,0,0
161837,-80,4,2,1,70,0,0
161992,-80,4,2,2,5,0,0
162044,-80,4,2,1,70,0,0
162199,-80,4,2,2,5,0,0
162250,-133.333333333333,4,2,1,70,0,0
162302,-133.333333333333,4,2,2,60,0,0
173837,-100,4,2,2,60,0,0
174664,-66.6666666666667,4,2,2,60,0,0
175078,-66.6666666666667,4,2,2,85,0,0
175233,-66.6666666666667,4,2,2,5,0,0
175285,-66.6666666666667,4,2,2,85,0,0
175440,-66.6666666666667,4,2,2,5,0,0
175492,-80,4,2,1,85,0,1
188630,-80,4,2,1,85,0,0
188733,-80,4,2,1,85,0,1
192044,-133.333333333333,4,2,2,75,0,0
195561,-133.333333333333,4,2,2,5,0,0

[Colours]
Combo1 : 163,228,135
Combo2 : 138,149,242
Combo3 : 238,68,68
Combo4 : 235,202,139

[HitObjects]
54,328,44,5,2,0:0:0:0:
58,332,250,1,0,0:0:0:0:
135,351,457,1,0,0:0:0:0:
215,296,664,1,0,0:0:0:0:
256,192,871,5,2,0:0:0:0:
260,196,1492,1,2,0:0:0:0:
450,328,3354,5,2,0:0:0:0:
454,332,3560,1,0,0:0:0:0:
377,351,3767,1,0,0:0:0:0:
297,296,3974,1,0,0:0:0:0:
256,192,4181,5,2,0:0:0:0:
260,196,4802,1,2,0:0:0:0:
18,89,6250,6,0,B|35:110|31:138|31:138|35:110|57:96,1,105.000004005432,2|2,0:0|0:0,0:0:0:0:
48,15,6664,2,0,B|88:139|218:188|333:114|333:114|298:130|260:110,1,420,2|0,0:0|0:0,0:0:0:0:
301,41,8112,1,0,0:0:0:0:
305,45,8733,6,0,L|378:33,1,52.5000020027161,2|0,0:0|0:0,0:0:0:0:
356,36,9147,2,0,L|429:24,1,52.5000020027161,2|0,0:0|0:0,0:0:0:0:
472,77,9561,2,0,L|453:192,1,105.000004005432,2|2,0:0|0:0,0:0:0:0:
454,180,10802,5,2,0:0:0:0:
467,259,11009,1,0,0:0:0:0:
395,296,11216,1,2,0:0:0:0:
338,239,11423,1,2,0:0:0:0:
374,167,11630,5,2,0:0:0:0:
316,111,11837,1,0,0:0:0:0:
244,148,12044,1,2,0:0:0:0:
256,227,12250,1,0,0:0:0:0:
185,264,12457,6,0,P|176:227|181:199,1,52.5000020027161,2|0,0:0|0:0,0:0:0:0:
185,264,12871,2,0,P|157:290|130:299,1,52.5000020027161,0|0,0:0|0:0,0:0:0:0:
185,264,13285,2,0,P|221:274|243:293,1,52.5000020027161,2|0,0:0|0:0,0:0:0:0:
185,264,13699,5,2,0:0:0:0:
159,270,13906,1,2,0:0:0:0:
218,192,14112,5,2,0:0:0:0:
87,173,14319,1,0,0:0:0:0:
106,42,14526,1,2,0:0:0:0:
237,61,14733,1,0,0:0:0:0:
175,113,14940,6,0,L|123:121,1,52.5000020027161,2|0,0:0|0:0,0:0:0:0:
237,61,15354,1,2,0:0:0:0:
263,66,15561,1,2,0:0:0:0:
336,32,15768,6,0,L|387:40,1,52.5000020027161,2|0,0:0|0:0,0:0:0:0:
482,54,16181,2,0,L|448:94,1,52.5000020027161,0|0,0:0|0:0,0:0:0:0:
389,169,16595,2,0,L|370:119,1,52.5000020027161,2|0,0:0|0:0,0:0:0:0:
468,171,17009,2,0,L|486:220,1,52.5000020027161,2|0,0:0|0:0,0:0:0:0:
468,297,17423,5,2,0:0:0:0:
391,278,17630,1,2,0:0:0:0:
315,300,17837,1,2,0:0:0:0:
259,356,18044,1,2,0:0:0:0:
280,230,18250,5,2,0:0:0:0:
202,241,18457,1,0,0:0:0:0:
188,318,18664,1,0,0:0:0:0:
259,356,18871,1,0,0:0:0:0:
231,167,19078,6,0,P|183:163|130:209,2,105.000004005432,2|2|2,0:0|0:0|0:0,0:0:0:0:
231,167,20733,5,2,0:0:0:0:
231,167,21561,5,2,0:0:0:0:
307,194,21768,1,0,0:0:0:0:
334,118,21975,1,0,0:0:0:0:
246,246,22181,2,0,L|254:297,1,52.5000020027161,2|0,0:0|0:0,0:0:0:0:
331,324,22595,5,0,0:0:0:0:
408,209,22802,1,2,0:0:0:0:
469,333,23009,1,0,0:0:0:0:
402,288,23216,6,0,L|381:164,1,105.000004005432,2|0,0:0|0:0,0:0:0:0:
388,188,23837,1,0,0:0:0:0:
315,144,24044,2,0,L|251:154,2,52.5000020027161,2|0|0,0:0|0:0|0:0,0:0:0:0:
417,46,24664,1,2,0:0:0:0:
256,192,27147,12,0,29733,0:0:0:0:
80,236,29837,6,0,L|93:318,1,70,0|0,3:0|0:0,0:0:0:0:
141,185,30250,1,0,1:0:0:0:
65,157,30457,1,0,3:0:0:0:
169,109,30664,5,10,0:0:0:0:
76,43,30871,1,2,0:0:0:0:
141,185,31078,1,2,1:2:0:0:
282,120,31285,1,2,0:0:0:0:
298,124,31388,1,0,0:0:0:0:
315,127,31492,1,0,0:0:0:0:
403,29,31699,6,0,P|397:61|389:111,1,70,8|0,0:0|1:0,0:0:0:0:
407,214,32112,1,2,3:2:0:0:
485,228,32319,1,10,0:0:0:0:
499,149,32526,1,2,0:0:0:0:
433,288,32733,5,2,3:2:0:0:
345,161,32940,2,0,L|263:174,1,70,2|0,0:0|3:0,0:0:0:0:
202,309,33354,2,0,L|120:296,1,70,2|0,0:0|1:0,0:0:0:0:
26,205,33768,1,0,3:0:0:0:
30,209,33975,6,0,B|58:203|85:200|85:200|106:210|106:210|141:206|178:198,1,140,10|0,0:0|1:0,0:0:0:0:
194,97,34595,1,0,3:0:0:0:
199,80,34699,1,0,3:0:0:0:
204,63,34802,1,0,3:0:0:0:
305,172,35009,5,8,0:0:0:0:
270,17,35216,1,0,1:0:0:0:
404,73,35423,5,0,3:0:0:0:
383,151,35630,1,8,0:0:0:0:
461,130,35837,1,0,3:0:0:0:
326,94,36044,1,12,0:0:0:0:
440,208,36250,5,8,0:0:0:0:
444,212,36319,5,8,0:0:0:0:
448,216,36388,5,8,0:0:0:0:
452,220,36457,6,0,L|475:368,1,140,0|0,3:0|1:0,0:0:0:0:
359,255,37078,1,2,3:2:0:0:
367,344,37285,2,0,L|378:275,1,70,10|2,0:0|0:0,0:0:0:0:
286,349,37699,1,2,1:2:0:0:
301,199,37906,2,0,P|234:211|146:222,1,140,2|10,0:0|0:0,0:0:0:0:
98,171,38526,6,0,L|109:102,1,70,0|0,1:0|3:0,0:0:0:0:
120,21,38940,1,8,0:0:0:0:
184,70,39147,1,2,0:0:0:0:
25,204,39354,2,0,P|47:234|79:248,1,70,2|0,3:2|0:0,0:0:0:0:
92,252,39664,1,0,0:0:0:0:
108,256,39768,6,0,L|177:245,1,70,2|0,3:2|0:0,0:0:0:0:
227,309,40181,1,2,1:2:0:0:
241,195,40388,1,2,3:2:0:0:
410,283,40595,6,0,P|344:299|290:259,1,140,10|0,0:0|1:0,0:0:0:0:
370,186,41216,1,0,3:0:0:0:
365,203,41319,1,0,3:0:0:0:
360,220,41423,1,0,3:0:0:0:
326,119,41630,5,8,0:0:0:0:
451,182,41837,1,0,1:0:0:0:
362,47,42044,5,0,3:0:0:0:
246,124,42250,1,8,0:0:0:0:
282,52,42457,1,0,3:0:0:0:
370,186,42664,2,0,L|381:255,1,70,12|8,0:0|0:0,0:0:0:0:
395,264,42975,1,8,0:0:0:0:
410,272,43078,6,0,L|421:341,1,70,0|0,3:0|0:0,0:0:0:0:
251,364,43492,2,0,B|215:370|215:370|186:353,1,70,2|0,1:2|3:0,0:0:0:0:
283,227,43906,2,0,B|306:255|306:255|305:288,1,70,10|0,0:0|0:0,0:0:0:0:
153,265,44319,2,0,B|165:230|165:230|195:214,1,70,2|0,1:2|0:0,0:0:0:0:
231,286,44733,5,2,0:0:0:0:
96,323,44940,1,10,0:0:0:0:
194,214,45147,1,2,1:2:0:0:
120,182,45354,1,2,3:2:0:0:
196,65,45561,2,0,L|185:134,1,70,10|0,0:0|0:0,0:0:0:0:
260,166,45975,1,2,3:2:0:0:
360,119,46181,1,2,0:0:0:0:
375,129,46285,1,0,0:0:0:0:
390,138,46388,6,0,P|380:70|367:-5,1,140,2|0,3:2|1:0,0:0:0:0:
470,127,47009,1,0,3:0:0:0:
360,213,47216,2,0,P|318:205|268:198,1,70,8|0,0:0|0:0,0:0:0:0:
409,276,47630,1,0,1:0:0:0:
470,127,47837,5,0,3:0:0:0:
468,109,47940,1,0,3:0:0:0:
466,91,48044,1,0,3:0:0:0:
360,213,48250,1,8,0:0:0:0:
438,201,48457,1,0,1:0:0:0:
331,286,48664,5,0,3:0:0:0:
311,151,48871,1,8,0:0:0:0:
201,236,49078,5,2,0:0:0:0:
279,224,49285,1,14,0:0:0:0:
169,309,49492,5,10,0:0:0:0:
173,313,49561,5,8,0:0:0:0:
177,317,49630,5,8,0:0:0:0:
181,321,49699,5,2,3:2:0:0:
149,174,49906,1,2,0:0:0:0:
39,259,50112,6,0,L|28:328,1,70,2|0,1:2|3:0,0:0:0:0:
117,247,50526,1,10,0:0:0:0:
76,142,50733,1,2,0:0:0:0:
82,114,50940,1,2,1:2:0:0:
201,236,51147,6,0,P|274:223|360:210,1,140,2|10,0:0|0:0,0:0:0:0:
384,147,51768,1,2,1:2:0:0:
391,280,51975,1,2,3:2:0:0:
395,284,52181,2,0,P|407:251|419:218,1,70,8|2,0:0|0:0,0:0:0:0:
384,147,52595,2,0,P|378:112|372:77,1,70,2|8,3:2|0:0,0:0:0:0:
368,61,52906,1,8,0:0:0:0:
365,45,53009,6,0,P|289:98|242:94,1,140,2|0,3:2|1:0,0:0:0:0:
229,23,53630,1,2,3:2:0:0:
176,72,53837,2,0,B|158:142|209:136|193:206,1,140,8|0,0:0|1:0,0:0:0:0:
93,258,54457,1,0,3:0:0:0:
76,262,54561,1,0,3:0:0:0:
59,266,54664,1,0,3:0:0:0:
116,182,54871,5,8,0:0:0:0:
169,284,55078,1,0,1:0:0:0:
192,206,55285,1,0,3:0:0:0:
108,337,55492,1,8,0:0:0:0:
247,265,55699,1,0,0:0:0:0:
378,349,55906,6,0,P|399:330|453:331,1,78.7500030040742,14|0,0:0|0:0,0:0:0:0:
449,336,56112,2,0,P|410:338|379:315,1,78.7500030040742,2|0,0:0|0:0,0:0:0:0:
376,307,56319,6,0,B|337:169|444:90|444:90|415:120|424:167,1,315.000012016297,6|0,0:0|0:0,0:0:0:0:
502,146,57768,1,2,0:0:0:0:
502,146,58802,5,10,0:0:0:0:
502,146,59630,5,6,0:0:0:0:
478,135,59837,1,2,0:0:0:0:
397,130,60044,1,2,0:0:0:0:
316,178,60250,1,2,0:0:0:0:
279,282,60457,2,0,P|279:331|314:374,1,105.000004005432,10|2,0:0|0:0,0:0:0:0:
463,346,61078,2,0,B|485:282|485:282|413:246|356:305,1,210.000008010865,2|0,0:0|0:0,0:0:0:0:
389,377,62112,5,10,0:0:0:0:
389,377,62940,5,6,0:0:0:0:
359,370,63147,1,0,0:0:0:0:
280,352,63354,1,2,0:0:0:0:
186,329,63561,1,0,0:0:0:0:
77,303,63768,2,0,P|69:251|60:199,1,105.000004005432,10|2,0:0|0:0,0:0:0:0:
23,109,64388,2,0,B|106:124|106:124|121:139|130:157|130:157|212:177,1,210.000008010865,2|0,0:0|0:0,0:0:0:0:
276,129,65423,5,10,0:0:0:0:
276,129,66250,5,6,0:0:0:0:
288,157,66457,1,0,0:0:0:0:
250,229,66664,1,2,0:0:0:0:
316,298,66871,1,0,0:0:0:0:
243,380,67078,2,0,L|139:363,1,105.000004005432,10|2,0:0|0:0,0:0:0:0:
0,291,67699,2,0,P|100:293|149:206,1,210.000008010865,2|0,0:0|0:0,0:0:0:0:
82,161,68733,5,10,0:0:0:0:
82,161,69561,6,0,B|164:174|164:174|169:177|169:177|267:192,1,175,6|0,3:2|1:0,0:0:0:0:
319,280,70181,1,0,3:0:0:0:
302,125,70388,2,0,P|328:158|331:213,1,87.5,10|0,0:0|0:0,0:0:0:0:
239,269,70802,2,0,L|142:284,1,87.5,0|0,0:0|3:0,0:0:0:0:
130,286,71112,1,0,3:0:0:0:
108,290,71216,5,2,3:2:0:0:
254,190,71423,1,10,0:0:0:0:
94,113,71630,1,2,1:2:0:0:
143,178,71837,1,2,3:2:0:0:
126,39,72044,1,8,0:0:0:0:
14,123,72250,5,2,0:0:0:0:
174,103,72457,1,6,3:2:0:0:
334,83,72664,1,2,3:2:0:0:
389,141,72871,6,0,L|375:227,1,87.5,6|0,3:2|0:0,0:0:0:0:
358,337,73285,1,2,1:2:0:0:
422,291,73492,1,2,3:2:0:0:
311,273,73699,5,10,0:0:0:0:
430,370,73906,1,2,0:0:0:0:
375,227,74112,1,2,1:2:0:0:
278,346,74319,5,2,0:0:0:0:
256,349,74423,1,0,0:0:0:0:
234,352,74526,1,0,0:0:0:0:
140,224,74733,1,10,0:0:0:0:
268,130,74940,1,0,1:0:0:0:
187,288,75147,1,0,3:0:0:0:
90,138,75354,5,10,0:0:0:0:
204,177,75561,1,2,0:0:0:0:
108,296,75768,1,14,0:0:0:0:
252,242,75975,1,2,0:0:0:0:
273,247,76078,1,0,0:0:0:0:
294,252,76181,6,0,L|380:238,1,70,0|0,3:0|0:0,0:0:0:0:
474,160,76595,2,0,L|405:172,1,70,0|0,1:0|3:0,0:0:0:0:
411,304,77009,2,0,P|433:278|443:245,1,70,10|0,0:0|0:0,0:0:0:0:
324,168,77423,1,0,1:0:0:0:
450,103,77630,1,2,0:0:0:0:
454,119,77733,1,0,0:0:0:0:
458,135,77837,5,0,0:0:0:0:
369,100,78044,1,8,0:0:0:0:
363,240,78250,2,0,P|372:273|394:299,1,70,0|0,1:0|3:0,0:0:0:0:
512,245,78664,2,0,L|443:234,1,70,8|0,0:0|0:0,0:0:0:0:
350,366,79078,1,0,3:0:0:0:
282,220,79285,1,0,0:0:0:0:
286,203,79388,1,0,0:0:0:0:
290,185,79492,6,0,L|279:116,1,70,0|0,3:0|0:0,0:0:0:0:
135,139,79906,2,0,L|146:208,1,70,0|0,1:0|3:0,0:0:0:0:
201,91,80319,2,0,P|175:69|142:59,1,70,10|0,0:0|0:0,0:0:0:0:
135,139,80733,1,0,1:0:0:0:
278,115,80940,5,2,3:2:0:0:
294,119,81044,1,0,3:0:0:0:
310,123,81147,1,0,3:0:0:0:
127,218,81354,5,8,0:0:0:0:
92,223,81457,1,8,0:0:0:0:
57,229,81560,1,8,0:0:0:0:
135,139,81768,1,0,3:0:0:0:
208,223,81975,2,0,P|198:257|176:284,1,70,8|0,0:0|0:0,0:0:0:0:
140,58,82388,1,12,0:0:0:0:
276,183,82595,1,8,0:0:0:0:
280,187,82699,1,0,0:0:0:0:
284,191,82802,6,0,L|421:169,1,125.999996154785,0|0,3:0|1:0,0:0:0:0:
489,159,83423,1,0,3:0:0:0:
420,251,83630,2,0,L|408:319,1,62.9999980773926,8|0,0:0|0:0,0:0:0:0:
284,191,84044,2,0,L|272:122,1,62.9999980773926,0|0,1:0|1:0,0:0:0:0:
271,113,84354,1,0,1:0:0:0:
268,97,84457,5,0,1:0:0:0:
229,250,84664,2,0,P|254:266|298:270,1,62.9999980773926,8|0,0:0|1:0,0:0:0:0:
204,174,85078,1,0,3:0:0:0:
161,294,85285,2,0,P|149:265|151:233,1,62.9999980773926,8|0,0:0|0:0,0:0:0:0:
284,191,85699,1,0,3:0:0:0:
205,361,85906,1,10,0:0:0:0:
208,364,86009,1,8,0:0:0:0:
212,368,86112,6,0,L|281:356,1,62.9999980773926,10|0,3:2|0:0,0:0:0:0:
161,294,86526,1,2,1:2:0:0:
136,300,86733,1,0,3:0:0:0:
30,247,86940,2,0,P|18:217|19:186,1,62.9999980773926,10|0,0:0|0:0,0:0:0:0:
106,113,87354,2,0,L|175:125,1,62.9999980773926,0|0,1:0|1:0,0:0:0:0:
177,136,87664,1,0,1:0:0:0:
186,148,87768,5,0,1:0:0:0:
210,56,87975,1,8,0:0:0:0:
329,27,88181,5,0,1:0:0:0:
374,178,88388,1,0,3:0:0:0:
427,80,88595,5,8,0:0:0:0:
276,125,88802,1,0,0:0:0:0:
406,2,89009,5,4,3:2:0:0:
507,56,89216,2,0,L|524:52,3,15.7499995193482,8|8|8|8,0:0|0:0|0:0|0:0,0:0:0:0:
500,64,89423,6,0,P|489:124|477:193,1,125.999996154785,0|0,3:0|1:0,0:0:0:0:
512,262,90044,1,0,3:0:0:0:
397,169,90250,2,0,P|397:201|408:229,1,62.9999980773926,8|0,0:0|0:0,0:0:0:0:
512,262,90664,2,0,P|484:277|465:301,1,62.9999980773926,0|2,1:0|1:2,0:0:0:0:
461,317,90975,1,0,1:0:0:0:
457,332,91078,5,2,1:2:0:0:
324,368,91285,2,0,L|255:356,1,62.9999980773926,8|2,0:0|1:2,0:0:0:0:
182,342,91699,1,0,3:0:0:0:
225,219,91906,2,0,P|236:248|235:280,1,62.9999980773926,8|0,0:0|0:0,0:0:0:0:
103,323,92319,1,0,3:0:0:0:
88,174,92526,1,10,0:0:0:0:
92,178,92630,1,8,0:0:0:0:
96,182,92733,6,0,L|158:171,1,62.9999980773926,8|2,3:2|0:0,0:0:0:0:
237,158,93147,1,2,1:2:0:0:
186,96,93354,1,0,3:0:0:0:
38,127,93561,2,0,P|21:154|16:186,1,62.9999980773926,10|0,0:0|0:0,0:0:0:0:
106,244,93975,2,0,L|94:175,1,62.9999980773926,0|0,1:0|1:0,0:0:0:0:
104,169,94285,1,0,1:0:0:0:
113,156,94388,5,0,1:0:0:0:
191,132,94595,1,8,0:0:0:0:
261,169,94802,5,0,1:0:0:0:
213,310,95009,1,0,3:0:0:0:
367,238,95216,5,8,0:0:0:0:
342,160,95423,1,0,0:0:0:0:
442,266,95630,5,4,3:2:0:0:
480,98,95837,2,0,L|484:70,3,15.7499995193482,10|8|8|8,0:0|0:0|0:0|0:0,0:0:0:0:
478,108,96044,5,2,3:2:0:0:
489,148,96147,1,2,0:0:0:0:
500,188,96250,1,2,0:0:0:0:
345,318,96457,5,2,1:2:0:0:
356,278,96560,1,2,0:0:0:0:
367,238,96663,1,2,3:2:0:0:
258,129,96871,5,10,0:0:0:0:
179,143,97078,1,2,0:0:0:0:
206,67,97285,5,2,1:2:0:0:
231,205,97492,1,2,1:2:0:0:
227,222,97595,1,0,1:0:0:0:
224,239,97699,1,2,1:2:0:0:
41,118,97906,2,0,P|110:129|178:142,1,140,8|0,0:0|3:0,0:0:0:0:
93,208,98526,5,10,0:2:0:0:
13,224,98733,1,2,0:2:0:0:
109,288,98940,1,2,3:2:0:0:
29,304,99147,1,2,1:2:0:0:
33,308,99250,1,0,1:0:0:0:
37,312,99354,5,2,3:2:0:0:
171,235,99561,1,2,0:2:0:0:
41,147,99768,1,2,1:2:0:0:
185,315,99975,5,2,3:2:0:0:
233,182,100181,1,10,0:2:0:0:
93,208,100388,1,2,0:2:0:0:
171,235,100595,1,0,1:0:0:0:
295,129,100802,1,0,1:0:0:0:
312,133,100906,1,0,1:0:0:0:
329,135,101009,5,0,1:0:0:0:
284,51,101216,1,8,0:0:0:0:
368,6,101423,5,0,1:0:0:0:
329,215,101630,1,0,3:0:0:0:
189,160,101837,5,8,0:0:0:0:
164,40,102044,1,0,0:0:0:0:
24,123,102250,5,4,0:0:0:0:
104,112,102457,2,0,L|122:110,4,17.5,8|8|8|8|0,0:0|0:0|0:0|0:0|3:0,0:0:0:0:
256,192,105975,12,0,108768,0:0:0:0:
94,193,108871,6,0,P|90:137|56:125,1,78.7500030040742,2|0,0:2|0:0,0:0:0:0:
64,132,109078,2,0,P|77:186|113:192,1,78.7500030040742,2|0,0:2|0:0,0:0:0:0:
94,193,109285,6,0,B|187:179|166:242|262:221,1,175,6|0,3:2|1:0,0:0:0:0:
225,144,109906,1,0,3:0:0:0:
124,271,110112,2,0,P|132:313|139:368,1,87.5,10|0,0:2|0:0,0:0:0:0:
211,302,110526,1,0,1:0:0:0:
60,223,110733,2,0,P|68:182|75:126,1,87.5,2|0,0:2|0:0,0:0:0:0:
1,15,111147,1,8,0:0:0:0:
142,13,111354,5,2,1:2:0:0:
72,55,111561,1,2,3:2:0:0:
217,214,111768,1,10,0:2:0:0:
214,52,111975,1,2,0:2:0:0:
145,175,112181,1,6,3:2:0:0:
355,130,112388,1,0,0:0:0:0:
359,134,112492,1,0,0:0:0:0:
363,138,112595,6,0,L|460:153,1,87.5,2|0,3:2|0:0,0:0:0:0:
271,274,113009,2,0,P|234:293|177:284,1,87.5,0|0,1:0|3:0,0:0:0:0:
217,214,113423,5,10,0:2:0:0:
161,365,113630,1,2,0:2:0:0:
295,197,113837,5,2,1:2:0:0:
188,77,114044,1,2,0:2:0:0:
139,231,114250,5,2,0:2:0:0:
271,274,114457,1,10,0:2:0:0:
314,142,114664,1,2,1:2:0:0:
182,99,114871,1,2,3:2:0:0:
60,219,115078,6,0,P|65:261|91:296,1,87.5,10|0,0:2|0:0,0:0:0:0:
109,155,115492,1,6,3:2:0:0:
271,274,115699,5,0,0:0:0:0:
275,278,115768,5,0,0:0:0:0:
279,282,115837,5,0,0:0:0:0:
283,286,115906,6,0,L|380:271,1,87.5,2|0,3:2|0:0,0:0:0:0:
403,138,116319,1,2,1:2:0:0:
425,215,116526,1,2,3:2:0:0:
283,286,116733,5,10,0:2:0:0:
326,119,116940,1,2,0:2:0:0:
142,38,117147,5,2,1:2:0:0:
184,190,117354,1,2,0:2:0:0:
180,211,117457,1,0,0:0:0:0:
177,232,117561,6,0,L|80:247,1,87.5,2|8,0:2|0:0,0:0:0:0:
31,150,117975,1,2,1:2:0:0:
110,130,118181,1,2,3:2:0:0:
257,221,118388,1,10,0:2:0:0:
336,201,118594,1,0,0:0:0:0:
446,68,118802,2,0,P|438:108|432:154,1,87.5,2|0,3:2|0:0,0:0:0:0:
441,174,119112,1,0,0:0:0:0:
449,194,119216,6,0,P|444:237|435:280,1,87.5,2|0,3:2|0:0,0:0:0:0:
311,359,119630,2,0,L|214:344,1,87.5,2|0,1:2|3:0,0:0:0:0:
86,342,120044,5,10,0:2:0:0:
9,369,120250,1,2,0:2:0:0:
101,262,120457,1,2,1:2:0:0:
54,128,120664,1,2,0:2:0:0:
58,132,120768,1,0,0:0:0:0:
62,136,120871,1,2,0:2:0:0:
188,81,121078,5,2,3:2:0:0:
185,102,121181,1,0,3:0:0:0:
182,123,121285,1,2,3:2:0:0:
235,215,121492,1,2,3:2:0:0:
84,57,121699,6,0,P|42:57|3:79,1,87.5,10|0,0:2|0:0,0:0:0:0:
62,136,122112,1,14,0:2:0:0:
199,1,122319,1,0,0:0:0:0:
385,55,122526,6,0,B|396:127|396:127|392:141|383:155|383:155|399:249,1,175,6|0,3:2|1:0,0:0:0:0:
409,305,123147,1,0,3:0:0:0:
506,250,123354,2,0,P|417:262|333:276,1,175,10|0,0:0|0:0,0:0:0:0:
423,384,123975,1,0,3:0:0:0:
273,328,124181,5,2,3:2:0:0:
246,170,124388,1,10,0:0:0:0:
180,262,124595,1,2,1:2:0:0:
338,235,124802,1,2,3:2:0:0:
166,183,125009,1,8,0:0:0:0:
351,314,125216,5,2,0:0:0:0:
325,156,125423,1,6,3:2:0:0:
300,1,125630,1,2,3:2:0:0:
304,5,125733,1,0,3:0:0:0:
308,9,125837,6,0,L|294:95,1,87.5,6|0,3:2|0:0,0:0:0:0:
259,249,126250,1,2,1:2:0:0:
338,235,126457,1,2,3:2:0:0:
246,170,126664,5,10,0:0:0:0:
310,310,126871,1,2,0:0:0:0:
400,185,127078,1,2,1:2:0:0:
230,324,127285,5,2,0:0:0:0:
226,345,127388,1,0,0:0:0:0:
222,366,127492,1,0,0:0:0:0:
133,257,127699,5,10,3:2:0:0:
127,213,127802,1,0,3:0:0:0:
121,169,127906,1,0,3:0:0:0:
53,351,128112,1,0,3:0:0:0:
213,245,128319,6,0,L|199:159,1,87.5,10|2,0:0|0:0,0:0:0:0:
45,91,128733,1,14,0:0:0:0:
234,13,128940,5,10,0:0:0:0:
238,17,129009,5,0,0:0:0:0:
242,21,129078,5,0,0:0:0:0:
246,25,129147,6,0,P|297:34|334:122,1,140,0|0,3:0|1:0,0:0:0:0:
256,104,129768,1,0,3:0:0:0:
375,177,129975,2,0,P|335:187|289:169,1,70,8|0,0:0|0:0,0:0:0:0:
416,108,130388,1,0,1:0:0:0:
444,218,130595,1,0,1:0:0:0:
448,222,130699,1,0,0:0:0:0:
452,226,130802,5,0,1:0:0:0:
485,149,131009,1,8,0:0:0:0:
403,287,131216,2,0,P|367:301|334:299,1,70,0|0,1:0|3:0,0:0:0:0:
310,169,131630,2,0,P|338:190|355:221,1,70,8|0,0:0|0:0,0:0:0:0:
277,243,132044,1,0,3:0:0:0:
256,95,132250,1,8,0:0:0:0:
260,99,132354,1,8,0:0:0:0:
264,103,132457,6,0,P|296:89|330:90,1,70,8|0,3:2|0:0,0:0:0:0:
277,243,132871,2,0,P|244:256|210:255,1,70,0|0,1:2|3:0,0:0:0:0:
94,143,133285,2,0,L|105:74,1,70,8|0,0:0|0:0,0:0:0:0:
150,202,133699,1,0,1:0:0:0:
0,277,133906,5,0,1:0:0:0:
5,261,134009,1,0,1:0:0:0:
9,245,134112,1,0,1:0:0:0:
82,73,134319,5,8,0:0:0:0:
88,108,134422,1,0,0:0:0:0:
94,143,134525,1,8,0:0:0:0:
209,254,134733,2,0,L|243:259,1,35,0|0,3:0|3:0,0:0:0:0:
391,167,134940,5,8,0:0:0:0:
252,39,135147,1,8,0:0:0:0:
94,143,135354,1,12,0:0:0:0:
108,223,135561,1,0,1:0:0:0:
366,37,135768,6,0,B|395:33|418:16|418:16|402:93|389:179,1,210,2|0,3:2|3:0,0:0:0:0:
301,84,136595,2,0,P|287:52|288:17,1,70,10|0,0:2|0:0,0:0:0:0:
446,225,137009,1,0,1:0:0:0:
317,201,137216,1,2,1:2:0:0:
408,297,137423,5,2,1:2:0:0:
328,282,137630,1,10,0:2:0:0:
393,377,137837,1,2,1:2:0:0:
313,362,138044,1,2,3:2:0:0:
470,350,138250,1,10,0:2:0:0:
380,220,138457,1,2,0:2:0:0:
251,309,138664,1,2,3:2:0:0:
408,297,138871,1,2,0:2:0:0:
266,229,139078,6,0,P|229:231|199:246,1,70,2|0,3:2|0:0,0:0:0:0:
153,384,139492,2,0,P|169:353|172:319,1,70,2|0,1:2|3:0,0:0:0:0:
108,175,139906,2,0,L|39:186,1,70,8|0,0:0|0:0,0:0:0:0:
52,265,140319,2,0,L|121:254,1,70,2|0,1:2|1:0,0:0:0:0:
169,124,140733,5,2,1:2:0:0:
296,233,140940,1,10,0:2:0:0:
453,177,141147,2,0,P|469:146|472:112,1,70,2|0,1:2|3:0,0:0:0:0:
352,68,141561,2,0,L|375:207,1,140,10|4,0:2|3:2,0:0:0:0:
393,328,142181,1,0,1:0:0:0:
397,332,142285,1,0,1:0:0:0:
401,336,142388,6,0,B|341:289|222:337|256:435|345:394|302:347,1,210,2|0,3:2|3:0,0:0:0:0:
211,317,143216,2,0,P|198:349|197:383,1,70,10|0,0:2|0:0,0:0:0:0:
268,259,143630,2,0,L|256:189,1,70,0|0,1:0|1:2,0:0:0:0:
236,78,144044,5,2,1:2:0:0:
189,144,144250,1,10,0:2:0:0:
302,125,144457,1,2,1:2:0:0:
155,70,144664,1,2,3:2:0:0:
310,45,144871,1,10,0:2:0:0:
256,190,145078,1,2,0:2:0:0:
202,3,145285,1,2,3:2:0:0:
376,92,145492,1,2,0:2:0:0:
189,144,145699,6,0,L|119:156,1,70,2|0,3:2|0:0,0:0:0:0:
335,198,146112,2,0,L|405:210,1,70,2|0,1:2|3:0,0:0:0:0:
302,124,146526,2,0,P|279:141|256:178,1,70,8|0,0:0|0:0,0:0:0:0:
298,318,146940,2,0,P|293:284|276:254,1,70,2|0,1:2|1:0,0:0:0:0:
72,122,147354,5,2,1:2:0:0:
199,231,147561,1,10,0:2:0:0:
356,175,147768,2,0,P|372:144|375:110,1,70,2|0,1:2|3:0,0:0:0:0:
283,51,148181,2,0,L|295:121,1,70,10|0,0:2|0:0,0:0:0:0:
324,248,148595,1,4,3:2:0:0:
263,195,148802,1,0,1:0:0:0:
246,202,148906,1,0,1:0:0:0:
229,208,149009,6,0,B|152:220|170:175|93:186,1,140,2|0,3:2|1:0,0:0:0:0:
205,130,149630,1,0,3:0:0:0:
117,264,149837,2,0,P|123:297|129:334,1,70,10|0,0:2|0:0,0:0:0:0:
62,377,150250,1,0,1:0:0:0:
6,241,150457,1,2,1:2:0:0:
23,244,150561,1,0,1:0:0:0:
39,247,150664,1,0,1:2:0:0:
169,117,150871,5,8,0:0:0:0:
90,132,151078,2,0,P|56:138|20:144,1,70,0|0,1:0|3:0,0:0:0:0:
196,41,151492,1,8,0:0:0:0:
222,178,151699,5,2,0:2:0:0:
301,162,151906,1,2,3:2:0:0:
328,86,152112,1,2,0:2:0:0:
354,223,152319,6,0,P|424:213|494:211,1,140,2|0,3:2|1:2,0:0:0:0:
512,289,152940,1,0,3:0:0:0:
313,294,153147,2,0,P|288:270|274:239,1,70,10|0,0:2|0:0,0:0:0:0:
354,223,153561,1,0,1:0:0:0:
281,374,153768,1,2,1:2:0:0:
281,374,153871,1,0,1:0:0:0:
281,374,153975,1,0,1:0:0:0:
360,360,154181,1,8,0:0:0:0:
232,297,154388,5,2,1:2:0:0:
193,368,154595,1,0,3:0:0:0:
65,305,154802,2,0,L|53:236,1,70,10|0,0:2|0:0,0:0:0:0:
151,298,155216,1,6,3:2:0:0:
271,226,155423,1,0,1:0:0:0:
275,230,155526,1,0,1:0:0:0:
279,234,155630,6,0,P|292:162|304:85,1,140,2|0,3:2|1:0,0:0:0:0:
257,29,156250,1,0,3:0:0:0:
380,73,156457,2,0,P|364:43|336:23,1,70,10|0,0:2|0:0,0:0:0:0:
222,101,156871,1,0,1:0:0:0:
105,31,157078,1,2,1:2:0:0:
107,48,157181,1,0,1:0:0:0:
109,65,157285,1,0,1:2:0:0:
27,9,157492,1,8,0:0:0:0:
150,135,157699,6,0,P|141:175|117:202,1,70,2|0,1:2|3:0,0:0:0:0:
0,261,158112,2,0,P|32:250|67:254,1,70,10|0,0:2|0:0,0:0:0:0:
185,328,158526,2,0,P|154:300|143:265,1,70,2|0,3:2|0:0,0:0:0:0:
160,266,158837,1,0,0:0:0:0:
176,260,158940,6,0,B|251:249|233:294|310:282,1,140,2|0,3:2|1:2,0:0:0:0:
287,203,159561,1,0,3:0:0:0:
381,331,159768,2,0,P|385:295|393:262,1,70,10|0,0:2|0:0,0:0:0:0:
475,168,160181,1,0,1:0:0:0:
472,248,160388,1,2,1:2:0:0:
476,252,160492,1,0,1:0:0:0:
480,256,160595,5,0,1:0:0:0:
400,138,160802,1,8,0:0:0:0:
462,9,161009,5,0,1:0:0:0:
464,89,161216,1,0,3:0:0:0:
334,184,161423,2,0,P|299:189|265:196,1,70,8|0,0:0|0:0,0:0:0:0:
137,288,161837,6,0,P|94:263|96:233,1,65.625,6|0,3:2|0:0,0:0:0:0:
118,233,162044,2,0,P|140:255|137:287,1,65.625,2|0,1:2|0:0,0:0:0:0:
137,288,162250,6,0,B|114:324|55:277|125:211|163:226|161:283|271:178|215:99|159:68|159:68|135:127|35:114|35:114|71:157|168:139|120:105|200:86|259:109|259:109|212:84|211:36,1,787.500030040742,4|0,3:2|0:0,0:0:0:0:
290,32,165561,2,0,B|273:62|285:117|324:135|324:135|262:201|304:222|261:285|261:285|319:178|440:230|325:366|261:48|489:99|475:267|385:234|380:187,1,577.500022029878,2|0,0:2|0:0,0:0:0:0:
363,65,168044,6,0,P|399:79|434:80,1,52.5000020027161,2|0,0:2|0:0,0:0:0:0:
488,15,168457,2,0,B|481:36|481:36|493:63|492:96,1,78.7500030040742,2|0,0:2|0:0,0:0:0:0:
491,103,168871,6,0,B|488:148|457:206|388:200|426:274|445:289|432:313|432:313|413:297|425:273|429:193|367:224|313:173|301:130|301:130|332:185|401:187,1,577.500022029878,2|0,0:2|0:0,0:0:0:0:
261,61,171354,2,0,P|242:74|226:98,1,52.5000020027161,2|0,0:0|0:0,0:0:0:0:
301,130,171768,1,2,0:0:0:0:
194,172,171975,1,0,0:0:0:0:
198,176,172078,1,0,0:0:0:0:
202,180,172181,1,2,0:2:0:0:
202,180,173009,6,0,P|149:157|42:157,1,157.500006008148,2|0,0:2|0:0,0:0:0:0:
47,273,173837,2,0,B|30:184|30:184|21:173|16:160|16:160|-2:62,1,210,2|0,0:2|0:0,0:0:0:0:
47,6,174664,2,0,P|83:8|57:17,1,105.000004005432,2|0,0:2|0:0,0:0:0:0:
25,122,175078,6,0,P|39:126|43:181,1,78.7500030040742,2|0,0:2|0:0,0:0:0:0:
34,177,175285,2,0,P|38:163|93:159,1,78.7500030040742,2|0,0:2|0:0,0:0:0:0:
96,167,175492,6,0,B|110:260|47:239|68:335,1,175,6|0,3:2|1:0,0:0:0:0:
145,296,176112,1,0,3:0:0:0:
254,374,176319,2,0,P|296:366|351:359,1,87.5,10|0,0:2|0:0,0:0:0:0:
420,250,176733,1,0,1:0:0:0:
499,234,176940,2,0,P|495:280|457:322,1,87.5,2|0,0:2|0:0,0:0:0:0:
341,266,177354,1,8,0:0:0:0:
445,173,177561,5,2,1:2:0:0:
366,189,177768,1,2,3:2:0:0:
316,343,177975,1,10,0:2:0:0:
287,205,178181,1,2,0:2:0:0:
152,161,178388,1,6,3:2:0:0:
46,255,178595,1,0,0:0:0:0:
50,259,178699,1,0,0:0:0:0:
54,263,178802,6,0,L|151:278,1,87.5,2|0,3:2|0:0,0:0:0:0:
232,145,179216,2,0,P|214:108|170:82,1,87.5,0|0,1:0|3:0,0:0:0:0:
152,161,179630,5,10,0:2:0:0:
262,281,179837,1,2,0:2:0:0:
175,83,180044,5,2,1:2:0:0:
16,118,180251,1,2,0:2:0:0:
232,140,180457,5,2,0:2:0:0:
198,5,180664,1,10,0:2:0:0:
63,39,180871,1,2,1:2:0:0:
97,174,181078,1,2,3:2:0:0:
292,195,181285,6,0,P|313:145|308:112,1,87.5,10|0,0:2|0:0,0:0:0:0:
248,61,181699,1,6,3:2:0:0:
175,196,181906,5,0,0:0:0:0:
179,200,181975,5,0,0:0:0:0:
183,204,182044,5,0,0:0:0:0:
187,208,182112,6,0,P|195:259|202:305,1,87.5,2|0,3:2|0:0,0:0:0:0:
215,375,182526,1,2,1:2:0:0:
138,348,182733,1,2,3:2:0:0:
276,323,182940,5,10,0:2:0:0:
327,158,183147,1,2,0:2:0:0:
460,206,183354,5,2,1:2:0:0:
509,371,183561,1,2,0:2:0:0:
488,377,183664,1,0,0:0:0:0:
467,383,183768,6,0,L|380:369,1,87.5,2|8,0:2|0:0,0:0:0:0:
300,349,184181,1,2,1:2:0:0:
278,272,184388,1,2,3:2:0:0:
406,143,184595,1,10,0:2:0:0:
432,0,184802,1,0,0:0:0:0:
378,145,185009,2,0,P|326:152|287:161,1,87.5,2|0,3:2|0:0,0:0:0:0:
279,177,185319,1,0,0:0:0:0:
267,195,185423,6,0,P|224:204|180:209,1,87.5,2|0,3:2|0:0,0:0:0:0:
74,88,185837,2,0,L|89:-9,1,87.5,2|0,1:2|3:0,0:0:0:0:
129,147,186250,5,10,0:2:0:0:
100,222,186457,1,2,0:2:0:0:
208,133,186664,1,2,1:2:0:0:
231,271,186871,1,2,1:2:0:0:
235,275,186975,1,0,1:0:0:0:
239,279,187078,5,2,3:2:0:0:
122,359,187285,1,10,0:0:0:0:
259,196,187492,1,2,1:2:0:0:
361,320,187699,1,2,3:2:0:0:
485,218,187906,6,0,L|470:121,1,87.5,10|0,0:2|0:0,0:0:0:0:
450,0,188319,1,14,0:2:0:0:
347,84,188526,1,0,0:0:0:0:
325,90,188630,1,0,0:0:0:0:
304,95,188733,6,0,P|260:86|207:80,1,87.5,6|0,3:2|0:0,0:0:0:0:
62,182,189147,2,0,P|105:173|149:167,1,87.5,0|0,1:0|3:0,0:0:0:0:
225,326,189561,6,0,L|240:229,1,87.5,10|0,0:0|0:0,0:0:0:0:
414,180,189975,2,0,L|427:266,1,87.5,0|0,0:0|3:0,0:0:0:0:
431,288,190285,1,0,3:0:0:0:
435,309,190388,5,2,3:2:0:0:
333,189,190595,1,10,0:0:0:0:
385,40,190802,1,2,1:2:0:0:
312,76,191009,1,2,3:2:0:0:
178,14,191216,1,8,0:0:0:0:
103,43,191423,5,2,0:0:0:0:
77,201,191630,1,6,3:2:0:0:
52,356,191837,1,2,3:2:0:0:
56,360,192044,6,0,P|102:346|170:341,1,105.000004005432,2|2,0:2|0:2,0:0:0:0:
162,344,192664,1,2,0:2:0:0:
236,375,192871,1,2,0:2:0:0:
299,326,193078,2,0,L|307:269,2,52.5000020027161,2|2|2,0:2|0:2|0:2,0:0:0:0:
256,192,193595,12,0,195561,0:2:0:0:
